<?xml version="1.0" standalone="no"?>
<!DOCTYPE svg PUBLIC "-//W3C//DTD SVG 1.1//EN" "http://www.w3.org/Graphics/SVG/1.1/DTD/svg11.dtd" >
<svg xmlns="http://www.w3.org/2000/svg">
<metadata></metadata>
<defs>
<font id="libre_baskervilleitalic" horiz-adv-x="1562" >
<font-face units-per-em="2048" ascent="1638" descent="-410" />
<missing-glyph horiz-adv-x="563" />
<glyph unicode="&#xfb01;" horiz-adv-x="1257" d="M-397 -377q0 51 26.5 81t73.5 30q38 0 59.5 -22.5t28 -49.5t26 -49.5t54.5 -22.5q47 0 85.5 49t59.5 130l297 1153h-196l26 94h195q89 359 209.5 521.5t283.5 162.5q120 0 198.5 -50.5t78.5 -125.5q0 -47 -27 -80t-71 -33t-68.5 20.5t-33 49.5t-15.5 57.5t-26 49 t-54 20.5q-80 0 -156.5 -163t-130.5 -429h181q92 0 189.5 10t115.5 10q34 0 48.5 -11t14.5 -44q0 -46 -43 -188l-137 -449q-33 -120 -33 -156q0 -51 45 -51q28 0 61.5 25t62.5 61.5t50 69t33 57.5l64 -35q-22 -54 -58.5 -109.5t-85 -107.5t-110.5 -85t-125 -33 q-64 0 -95.5 36.5t-31.5 116.5q0 85 57 281l78 262q33 119 33 160q0 54 -38.5 70t-139.5 16h-158l-193 -772q-42 -166 -85 -284t-88 -195.5t-99 -122.5t-110.5 -62.5t-129.5 -17.5q-84 0 -140 44.5t-56 110.5z" />
<glyph unicode="&#xfb02;" horiz-adv-x="1263" d="M-397 -375q0 50 27 79.5t73 29.5q31 0 50.5 -15t28.5 -36t17 -42t24.5 -36t43.5 -15q49 0 88 47t61 132l297 1153h-196l26 94h195q95 349 225 506t322 157q100 0 166 -32l213 51l-367 -1346q-33 -115 -33 -162q0 -53 43 -53q45 0 119 72t121 162l61 -35 q-72 -154 -189.5 -255t-223.5 -101q-125 0 -125 135q0 102 55 299l266 977q10 42 10 67q0 59 -30.5 94t-83.5 35q-106 0 -199 -147t-162 -424h222l-29 -94h-215l-193 -772q-92 -369 -205 -525.5t-286 -156.5q-100 0 -158.5 42.5t-58.5 114.5z" />
<glyph unicode="&#xfb03;" horiz-adv-x="1828" d="M-397 -375q0 50 27 79.5t73 29.5q31 0 50.5 -15t28.5 -36t17 -42t24.5 -36t43.5 -15q49 0 88 47t61 132l297 1153h-196l26 94h195q92 329 201 455t301 126q180 0 278 -67q122 170 301 170q113 0 190 -51.5t77 -126.5q0 -49 -29.5 -80t-75.5 -31q-38 0 -61 20.5t-32 49.5 t-17 57.5t-25 49t-47 20.5q-85 0 -160.5 -152.5t-134.5 -439.5h135q108 0 217 10t127 10q34 0 49 -11t15 -44q0 -46 -43 -188l-138 -449q-32 -116 -32 -156q0 -51 45 -51q28 0 61.5 25t62.5 61.5t50 69t33 57.5l63 -35q-22 -54 -58.5 -109.5t-85 -107.5t-110.5 -85t-125 -33 q-64 0 -95.5 36.5t-31.5 116.5q0 85 57 281l78 262q33 119 33 160q0 54 -38.5 70t-139.5 16h-152l-190 -772q-92 -372 -200 -527t-277 -155q-94 0 -148.5 37.5t-54.5 101.5q0 43 25 69.5t65 26.5q30 0 51.5 -17.5t31.5 -39t30 -39t47 -17.5q88 0 135 179l295 1153h-387 l-193 -772q-92 -369 -205 -525.5t-286 -156.5q-100 0 -158.5 42.5t-58.5 114.5zM526 1016h389q53 217 129 389q-31 47 -82.5 73.5t-113.5 26.5q-111 0 -180.5 -105.5t-141.5 -383.5z" />
<glyph unicode="&#xfb04;" horiz-adv-x="1841" d="M-397 -375q0 50 27 79.5t73 29.5q31 0 50.5 -15t28.5 -36t17 -42t24.5 -36t43.5 -15q49 0 88 47t61 132l297 1153h-196l26 94h195q92 329 201 455t301 126q190 0 297 -79q131 161 325 161q100 0 166 -32l213 51l-366 -1346q-33 -115 -33 -162q0 -53 43 -53q45 0 118.5 72 t120.5 162l62 -35q-72 -153 -190 -254.5t-224 -101.5q-125 0 -125 135q0 98 56 299l266 977q10 42 10 67q0 59 -30.5 94t-84.5 35q-106 0 -198.5 -147t-161.5 -424h221l-29 -94h-215l-192 -772q-92 -369 -205.5 -525.5t-286.5 -156.5q-91 0 -143.5 37t-52.5 100 q0 49 27 78.5t73 29.5q33 0 51.5 -19t24.5 -42.5t22 -42.5t45 -19q49 0 88.5 47t61.5 132l297 1153h-387l-193 -772q-92 -369 -205 -525.5t-286 -156.5q-100 0 -158.5 42.5t-58.5 114.5zM526 1016h389q60 224 138 373q-29 55 -87 85.5t-118 30.5q-111 0 -180.5 -105.5 t-141.5 -383.5z" />
<glyph horiz-adv-x="0" />
<glyph horiz-adv-x="682" />
<glyph horiz-adv-x="0" />
<glyph horiz-adv-x="0" />
<glyph unicode="&#xd;" horiz-adv-x="641" />
<glyph unicode=" "  horiz-adv-x="563" />
<glyph unicode="&#x09;" horiz-adv-x="563" />
<glyph unicode="&#xa0;" horiz-adv-x="563" />
<glyph unicode="!" horiz-adv-x="649" d="M117 104q0 56 37 95t92 39t92 -39t37 -93t-38.5 -90t-92.5 -36q-52 0 -89.5 35t-37.5 89zM264 424l98 932q14 131 49 186t105 55q58 0 85.5 -36t27.5 -117q0 -72 -25 -150t-106 -282q-54 -135 -99 -301t-63 -287h-72z" />
<glyph unicode="&#x22;" horiz-adv-x="735" d="M315 1155q8 60 14.5 132.5t10 119.5t10 99t16 83.5t25 59t40 39.5t58.5 12t54 -20t20 -52q0 -15 -28.5 -85.5t-79.5 -192t-80 -195.5h-60zM627 1155q8 60 14.5 132.5t10 119.5t10 99t16 83.5t25 59t40 39.5t58.5 12q33 0 53 -20t20 -52q0 -15 -28.5 -85.5t-79.5 -192 t-80 -195.5h-59z" />
<glyph unicode="#" horiz-adv-x="1372" d="M125 522l16 103h291l49 348h-293l17 102h295l71 502h123l-71 -502h309l69 502h123l-69 -502h274l-16 -102h-277l-47 -348h281l-17 -103h-284l-76 -522h-121l72 522h-309l-78 -522h-123l78 522h-287zM555 625h309l47 348h-307z" />
<glyph unicode="$" horiz-adv-x="1196" d="M45 332q0 94 60.5 166.5t138.5 72.5q60 0 100 -49q-57 -23 -91 -79.5t-34 -127.5q0 -81 43.5 -136t122.5 -79l162 666q-50 38 -84 66t-73.5 69.5t-63.5 80t-40 89.5t-16 105q0 173 137.5 294t340.5 127l43 175h116l-45 -183q130 -22 208.5 -96.5t78.5 -179.5 q0 -89 -54 -144t-141 -55q-62 0 -84 43q48 14 80.5 63.5t32.5 110.5q0 62 -37.5 102.5t-107.5 53.5l-131 -543q39 -28 52 -38t49 -38t51 -42.5t44.5 -43.5t42.5 -50t33 -53t28.5 -61t15.5 -66t7 -75q0 -133 -74.5 -247.5t-201 -182t-273.5 -67.5h-8l-67 -279h-117l69 293 q-135 33 -224 127t-89 211zM471 1255q0 -68 35 -123t102 -112l113 469q-113 -11 -181.5 -74.5t-68.5 -159.5zM500 88q150 5 249 87.5t99 203.5q0 90 -52.5 161.5t-150.5 149.5z" />
<glyph unicode="%" horiz-adv-x="1398" d="M27 0l1276 1577h118l-1257 -1577h-137zM248 1171q0 103 47 203t122 162.5t152 62.5q80 0 129.5 -57.5t49.5 -150.5q0 -102 -48.5 -205t-124.5 -168.5t-151 -65.5q-78 0 -127 60.5t-49 158.5zM358 1118q0 -54 20.5 -83t57.5 -29q46 0 92.5 65t76.5 167t30 202 q0 51 -19.5 78.5t-54.5 27.5q-46 0 -93.5 -64.5t-78.5 -165t-31 -198.5zM743 199q0 103 47 203t122.5 162.5t152.5 62.5q80 0 129 -57.5t49 -151.5q0 -102 -48 -204.5t-124 -168t-151 -65.5q-78 0 -127.5 60.5t-49.5 158.5zM854 145q0 -54 20.5 -83t57.5 -29q46 0 92.5 65 t76 167t29.5 202q0 51 -19 78.5t-54 27.5q-46 0 -93.5 -64.5t-78.5 -165t-31 -198.5z" />
<glyph unicode="&#x26;" horiz-adv-x="1839" d="M121 592q0 179 93 306t253 167q-35 79 -35 192q0 150 101.5 245t261.5 95q124 0 201 -64t77 -167q0 -50 -18 -83.5t-49 -39.5q-34 77 -97 121.5t-139 44.5q-94 0 -154.5 -62.5t-60.5 -160.5q0 -105 70 -127q100 -32 133 -59t33 -74q0 -44 -26.5 -69.5t-72.5 -25.5 q-38 0 -69 18.5t-49.5 40t-47 40t-61.5 18.5q-71 0 -118.5 -71t-47.5 -177q0 -104 47 -198t126.5 -161t190 -106.5t232.5 -39.5q151 0 282 63t208 169.5t77 229.5q0 129 -82.5 217.5t-203.5 88.5q-100 0 -162 -51t-62 -134q0 -61 32.5 -103t78.5 -42q47 0 47 49q0 9 -2 31.5 t-2 31.5q0 35 22.5 58.5t57.5 23.5q43 0 73.5 -37.5t30.5 -89.5q0 -72 -62 -124t-149 -52q-98 0 -162.5 74t-64.5 188q0 148 111 241t286 93h215q123 0 197 51.5t74 137.5q0 52 -33 92.5t-74 40.5q-26 0 -38 -14.5t-15.5 -35.5t-9 -42t-25.5 -35.5t-57 -14.5q-49 0 -77 28 t-28 77q0 68 51.5 107.5t139.5 39.5q127 0 211 -84t84 -211q0 -142 -111.5 -236t-284.5 -99l-4 -9q54 -32 87.5 -117t33.5 -188q0 -172 -99 -316.5t-270.5 -228t-377.5 -83.5q-201 0 -365.5 80t-258 220t-93.5 312z" />
<glyph unicode="'" horiz-adv-x="423" d="M315 1155q8 60 14.5 132.5t10 119.5t10 99t16 83.5t25 59t40 39.5t58.5 12t54 -20t20 -52q0 -15 -28.5 -85.5t-79.5 -192t-80 -195.5h-60z" />
<glyph unicode="(" horiz-adv-x="690" d="M66 342q0 356 204 705t588 655l49 -57q-236 -239 -376.5 -453t-210.5 -454.5t-70 -530.5q0 -303 156 -547l-78 -57q-262 342 -262 739z" />
<glyph unicode=")" horiz-adv-x="686" d="M-236 -340q145 123 270.5 286t220.5 348.5t149.5 395t54.5 410.5q0 128 -35 255.5t-111 289.5l80 57q242 -330 242 -715q0 -361 -214.5 -719t-608.5 -665z" />
<glyph unicode="*" horiz-adv-x="1089" d="M229 1102q0 37 28 64.5t73 27.5q20 0 73.5 -13.5t92.5 -13.5q41 0 114 13q-51 58 -105 97.5t-84 52.5t-49.5 34t-19.5 55q0 49 28.5 73t68.5 24q36 0 58.5 -25t34.5 -61.5t42.5 -97.5t74.5 -113q35 100 35 241q0 54 25.5 85.5t66.5 31.5t69 -29t28 -63q0 -30 -28 -67.5 t-70.5 -96.5t-67.5 -125q66 12 120 33t80.5 38.5t52.5 30.5t46 13q35 0 62.5 -30t27.5 -67q0 -34 -24.5 -62t-69.5 -28q-18 0 -65.5 11.5t-88.5 11.5q-56 0 -129 -12q41 -49 93 -86t86 -53t58.5 -42.5t24.5 -62.5q0 -44 -27.5 -68t-66.5 -24q-79 0 -104 114 q-8 34 -41.5 89.5t-71.5 95.5q-17 -48 -25.5 -91t-10.5 -70t-3 -75q-3 -125 -92 -125q-46 0 -70 29t-24 70q0 25 11.5 42.5t47.5 53.5q32 32 53 67t54 119q-75 -13 -131 -33.5t-79.5 -37t-46 -29t-42.5 -12.5q-38 0 -65.5 29.5t-27.5 66.5z" />
<glyph unicode="+" horiz-adv-x="1183" d="M113 641v102h426v428h106v-428h426v-102h-426v-428h-106v428h-426z" />
<glyph unicode="," horiz-adv-x="542" d="M-80 -293q106 74 165.5 155.5t59.5 143.5q-24 -6 -43 -6q-51 0 -77.5 32.5t-26.5 86.5q0 62 40.5 104.5t100.5 42.5q62 0 104 -43t42 -102q0 -116 -83 -243t-235 -236z" />
<glyph unicode="-" horiz-adv-x="952" d="M123 508l47 170h633l-47 -170h-633z" />
<glyph unicode="." horiz-adv-x="536" d="M-2 119q0 62 40.5 104.5t100.5 42.5q62 0 104 -43t42 -102q0 -60 -43 -100.5t-103 -40.5q-58 0 -99.5 39.5t-41.5 99.5z" />
<glyph unicode="/" horiz-adv-x="798" d="M-59 0l868 1577h127l-854 -1577h-141z" />
<glyph unicode="0" horiz-adv-x="1343" d="M141 528q0 192 66.5 387.5t171.5 344.5t243 243t273 94q177 0 285 -143.5t108 -378.5q0 -127 -31.5 -261.5t-85 -254t-127.5 -227t-156.5 -184.5t-175 -122.5t-180.5 -45.5q-175 0 -283 151t-108 397zM369 367q0 -132 49.5 -205.5t140.5 -73.5q69 0 142 66t136 181 t113.5 258t79.5 309t29 323q0 128 -48 197t-137 69q-69 0 -143 -66t-137.5 -180t-114.5 -255.5t-80.5 -305.5t-29.5 -317z" />
<glyph unicode="1" horiz-adv-x="970" d="M-8 0l22 82q147 0 222.5 60.5t115.5 224.5l209 841q4 24 4 33q0 15 -6.5 21t-23.5 6q-8 0 -107 -16.5t-192 -16.5l12 86q85 0 163 21.5t147 63.5t122.5 85.5t116.5 105.5h75l-264 -1048q-2 -9 -13 -52t-14 -55.5t-10.5 -46.5t-10 -51t-5 -41t-2.5 -43q0 -87 49.5 -132.5 t169.5 -45.5l-22 -82h-758z" />
<glyph unicode="2" horiz-adv-x="1280" d="M23 0l18 109q348 277 546.5 472t289 349.5t90.5 298.5q0 119 -62.5 190.5t-169.5 71.5q-119 0 -201.5 -82.5t-82.5 -198.5q0 -92 50 -143t142 -51q-19 -51 -66 -80t-110 -29q-100 0 -161.5 69.5t-61.5 182.5q0 120 71.5 221.5t194.5 160t268 58.5q194 0 312 -103 t118 -273q0 -210 -200 -443t-670 -569v-10h418q100 0 156.5 32t113.5 121h76l-129 -354h-950z" />
<glyph unicode="3" horiz-adv-x="1263" d="M49 297q0 116 74.5 200.5t177.5 84.5q54 0 92.5 -25t46.5 -65q-75 0 -130.5 -64.5t-55.5 -153.5t61.5 -138.5t173.5 -49.5q158 0 255.5 100t97.5 263q0 136 -66 227.5t-164 91.5q-24 0 -81.5 -8t-79.5 -8q-66 0 -66 41q0 27 30 43.5t78.5 27t107 22t116.5 37t106.5 64 t78.5 110t30 169.5q0 117 -44.5 172t-139.5 55q-107 0 -175.5 -59.5t-68.5 -151.5q0 -63 33.5 -98t93.5 -35q-15 -35 -53.5 -56.5t-85.5 -21.5q-78 0 -126.5 52.5t-48.5 138.5q0 145 127.5 240t319.5 95q180 0 286.5 -85t106.5 -230q0 -143 -108 -268t-263 -160v-12 q139 -37 218 -133t79 -228q0 -136 -82 -251.5t-222.5 -182.5t-305.5 -67q-189 0 -306.5 88t-117.5 229z" />
<glyph unicode="4" horiz-adv-x="1183" d="M27 584l26 104l953 909h90l-228 -888h252l-30 -125h-252l-142 -584h-213l148 584h-604zM240 709h426l147 536l-6 2z" />
<glyph unicode="5" horiz-adv-x="1249" d="M63 305q0 113 64.5 195t153.5 82q49 0 87 -26t46 -64q-66 0 -111 -56t-45 -139q0 -96 65.5 -153.5t174.5 -57.5q170 0 281.5 137.5t111.5 349.5q0 161 -73 245.5t-214 84.5q-67 0 -124 -19t-87 -41.5t-57.5 -41.5t-42.5 -19q-12 0 -21.5 10t-9.5 25t4 27l256 753 q103 -36 334 -36q236 0 342 38l12 -2q-84 -243 -356 -243q-126 0 -285 37l-137 -404l8 -12q28 12 92.5 21.5t118.5 9.5q207 0 344.5 -129.5t137.5 -327.5q0 -154 -87 -285t-236.5 -207.5t-324.5 -76.5q-191 0 -306.5 88.5t-115.5 236.5z" />
<glyph unicode="6" horiz-adv-x="1300" d="M145 553q0 133 31 265t86 246.5t132 213.5t166 169t192 110t206 40q137 0 228.5 -62.5t91.5 -156.5q0 -53 -30 -84.5t-81 -31.5q-45 0 -72.5 28.5t-27.5 83.5q0 69 -24 100t-85 31q-164 0 -312.5 -163.5t-215.5 -419.5l6 -4q133 81 281 81q192 0 310 -118t118 -310 q0 -154 -78 -291t-208 -218.5t-277 -81.5q-201 0 -319 154.5t-118 418.5zM352 414q0 -166 55.5 -254t161.5 -88q93 0 169 67.5t119.5 185t43.5 259.5q0 315 -221 315q-148 0 -238 -133.5t-90 -351.5z" />
<glyph unicode="7" horiz-adv-x="1073" d="M127 63q0 39 53 122.5t266 387.5l576 820h-381q-106 0 -154 -9.5t-79.5 -38.5t-69.5 -100l-43 -80h-88l190 486h62q0 -3 -1 -8t-1 -9q0 -31 34 -44t115 -13h621l-6 -41q-48 -69 -99 -151.5t-132 -223.5t-129.5 -227t-176.5 -316.5t-188 -338.5q-97 -175 -153.5 -237 t-117.5 -62q-43 0 -70.5 22.5t-27.5 60.5z" />
<glyph unicode="8" horiz-adv-x="1308" d="M88 373q0 332 430 454q-105 70 -162 162.5t-57 192.5q0 112 69.5 208t185.5 151.5t249 55.5q179 0 299.5 -94t120.5 -235q0 -136 -107 -248t-264 -141q260 -161 260 -424q0 -207 -160 -341t-407 -134q-214 0 -335.5 104.5t-121.5 288.5zM295 358q0 -132 66.5 -201 t195.5 -69q151 0 246.5 85.5t95.5 219.5q0 98 -49 175.5t-150 146.5l-106 69q-299 -134 -299 -426zM512 1251q0 -72 46 -145.5t132 -130.5l84 -53q254 136 254 338q0 102 -64.5 166.5t-177.5 64.5q-117 0 -195.5 -67.5t-78.5 -172.5z" />
<glyph unicode="9" horiz-adv-x="1298" d="M98 199q0 53 30 84.5t81 31.5q45 0 72.5 -28.5t27.5 -83.5q0 -69 24 -100t85 -31q164 0 312.5 169.5t215.5 434.5l-6 4q-134 -82 -281 -82q-192 0 -310 118t-118 310q0 112 46.5 217.5t123 183t180.5 124t214 46.5q201 0 318.5 -154.5t117.5 -418.5q0 -133 -31 -265 t-86 -246.5t-132 -213.5t-166 -169t-192 -110t-206 -40q-137 0 -228.5 62.5t-91.5 156.5zM475 1014q0 -156 56 -236t165 -80q148 0 238 128t90 337q0 166 -55.5 254t-161.5 88q-141 0 -236.5 -142t-95.5 -349z" />
<glyph unicode=":" horiz-adv-x="622" d="M31 119q0 62 40.5 104.5t100.5 42.5q62 0 103.5 -42.5t41.5 -102.5t-42.5 -100.5t-102.5 -40.5q-58 0 -99.5 39.5t-41.5 99.5zM199 754q0 62 40.5 104.5t100.5 42.5q62 0 103.5 -42.5t41.5 -102.5t-42.5 -101t-102.5 -41q-58 0 -99.5 40t-41.5 100z" />
<glyph unicode=";" horiz-adv-x="626" d="M-47 -293q106 74 165.5 155.5t59.5 143.5q-24 -6 -43 -6q-51 0 -77.5 32.5t-26.5 86.5q0 62 40.5 104.5t100.5 42.5q62 0 103.5 -42.5t41.5 -102.5q0 -116 -83 -243t-234 -236zM199 754q0 62 40.5 104.5t100.5 42.5q62 0 103.5 -42.5t41.5 -102.5t-42.5 -101t-102.5 -41 q-58 0 -99.5 40t-41.5 100z" />
<glyph unicode="&#x3c;" horiz-adv-x="1265" d="M115 623v131l938 475v-115l-846 -426l846 -430v-111z" />
<glyph unicode="=" horiz-adv-x="1304" d="M143 516l29 102h930l-29 -102h-930zM246 864l28 103h930l-28 -103h-930z" />
<glyph unicode="&#x3e;" horiz-adv-x="1271" d="M250 147v111l846 430l-846 426v115l938 -475v-131z" />
<glyph unicode="?" horiz-adv-x="958" d="M272 106q0 55 37.5 93.5t91.5 38.5t91.5 -39t37.5 -93q0 -53 -38 -89.5t-93 -36.5q-54 0 -90.5 36t-36.5 90zM274 1298q0 124 111 212.5t268 88.5q155 0 248.5 -89.5t93.5 -237.5q0 -84 -33 -157.5t-85 -126t-115.5 -99t-127 -85.5t-115.5 -75.5t-85 -79.5t-33 -88 q0 -40 24.5 -61t70.5 -21q94 0 151 105l55 -33q-78 -160 -227 -160q-89 0 -136.5 52.5t-47.5 150.5q0 79 31.5 146.5t82 116t112 92t122.5 83t111.5 79t82 89.5t31.5 107q0 85 -62 139.5t-159 54.5q-87 0 -145 -42.5t-58 -106.5q0 -37 22.5 -55t49.5 -22t49.5 -23.5 t22.5 -59.5q0 -47 -30 -73.5t-83 -26.5q-83 0 -140 59t-57 147z" />
<glyph unicode="@" horiz-adv-x="2109" d="M135 614q0 204 82 386.5t222 313t334.5 207t412.5 76.5q242 0 429 -92t289.5 -258.5t102.5 -382.5q0 -184 -72 -347.5t-192.5 -261t-255.5 -97.5q-201 0 -219 233l-6 2q-63 -106 -157 -170.5t-187 -64.5q-132 0 -220 99t-88 251q0 146 79 285.5t206 226t260 86.5 q95 0 153 -49t87 -152l6 -2l47 182h197l-138 -485q-53 -186 -53 -258q0 -38 24.5 -60t65.5 -22q66 0 133.5 53t119.5 136.5t85 193.5t33 217q0 183 -92.5 330.5t-256.5 231t-368 83.5q-182 0 -344.5 -69t-279 -188t-184.5 -284.5t-68 -351.5q0 -232 104 -411.5t293.5 -278 t435.5 -98.5q345 0 643 205l43 -64q-180 -125 -350.5 -182t-362.5 -57q-215 0 -400 66t-315 182.5t-204 282t-74 357.5zM811 465q0 -215 137 -215q64 0 133 51t122.5 129.5t88.5 180t35 196.5q0 100 -41.5 156.5t-114.5 56.5q-88 0 -172 -80.5t-136 -210t-52 -264.5z" />
<glyph unicode="A" d="M-221 0l20 82q97 0 203 83.5t295 307.5l944 1124h172l-285 -1257q-24 -108 -24 -158q0 -60 38.5 -80t151.5 -20l-20 -82h-606l20 82q63 0 99 8.5t64.5 38.5t45 77.5t35.5 135.5l55 252h-440l-129 -135q-107 -111 -161.5 -176t-67.5 -88.5t-13 -42.5q0 -38 34.5 -54 t119.5 -16l-21 -82h-530zM635 696h371l168 635h-9z" />
<glyph unicode="B" horiz-adv-x="1507" d="M-59 0l22 82q67 0 106 8t72.5 34.5t55 73.5t43.5 128l241 903q23 94 23 141q0 68 -43.5 96.5t-145.5 28.5l23 82h549q63 0 121 -7t118 -22t109 -42t88 -65t60.5 -94t21.5 -124q0 -77 -27.5 -139t-70 -102t-102.5 -70t-115.5 -45t-118.5 -25v-8q179 -37 273.5 -134.5 t94.5 -246.5q0 -137 -84 -240.5t-231 -158t-334 -54.5h-749zM430 215q0 -39 17 -65.5t48.5 -38t60 -15.5t67.5 -4q221 0 349 111t128 286q0 154 -101 226.5t-309 72.5h-117l-100 -364q-43 -157 -43 -209zM600 893h152q194 0 315 94t121 246q0 133 -76 192.5t-252 59.5 q-55 0 -88.5 -38t-56.5 -126z" />
<glyph unicode="C" horiz-adv-x="1490" d="M150 616q0 190 71.5 371t190 314.5t279 214.5t329.5 81q193 0 369 -122l75 102h76l-94 -514h-78q-15 221 -95 324.5t-237 103.5q-176 0 -323 -116t-231.5 -317.5t-84.5 -443.5q0 -252 100.5 -380t295.5 -128q147 0 266.5 79.5t228.5 250.5l74 -49q-141 -218 -283 -312.5 t-331 -94.5q-277 0 -437.5 171t-160.5 465z" />
<glyph unicode="D" horiz-adv-x="1712" d="M-59 0l22 82q71 0 110.5 7.5t72.5 34.5t53 72.5t41 127.5l235 905q2 6 15 48.5t21.5 76.5t8.5 55q0 28 -16 47t-44.5 26.5t-53 10t-56.5 2.5h-39l27 82h555q326 0 516 -158q112 -92 167.5 -224t55.5 -280q0 -182 -78.5 -361.5t-205.5 -305.5q-135 -134 -307 -191 t-384 -57h-716zM434 242q0 -152 205 -152q154 0 283 53t215 139.5t145.5 198.5t86 227t26.5 228q0 255 -137.5 397t-380.5 142q-66 0 -99 -20t-51 -85l-242 -897q-51 -188 -51 -231z" />
<glyph unicode="E" horiz-adv-x="1515" d="M-53 0l22 82q92 0 141.5 21t78 70t55.5 151l237 903q29 113 29 159q0 65 -45 87t-160 22l23 82h1118v-414h-78q-26 97 -58.5 160.5t-76 99.5t-92.5 50t-117 14h-266l-160 -608h129q109 0 164.5 46t120.5 187h75l-122 -606h-82q6 62 6 106q0 93 -36.5 134.5t-127.5 41.5 h-154l-116 -440q-19 -71 -19 -115q0 -75 67 -110t224 -35q158 0 260.5 34t171.5 107t127 203h96l-159 -432h-1276z" />
<glyph unicode="F" horiz-adv-x="1349" d="M-53 0l22 82q92 0 141.5 21t78 70t55.5 151l237 903q29 113 29 159q0 65 -45 87t-160 22l23 82h1118v-414h-78q-26 97 -58.5 160.5t-76 99.5t-92.5 50t-117 14h-266l-160 -608h139q109 0 164.5 46t120.5 187h76l-144 -647h-82q7 86 7 127q0 104 -32 150t-112 46h-164 l-116 -440q-19 -71 -19 -115q0 -75 57.5 -110t192.5 -35l-22 -88h-717z" />
<glyph unicode="G" horiz-adv-x="1656" d="M150 616q0 190 75.5 371t199 314.5t291.5 214.5t345 81q216 0 409 -122l76 102h76l-74 -451h-78q-20 188 -114.5 276.5t-278.5 88.5q-189 0 -345 -116t-245.5 -317.5t-89.5 -443.5q0 -260 100 -392t296 -132q178 0 288.5 95.5t110.5 269.5q0 85 -38 122t-136 37l18 80 h561l-20 -80q-40 0 -61.5 -4t-43.5 -17.5t-38 -45t-32.5 -79.5t-37.5 -128q-3 -14 -12 -46.5t-13 -50.5t-10 -45.5t-8.5 -51t-3.5 -46.5q-40 -6 -127 -38t-198 -57t-244 -25q-277 0 -437.5 171t-160.5 465z" />
<glyph unicode="H" horiz-adv-x="1865" d="M-57 0l22 82q125 0 181.5 47.5t95.5 194.5l239 905q31 118 31 168q0 60 -43.5 79t-159.5 19l23 82h665l-22 -82q-70 0 -112.5 -12.5t-77.5 -52t-58.5 -100.5t-52.5 -171l-80 -303h795l98 373q31 118 31 168q0 60 -43.5 79t-159.5 19l22 82h666l-23 -82 q-70 0 -112.5 -12.5t-77.5 -52t-58.5 -100.5t-52.5 -171l-215 -815q-24 -88 -24 -143q0 -67 42.5 -93t143.5 -26l-24 -82h-654l23 82q125 0 181 47.5t95 194.5l113 428h-795l-106 -408q-25 -92 -25 -143q0 -67 43 -93t144 -26l-25 -82h-653z" />
<glyph unicode="I" horiz-adv-x="860" d="M-57 0l22 82q125 0 181.5 47.5t95.5 194.5l239 905q31 118 31 168q0 60 -43.5 79t-159.5 19l23 82h665l-22 -82q-70 0 -112.5 -12.5t-77.5 -52t-58.5 -100.5t-52.5 -171l-215 -815q-25 -92 -25 -143q0 -67 43 -93t144 -26l-25 -82h-653z" />
<glyph unicode="J" horiz-adv-x="1112" d="M-47 248q0 96 51.5 160.5t128.5 64.5q56 0 91.5 -33.5t35.5 -85.5q0 -28 -11 -50t-26.5 -35.5t-31 -26t-26.5 -28.5t-11 -36q0 -40 33.5 -65t86.5 -25q99 0 178.5 96.5t125.5 270.5l202 774q31 118 31 168q0 59 -45 78.5t-178 19.5l22 82h666l-23 -82q-65 0 -103.5 -11.5 t-71 -51.5t-54.5 -100t-51 -173l-205 -778q-51 -193 -179.5 -297t-312.5 -104q-155 0 -239 70t-84 198z" />
<glyph unicode="K" horiz-adv-x="1689" d="M-39 0l23 82q116 0 166.5 46.5t89.5 195.5l239 905q31 118 31 168q0 60 -43.5 79t-159.5 19l23 82h665l-22 -82q-70 0 -112.5 -12.5t-77.5 -52t-58.5 -100.5t-52.5 -171l-76 -285l424 304q248 177 248 260q0 57 -138 57l21 82h582l-21 -82q-14 0 -27 -2.5t-25.5 -6 t-31 -13t-35 -18.5t-44.5 -28t-53 -35.5t-68 -47t-80.5 -57t-99.5 -71t-118 -83.5l-315 -222l402 -528q57 -76 94.5 -123.5t71 -83.5t53 -53t45 -27.5t43 -12t49.5 -1.5l-23 -82h-643l23 82q78 0 114.5 12t36.5 45q0 57 -116 215l-324 434l-82 -57l-102 -387 q-25 -92 -25 -143q0 -67 47.5 -93t159.5 -26l-25 -82h-653z" />
<glyph unicode="L" horiz-adv-x="1437" d="M-51 0l22 82q132 0 185 47t90 195l231 905q31 131 31 168q0 60 -43.5 79t-159.5 19l23 82h665l-22 -82q-70 0 -112.5 -12.5t-77.5 -52t-58.5 -100.5t-52.5 -171l-213 -811q-19 -71 -19 -115q0 -75 52.5 -110t177.5 -35q241 0 365.5 84.5t213.5 300.5h96l-180 -473h-1214z " />
<glyph unicode="M" horiz-adv-x="2088" d="M-55 0l22 82q94 0 171.5 68.5t105.5 173.5l239 905q31 118 31 168q0 60 -43.5 79t-159.5 19l23 82h491l146 -1221h8l772 1221h432l-22 -82q-40 0 -68 -5t-52.5 -21.5t-40.5 -37.5t-33.5 -63t-31.5 -87.5t-34 -121.5l-215 -815q-25 -92 -25 -143q0 -67 47.5 -93t159.5 -26 l-25 -82h-653l22 82q116 0 166.5 46.5t89.5 195.5l271 1017h-8l-840 -1341h-88l-160 1341h-8l-262 -997q-15 -62 -15 -90q0 -81 48 -125.5t129 -46.5l-25 -82h-565z" />
<glyph unicode="N" horiz-adv-x="1724" d="M-18 0l22 82q94 0 171.5 68.5t105.5 173.5l241 909q8 31 8 63q0 95 -81.5 146t-219.5 53l25 82h481l512 -1174h8l218 830q10 45 10 76q0 85 -48.5 134.5t-123.5 51.5l24 82h525l-23 -82q-77 0 -142 -68t-93 -174l-332 -1253h-82l-537 1233h-8l-233 -889q-13 -54 -13 -88 q0 -83 51.5 -127.5t143.5 -46.5l-25 -82h-585z" />
<glyph unicode="O" horiz-adv-x="1679" d="M152 621q0 128 33 253t91 232t140.5 198.5t179 155.5t209.5 100.5t229 36.5q261 0 416.5 -172.5t155.5 -463.5q0 -193 -71.5 -374.5t-190.5 -314t-281 -212.5t-334 -80q-262 0 -419.5 175t-157.5 466zM399 614q0 -258 91.5 -391t267.5 -133q170 0 307 118.5t215 330.5 t78 477q0 244 -79 359.5t-245 115.5q-175 0 -321 -116t-230 -317.5t-84 -443.5z" />
<glyph unicode="P" horiz-adv-x="1366" d="M-35 0l23 82q98 0 160 59t96 185l241 903q27 102 27 153q0 62 -44.5 86t-168.5 27l23 82h569q263 0 411 -93t148 -259q0 -141 -95 -253.5t-264 -175.5t-380 -63h-148l-86 -309q-43 -153 -43 -209q0 -123 234 -123l-23 -92h-680zM590 838h100q232 0 382.5 112.5 t150.5 286.5q0 248 -328 248q-82 0 -115.5 -32t-60.5 -132z" />
<glyph unicode="Q" horiz-adv-x="1708" d="M127 -360q0 53 41 91t149 83l394 166q-255 11 -407 185t-152 458q0 153 47 300.5t131.5 267.5t195.5 212t247 143t278 51q267 0 425 -174t158 -467q0 -274 -135.5 -511t-353.5 -355l-445 -242l5 -6q63 0 123 -19t108.5 -46.5t96.5 -55t106 -46.5t118 -19q106 0 185.5 55 t109.5 158l68 -31q-37 -167 -164 -268.5t-299 -101.5q-86 0 -166.5 27.5t-140.5 67t-114 79t-107.5 67t-100.5 27.5q-41 0 -73 -20.5t-53.5 -50t-43.5 -58.5t-54 -49.5t-73 -20.5q-49 0 -76.5 27.5t-27.5 75.5zM399 616q0 -249 94.5 -379.5t274.5 -130.5q131 0 245.5 69 t196.5 189t129 288.5t47 359.5q0 246 -81.5 362.5t-253.5 116.5q-180 0 -329.5 -115.5t-236 -316.5t-86.5 -443z" />
<glyph unicode="R" d="M-35 0l23 82q98 0 160 59t96 185l241 903q27 102 27 153q0 62 -44.5 86t-168.5 27l23 82h569q247 0 387.5 -93.5t140.5 -258.5q0 -164 -120.5 -277t-327.5 -155l151 -375q36 -89 63 -143t55 -95t61 -60.5t71 -28.5t94 -9l-22 -82h-389l-301 768h-181l-96 -344 q-43 -153 -43 -209q0 -123 234 -123l-23 -92h-680zM600 872h100q220 0 356 97t136 268q0 122 -76 185t-221 63q-82 0 -115.5 -32t-60.5 -132z" />
<glyph unicode="S" horiz-adv-x="1224" d="M33 0l86 520h67q13 -210 104.5 -321t250.5 -111q146 0 241 81t95 204q0 69 -32 131.5t-83 111t-112.5 95.5t-123 95.5t-112.5 100t-83 119.5t-32 145q0 177 141 301.5t342 124.5q183 0 320 -137l41 86h61l-86 -403h-69q-6 184 -68 267t-193 83q-126 0 -207 -68t-81 -172 q0 -59 31 -113t80 -97t109 -86t119.5 -90.5t108.5 -101t80 -127.5t31 -159q0 -102 -41 -194t-110.5 -159t-166 -106.5t-202.5 -39.5q-225 0 -392 176l-43 -156h-71z" />
<glyph unicode="T" horiz-adv-x="1597" d="M160 1141l194 436h1368l-41 -436h-77q0 191 -70.5 270.5t-218.5 79.5q-103 0 -152.5 -48.5t-87.5 -193.5l-241 -905q-4 -17 -11.5 -42t-11.5 -39t-7 -31.5t-3 -30.5q0 -66 53 -92.5t182 -26.5l-24 -82h-713l23 82q66 0 107.5 8t79 33t63 73.5t46.5 127.5l250 933 q19 78 19 123q0 58 -27 84.5t-86 26.5q-347 0 -532 -350h-82z" />
<glyph unicode="U" horiz-adv-x="1654" d="M233 449q0 122 41 274l136 504q26 102 26 157q0 61 -43 86t-149 25l26 82h654l-23 -82q-52 0 -85 -4t-63 -18.5t-48 -34.5t-37.5 -62t-34 -90.5t-35.5 -128.5l-133 -514q-27 -105 -27 -192q0 -166 85.5 -261.5t244.5 -95.5q98 0 179 37t141.5 106.5t105 156t80.5 200.5 q59 184 111.5 442t52.5 336q0 113 -209 123l24 82h539l-25 -82q-70 0 -107 -20t-64 -78.5t-54 -184.5l-88 -409q-178 -823 -702 -823q-257 0 -388 121t-131 348z" />
<glyph unicode="V" horiz-adv-x="1540" d="M225 -20l285 1257q25 113 25 158q0 60 -39 80t-152 20l21 82h606l-21 -82q-63 0 -99 -8.5t-64 -38.5t-44.5 -77.5t-35.5 -135.5l-207 -944h8l692 827q127 151 178.5 221.5t51.5 104.5q0 29 -33.5 40t-108.5 11l21 82h530l-20 -82q-99 0 -207 -84t-291 -307l-924 -1124 h-172z" />
<glyph unicode="W" horiz-adv-x="2179" d="M221 -20l285 1257q24 108 24 158q0 60 -38.5 80t-151.5 20l20 82h566l-21 -82q-61 0 -94.5 -19.5t-58.5 -74t-50 -166.5l-206 -924h8l694 891l8 35q25 113 25 158q0 60 -35 80t-135 20l20 82h586l-20 -82q-63 0 -99 -8.5t-64.5 -38.5t-45 -77.5t-35.5 -135.5l-207 -924h8 l631 807q121 155 169 226t48 104q0 28 -30 37.5t-99 9.5l21 82h530l-20 -82q-103 0 -215.5 -84t-282.5 -307l-862 -1124h-172l221 976l-750 -976h-172z" />
<glyph unicode="X" horiz-adv-x="1599" d="M-80 0l21 82q64 6 94 11.5t66.5 26.5t64 50t84.5 94l473 545l-221 465q-64 133 -121 177t-160 44l23 82h637l-23 -82q-71 0 -104 -25t-33 -77q0 -66 63 -207l101 -221l176 196q180 200 180 273q0 61 -119 61l25 82h528l-22 -82q-88 0 -164 -50.5t-201 -187.5l-358 -393 l239 -522q70 -154 133.5 -207t176.5 -53l-19 -82h-676l19 82q88 0 130 25t42 77q0 60 -37 142l-166 366l-170 -188q-231 -254 -231 -348q0 -38 38 -56t121 -18l-18 -82h-592z" />
<glyph unicode="Y" horiz-adv-x="1411" d="M184 1495l23 82h575l-22 -82q-78 0 -112 -16.5t-34 -55.5q0 -32 17 -73l219 -529l285 416q37 54 50 74.5t23.5 46t10.5 49.5q0 42 -40.5 65t-111.5 23l23 82h505l-22 -82q-43 0 -69.5 -5.5t-54 -27t-48.5 -48.5t-62 -85l-438 -616l-96 -369q-25 -92 -25 -143 q0 -67 47.5 -93t159.5 -26l-24 -82h-695l23 82q70 0 114 9t80 36t59.5 73.5t43.5 123.5l94 364l-246 590q-32 77 -54.5 117.5t-52.5 64.5t-60 29.5t-85 5.5z" />
<glyph unicode="Z" horiz-adv-x="1376" d="M-14 0v43l1112 1436h-207q-128 0 -206 -11t-145.5 -47t-116 -92.5t-110.5 -157.5h-88l207 406h993v-39l-1101 -1436h256q202 0 346.5 83t230.5 268h88l-172 -453h-1087z" />
<glyph unicode="[" horiz-adv-x="755" d="M-41 -307l537 1986h493l-26 -96h-310l-485 -1794h309l-26 -96h-492z" />
<glyph unicode="\" horiz-adv-x="948" d="M307 1577h113l299 -1577h-131z" />
<glyph unicode="]" horiz-adv-x="755" d="M-209 -307l27 96h307l485 1794h-309l27 96h493l-538 -1986h-492z" />
<glyph unicode="^" horiz-adv-x="985" d="M123 471l338 367h184l148 -367h-93l-180 242l-307 -242h-90z" />
<glyph unicode="_" horiz-adv-x="1497" d="M-92 -293l47 139h1167l-47 -139h-1167z" />
<glyph unicode="`" horiz-adv-x="563" d="M59 1556q0 39 31 64t70 25q63 0 119 -68l200 -244h-96l-244 133q-80 44 -80 90z" />
<glyph unicode="a" horiz-adv-x="1167" d="M20 276q0 137 60.5 288t152.5 269t210 195.5t225 77.5q68 0 111 -32.5t69 -102.5l43 114h170l-117 -313q-58 -153 -104.5 -335.5t-46.5 -250.5q0 -59 38 -59q52 0 205 213l54 -43q-84 -150 -184 -233.5t-193 -83.5q-99 0 -99 153q0 16 7 109l-9 2q-60 -114 -164.5 -189 t-205.5 -75q-103 0 -162.5 79t-59.5 217zM215 287q0 -74 31.5 -118t83.5 -44q68 0 147.5 82t141.5 199t103.5 249.5t41.5 229.5q0 53 -22.5 83.5t-61.5 30.5q-61 0 -128.5 -46.5t-126 -123.5t-106.5 -169t-76 -191t-28 -182z" />
<glyph unicode="b" horiz-adv-x="1093" d="M57 233q0 105 88 383l248 799q31 109 31 131q0 72 -156 72l17 61l393 19l-260 -789l6 -4q60 94 149 146.5t189 52.5q123 0 191.5 -78t68.5 -213q0 -142 -63 -293.5t-161 -269.5t-225.5 -194t-248.5 -76q-117 0 -192 70.5t-75 182.5zM252 252q0 -168 104 -168 q92 0 202 121.5t185.5 298.5t75.5 325q0 70 -32.5 118t-79.5 48q-67 0 -148.5 -74.5t-148.5 -183.5t-112.5 -242.5t-45.5 -242.5z" />
<glyph unicode="c" horiz-adv-x="903" d="M29 313q0 133 57.5 277t146.5 257t203 186t219 73q97 0 161.5 -53t64.5 -133q0 -51 -30.5 -83t-76.5 -32q-45 0 -75.5 29.5t-30.5 72.5q0 20 8 43.5t8 30.5q0 29 -49 29q-89 0 -180.5 -106t-151 -270t-59.5 -323q0 -99 38 -155t105 -56q72 0 157.5 76.5t147.5 194.5 l72 -41q-85 -169 -199 -259.5t-243 -90.5q-132 0 -212.5 91t-80.5 242z" />
<glyph unicode="d" horiz-adv-x="1224" d="M23 299q0 130 61 276t153 262t208 192.5t219 76.5q67 0 102.5 -24.5t73.5 -86.5l118 422q33 122 33 146q0 31 -41 43t-147 12l22 82h396l-228 -830q-84 -308 -115.5 -454t-31.5 -215q0 -84 51 -84q45 0 98 76t92 198l78 -18q-69 -201 -152.5 -297t-187.5 -96 q-74 0 -113.5 47t-39.5 135q0 40 14 94l-16 4q-74 -131 -185 -205.5t-215 -74.5q-106 0 -176.5 89t-70.5 230zM221 274q0 -73 36.5 -117t98.5 -44q88 0 190 133t168 310t66 306q0 135 -102 135q-77 0 -161 -73t-148 -180.5t-106 -235.5t-42 -234z" />
<glyph unicode="e" horiz-adv-x="933" d="M29 313q0 110 38 226.5t103.5 216t148 179.5t178.5 125.5t187 45.5q98 0 160.5 -50t62.5 -128q0 -93 -90.5 -194t-245 -183.5t-333.5 -122.5q-9 -58 -9 -113q0 -109 40.5 -166t117.5 -57q75 0 156.5 59.5t150.5 163.5l66 -43q-177 -292 -438 -292q-139 0 -216 87.5 t-77 245.5zM258 520q198 54 327.5 168t129.5 236q0 86 -72 86q-104 0 -217.5 -148.5t-167.5 -341.5z" />
<glyph unicode="f" horiz-adv-x="684" d="M-397 -377q0 51 26.5 81t73.5 30q38 0 59.5 -22.5t28 -49.5t26 -49.5t54.5 -22.5q47 0 85.5 49t59.5 130l297 1153h-196l26 94h195q89 359 209.5 521.5t283.5 162.5q120 0 198.5 -50.5t78.5 -125.5q0 -47 -27 -80t-71 -33t-68.5 20.5t-33 49.5t-15.5 57.5t-26 49 t-54 20.5q-80 0 -156.5 -163t-130.5 -429h207l-28 -94h-201l-193 -772q-42 -166 -85 -284t-88 -195.5t-99 -122.5t-110.5 -62.5t-129.5 -17.5q-84 0 -140 44.5t-56 110.5z" />
<glyph unicode="g" horiz-adv-x="1126" d="M-154 -244q0 83 55 139t138 56q47 0 104 -29q-114 -48 -114 -178q0 -86 87 -135t238 -49q159 0 268 62.5t109 137.5q0 58 -69.5 104.5t-192.5 67.5q-230 39 -331 91.5t-101 142.5q0 60 53 101.5t186 80.5l5 8q-156 111 -156 285q0 125 66 232.5t178.5 171t242.5 63.5 q152 0 254 -111q95 109 187 109q65 0 114.5 -40.5t49.5 -92.5q0 -41 -28 -68.5t-69 -27.5q-28 0 -48 13.5t-29.5 29.5t-27 29.5t-42.5 13.5q-23 0 -72 -33q19 -50 19 -119q0 -223 -125 -358t-344 -152q-97 -8 -140 -25t-43 -49q0 -34 34.5 -56.5t89.5 -35.5t121 -24 t132.5 -28.5t121.5 -43.5t89.5 -74t34.5 -115q0 -177 -146.5 -279.5t-396.5 -102.5q-224 0 -363 79.5t-139 208.5zM317 565q0 -77 40 -125.5t104 -48.5t125.5 66t100 172.5t38.5 218.5q0 81 -36.5 129.5t-96.5 48.5q-62 0 -126.5 -69.5t-106.5 -178t-42 -213.5z" />
<glyph unicode="h" horiz-adv-x="1175" d="M-14 0l405 1389q31 117 31 151q0 41 -39 58t-143 20l14 82h418l-234 -791l6 -4q66 96 152.5 148.5t179.5 52.5q97 0 149 -58t52 -165q0 -135 -84 -365q-108 -302 -112 -323q-1 -7 -1 -15q0 -47 39 -47q42 0 102 49t121 133l58 -43q-64 -120 -185.5 -206t-224.5 -86 q-55 0 -79.5 30.5t-24.5 98.5q0 70 27.5 172.5t115.5 355.5q66 195 66 274q0 47 -15.5 66.5t-52.5 19.5q-126 0 -248.5 -201.5t-273.5 -654.5l-47 -141h-172z" />
<glyph unicode="i" horiz-adv-x="704" d="M55 793q53 104 175.5 208.5t220.5 104.5q53 0 77.5 -31t24.5 -106q0 -17 -3 -36.5t-10 -46t-13.5 -49t-20 -60.5t-23 -64.5t-28.5 -78t-31 -83.5l-76 -207q-43 -125 -43 -160q0 -47 43 -47q28 0 63 25t66 62t53.5 69t36.5 57l62 -35q-27 -54 -67.5 -109t-93.5 -107.5 t-119 -85.5t-130 -33q-61 0 -90 31.5t-29 101.5q0 54 17.5 118.5t58.5 182.5l92 262q54 147 54 207q0 47 -29 47q-38 0 -95.5 -64t-82.5 -110zM442 1567q0 56 36.5 94.5t90.5 38.5q56 0 93.5 -38.5t37.5 -92.5t-38.5 -90.5t-92.5 -36.5q-52 0 -89.5 35.5t-37.5 89.5z" />
<glyph unicode="j" horiz-adv-x="612" d="M-391 -377q0 56 26.5 88.5t73.5 32.5q31 0 53 -16t33 -38.5t21 -45t25 -38.5t36 -16q48 0 86.5 48.5t59.5 130.5l227 909q43 169 43 211q0 41 -31 41q-39 0 -94.5 -63t-81.5 -111l-59 37q53 104 175 208.5t220 104.5q53 0 77.5 -28t24.5 -87q0 -43 -15 -116.5t-30.5 -133 t-52.5 -194.5l-170 -617q-33 -118 -101.5 -222.5t-162 -172t-187.5 -67.5q-84 0 -140 44.5t-56 110.5zM358 1567q0 56 36.5 94.5t90.5 38.5q56 0 93.5 -38.5t37.5 -92.5t-38.5 -90.5t-92.5 -36.5q-52 0 -89.5 35.5t-37.5 89.5z" />
<glyph unicode="k" horiz-adv-x="1050" d="M-2 0l395 1468q15 58 15 76q0 43 -39.5 58.5t-151.5 15.5l19 61l407 21l-213 -789l8 -2q118 199 301 199q95 0 151 -46t56 -124q0 -95 -95.5 -193t-264.5 -174l-54 -24l105 -271q22 -59 44 -85.5t50 -26.5q60 0 168 153l53 -28q-148 -309 -305 -309q-49 0 -80.5 33.5 t-70.5 125.5l-138 328l-45 -21l-129 -446h-186zM332 549q178 61 293.5 156.5t115.5 179.5q0 40 -22 62t-62 22q-85 0 -182 -125.5t-143 -294.5z" />
<glyph unicode="l" horiz-adv-x="641" d="M47 113q0 86 55 301l273 1001q4 16 13 47.5t13.5 52t4.5 31.5q0 72 -156 72l16 61l375 19l-367 -1346q-32 -118 -32 -168q0 -47 43 -47q40 0 93.5 48t89 97.5t56.5 88.5l62 -35q-63 -140 -184 -248t-216 -108q-71 0 -105 31.5t-34 101.5z" />
<glyph unicode="m" horiz-adv-x="1781" d="M35 694q72 210 161 311t203 101q66 0 93.5 -36.5t27.5 -123.5q0 -100 -35 -188l7 -6q190 354 403 354q79 0 124.5 -48.5t45.5 -133.5q0 -50 -35 -174l4 -7q116 195 211.5 279t202.5 84q160 0 160 -178q0 -55 -21.5 -134.5t-81.5 -256.5q-69 -207 -85.5 -265t-16.5 -94 q0 -39 20 -39q60 0 252 240l54 -29q-69 -136 -202.5 -253t-219.5 -117q-51 0 -81 43.5t-30 117.5q0 50 27.5 141t134.5 400q54 152 66 192t12 66q0 32 -9.5 45.5t-31.5 13.5q-55 0 -131 -75t-164 -215q-62 -99 -113 -223t-178 -486h-193l136 412q86 259 116.5 368t30.5 152 q0 67 -51 67q-53 0 -134.5 -78.5t-160 -203.5t-125.5 -252l-172 -465h-180l151 469q78 243 103.5 335.5t25.5 131.5q0 57 -34 57q-45 0 -113.5 -99.5t-112.5 -229.5z" />
<glyph unicode="n" horiz-adv-x="1284" d="M35 694q72 210 161 311t203 101q66 0 93.5 -37t27.5 -125q0 -106 -35 -186l7 -6q104 183 212 268.5t234 85.5q89 0 136.5 -43t47.5 -123q0 -53 -22 -135.5t-86 -267.5q-34 -99 -45.5 -133t-31 -95.5t-26 -91t-6.5 -47.5q0 -31 21 -31q29 0 83.5 47t149.5 152l53 -29 q-66 -121 -192.5 -225t-208.5 -104q-51 0 -81 44.5t-30 118.5q0 56 25 139t137 400q38 109 51 157.5t13 84.5q0 75 -56 75q-63 0 -151 -85t-172 -221t-139 -283l-152 -410h-180l151 469q73 228 101 329t28 140q0 55 -34 55q-46 0 -116 -102.5t-110 -226.5z" />
<glyph unicode="o" horiz-adv-x="1071" d="M49 391q0 131 50.5 261.5t131 230t189 161.5t217.5 62q149 0 243.5 -108t94.5 -285q0 -169 -85.5 -340t-224.5 -282t-282 -111t-238.5 111.5t-95.5 299.5zM264 291q0 -209 131 -209q88 0 179 119.5t147.5 292t56.5 325.5q0 102 -36.5 146.5t-104.5 44.5 q-88 0 -176.5 -116.5t-142.5 -284.5t-54 -318z" />
<glyph unicode="p" horiz-adv-x="1153" d="M-195 -512l13 82q87 0 126 20t54 74l371 1266q-150 -77 -283 -219l-55 57q154 177 368 266l97 328h155l-71 -272q75 14 129 14q173 0 269.5 -95t96.5 -264q0 -131 -64.5 -254.5t-171.5 -215.5t-247.5 -155t-292.5 -83l-76 -285q-16 -55 -16 -88q0 -51 42 -71.5t148 -22.5 l-12 -82h-580zM322 125q137 27 260.5 114t201.5 219t78 275q0 123 -56.5 197t-150.5 74q-41 0 -102 -11z" />
<glyph unicode="q" horiz-adv-x="1095" d="M31 313q0 136 54 280t138 256t193.5 184.5t214.5 72.5q70 0 121.5 -34t95.5 -111l49 145h156l-377 -1391q-14 -52 -14 -71q0 -38 34.5 -55.5t122.5 -18.5l-12 -82h-528l12 82q86 0 125.5 20.5t54.5 73.5l150 510l-7 4q-55 -96 -136.5 -147t-178.5 -51q-127 0 -197.5 87.5 t-70.5 245.5zM244 299q0 -197 118 -197q88 0 182 105t155 263.5t61 305.5q0 223 -119 223q-85 0 -179 -111.5t-156 -276.5t-62 -312z" />
<glyph unicode="r" horiz-adv-x="948" d="M43 801q46 103 170 204t205 101q49 0 71.5 -37t22.5 -119q0 -61 -14 -135l6 -6q51 120 167 218.5t208 98.5q59 0 99 -38t40 -93q0 -54 -34 -88.5t-87 -34.5q-29 0 -51.5 12t-34 26t-26.5 26t-31 12q-78 0 -197 -194t-209 -471l-92 -283h-190l133 424q77 243 103 338.5 t26 138.5q0 45 -31 45q-41 0 -108 -57t-93 -115z" />
<glyph unicode="s" horiz-adv-x="780" d="M-27 172q0 58 28.5 92.5t74.5 34.5q88 0 100 -121q6 -66 22 -87t62 -21q74 0 117 45t43 121q0 61 -27 118t-65.5 103.5t-77 94.5t-65.5 110.5t-27 130.5q0 135 96.5 224t243.5 89q99 0 164 -50t66 -126q0 -42 -24.5 -67t-64.5 -25q-34 0 -57 18.5t-34.5 45t-22 53 t-28.5 45t-46 18.5q-44 0 -75.5 -39t-31.5 -96q0 -50 26.5 -101.5t64.5 -99t76 -99t64.5 -121t26.5 -145.5q0 -136 -109.5 -236.5t-250.5 -100.5q-121 0 -195 53t-74 139z" />
<glyph unicode="t" horiz-adv-x="747" d="M78 113q0 87 63 301l152 501h-176l26 95h179l106 352h188l-106 -352h223l-28 -95h-224l-170 -563q-34 -109 -37 -168q0 -47 41 -47q44 0 104 48t101 98t64 88l59 -35q-71 -140 -201 -248t-229 -108q-71 0 -103 31.5t-32 101.5z" />
<glyph unicode="u" horiz-adv-x="1214" d="M43 776q65 126 182 228t213 102q49 0 76 -31t27 -88q0 -46 -21 -120.5t-46 -141t-77 -195.5q-33 -82 -49.5 -127.5t-30.5 -101t-14 -96.5q0 -78 43 -78q44 0 120.5 76.5t158 207t131.5 265.5l151 409h191l-152 -469q-69 -215 -94 -304t-25 -126q0 -53 37 -53q42 0 108 73 t105 165l62 -31q-57 -142 -166 -251t-211 -109q-60 0 -84.5 43t-24.5 131q0 76 15 153l-6 6q-186 -333 -398 -333q-90 0 -131 50t-41 134q0 126 103 385q81 203 107 274t26 101q0 22 -19 22q-26 0 -76 -46.5t-137 -151.5z" />
<glyph unicode="v" horiz-adv-x="1183" d="M39 852q0 101 76.5 177.5t177.5 76.5q46 0 84.5 -22t73 -44t69.5 -22q39 0 70 31q44 39 59 48t39 9q41 0 41 -35q0 -17 -11 -32.5t-73 -90.5q-94 -114 -154.5 -278.5t-60.5 -304.5q0 -109 37.5 -176.5t97.5 -67.5q55 0 123 61.5t124 151.5t94 199.5t38 197.5 q0 59 -23.5 139t-23.5 119q0 117 107 117q63 0 90.5 -46t27.5 -149q0 -158 -59.5 -327.5t-151 -301.5t-209 -217t-227.5 -85q-112 0 -186 81.5t-74 206.5q0 118 64 276t180 324l-4 6q-42 0 -76.5 11t-57 27t-40 31.5t-34.5 26.5t-32 11q-17 0 -26 -9.5t-9 -25.5 q0 -24 36 -62t36 -73q0 -37 -29 -60.5t-73 -23.5q-52 0 -81.5 33t-29.5 92z" />
<glyph unicode="w" horiz-adv-x="1740" d="M45 852q0 100 76 177t176 77q38 0 71.5 -14t53.5 -30t47.5 -30t54.5 -14q31 0 62 31q53 57 96 57t43 -41q0 -13 -13.5 -32t-70.5 -85q-115 -134 -180.5 -299.5t-65.5 -304.5q0 -100 33 -156.5t92 -56.5q112 0 287 207q-10 95 -10 170q0 145 42.5 284.5t111.5 226.5 t141 87q49 0 82.5 -42.5t33.5 -127.5q0 -110 -60 -256.5t-171 -304.5q19 -97 68.5 -159t109.5 -62q74 0 153.5 88.5t132 223t52.5 259.5q0 68 -23.5 146.5t-23.5 117.5q0 117 106 117q63 0 91 -48t28 -157q0 -160 -54 -328t-137.5 -297.5t-192.5 -212.5t-212 -83 q-85 0 -147 56t-94 163q-91 -106 -192.5 -162.5t-201.5 -56.5q-113 0 -176 73t-63 203q0 255 264 612l-4 6q-51 0 -92 16.5t-62.5 37t-45 37t-42.5 16.5q-33 0 -33 -35q0 -24 36 -62t36 -73q0 -37 -29 -60.5t-73 -23.5q-52 0 -81.5 33t-29.5 92zM938 606q0 -61 10 -100 q121 197 121 354q0 78 -31 78q-40 0 -70 -98.5t-30 -233.5z" />
<glyph unicode="x" horiz-adv-x="1183" d="M-104 141q0 57 32.5 92t87.5 35q37 0 59 -17.5t30.5 -42.5t14.5 -50t20 -42.5t40 -17.5q66 0 135.5 103.5t120.5 275.5l58 199q36 121 36 198q0 111 -67 111q-57 0 -151 -75.5t-160 -174.5l-62 37q56 122 188.5 228t229.5 106q77 0 128.5 -61t51.5 -152q60 95 144.5 154 t160.5 59q71 0 120.5 -47.5t50.5 -114.5q0 -49 -28.5 -79.5t-74.5 -30.5q-39 0 -60.5 24t-27 52.5t-20 52.5t-42.5 24q-66 0 -133.5 -108.5t-105.5 -276.5l-29 -125q-33 -138 -33 -229q0 -81 26.5 -119.5t82.5 -38.5q67 0 141 57.5t170 182.5l62 -37q-73 -138 -191 -225.5 t-229 -87.5q-94 0 -155 64.5t-73 178.5l-6 2q-62 -109 -162 -177t-200 -68q-79 0 -129.5 45t-50.5 116z" />
<glyph unicode="y" horiz-adv-x="1054" d="M-227 -371q0 51 29 83t75 32q37 0 60.5 -24t32 -53t25 -53t42.5 -24q49 0 134 71t162 174t107 188l-110 575q-31 161 -64.5 229t-72.5 68q-74 0 -136 -244l-75 21q43 191 127.5 312.5t175.5 121.5q39 0 66.5 -30t56.5 -105q51 -134 112 -420l70 -330h8q88 112 156.5 256 t68.5 258q0 29 -7 117.5t-7 110.5q0 69 34.5 106t80.5 37q50 0 76 -43t26 -107q0 -164 -162 -493t-370 -598q-307 -397 -535 -397q-83 0 -134.5 46t-51.5 115z" />
<glyph unicode="z" horiz-adv-x="1062" d="M-18 61q0 36 29.5 75.5t105.5 113.5l565 547l-4 6q-36 0 -87 27t-94.5 59t-96 59t-91.5 27q-34 0 -53.5 -17.5t-19.5 -46.5q0 -21 10.5 -36t26 -24.5t31 -20.5t26 -30t10.5 -46q0 -44 -26.5 -69.5t-73.5 -25.5q-64 0 -101 42t-37 116q0 122 94 205.5t230 83.5 q56 0 104.5 -16.5t80.5 -40t60 -47t56 -40t55 -16.5q31 0 52 21.5t30.5 48t29.5 48t50 21.5q28 0 44 -17t16 -46q0 -35 -23 -67t-113 -119l-540 -519l4 -6q40 0 93 -21.5t97 -47t98.5 -47t96.5 -21.5q60 0 103 39t79 133l70 -27q-41 -151 -142 -245t-221 -94q-52 0 -100 19 t-83.5 46.5t-68 55t-67.5 46.5t-68 19q-38 0 -58 -26t-25.5 -57t-26 -57t-60.5 -26q-67 0 -67 61z" />
<glyph unicode="{" horiz-adv-x="688" d="M51 -139q0 55 25 147l108 402q17 63 17 110q0 65 -30.5 107.5t-96.5 48.5l14 51q61 12 102 32t69.5 54t45.5 74t35 104l98 359q38 137 84 208.5t131 106.5t232 35l-13 -47q-99 -24 -154 -86t-85 -174l-98 -367q-19 -69 -39 -116.5t-52 -91t-80.5 -70.5t-115.5 -41l-2 -11 q77 -15 110 -51.5t33 -99.5q0 -56 -22 -139l-109 -406q-20 -75 -20 -119q0 -55 29 -89t95 -54l-12 -45q-162 0 -230.5 36.5t-68.5 131.5z" />
<glyph unicode="|" horiz-adv-x="716" d="M260 -512v2191h164v-2191h-164z" />
<glyph unicode="}" horiz-adv-x="688" d="M-174 -307l12 45q106 29 161 89t85 173l109 406q35 132 95.5 200.5t184.5 89.5l2 11q-76 17 -108.5 56.5t-32.5 104.5q0 62 26 158l99 367q18 67 18 116q0 111 -115 144l13 47q158 0 223.5 -39t65.5 -133q0 -54 -31 -178l-98 -359q-23 -84 -23 -127q0 -57 31.5 -89.5 t103.5 -47.5l-14 -51q-68 -6 -122 -48t-84 -96.5t-48 -121.5l-109 -402q-34 -126 -86.5 -193t-135 -94.5t-222.5 -27.5z" />
<glyph unicode="~" horiz-adv-x="1091" d="M143 510q17 101 77.5 167t135.5 66q83 0 230 -49q134 -45 192 -45q34 0 54 20t34 66h68q-9 -85 -66 -168q-62 -73 -133 -73q-56 0 -217 51q-150 47 -219 47q-32 0 -52.5 -19t-33.5 -63h-70z" />
<glyph unicode="&#xa1;" horiz-adv-x="651" d="M100 133q0 72 25 150t106 282q54 135 99 301t63 287h70l-96 -932q-14 -131 -49 -186t-105 -55q-58 0 -85.5 36t-27.5 117zM354 1470q0 54 38.5 90.5t92.5 36.5q52 0 89.5 -35t37.5 -89q0 -56 -37 -95t-92 -39t-92 39t-37 92z" />
<glyph unicode="&#xa2;" horiz-adv-x="958" d="M45 313q0 163 82.5 336.5t212 296.5t262.5 152l111 332h106l-106 -326q80 -12 132 -63t52 -121q0 -51 -30 -83t-76 -32t-76.5 29.5t-30.5 72.5q0 20 8 43.5t8 30.5q0 29 -49 29q-89 0 -180.5 -106t-151 -270t-59.5 -323q0 -99 38 -155t105 -56q72 0 158 76.5t148 194.5 l71 -41q-82 -163 -190.5 -252.5t-231.5 -95.5l-90 -283h-106l92 293q-97 26 -153 111t-56 210z" />
<glyph unicode="&#xa3;" horiz-adv-x="1396" d="M-37 119q0 93 74.5 156t183.5 63q107 0 211 -68q29 63 41 129t12 166q0 147 -8 215h-284l28 103h246v80q0 276 164 455t416 179q154 0 244.5 -58.5t90.5 -156.5q0 -85 -48.5 -138.5t-123.5 -53.5q-26 0 -51.5 7t-34.5 17q19 13 35.5 60.5t16.5 87.5q0 131 -166 131 q-145 0 -222 -103.5t-77 -295.5v-211h444l-29 -103h-417q0 -148 -48.5 -300t-128.5 -253q73 -20 168.5 -32.5t163.5 -12.5q103 0 185 34t157 108l19 -9q-89 -335 -394 -335q-83 0 -164 30.5t-216 110.5q-57 -63 -146.5 -102t-175.5 -39q-81 0 -123.5 35.5t-42.5 103.5z M98 143q0 -51 82 -51q101 0 191 78q-97 53 -164 53q-47 0 -78 -22.5t-31 -57.5z" />
<glyph unicode="&#xa4;" horiz-adv-x="1427" d="M190 965l72 71l148 -147q120 96 276 96q154 0 277 -96l147 147l72 -71l-148 -148q99 -123 99 -278q0 -156 -97 -277l146 -145l-72 -72l-145 145q-119 -96 -279 -96q-159 0 -278 99l-146 -146l-69 70l145 145q-96 120 -96 277q0 159 96 278zM344 539q0 -141 100.5 -241.5 t241.5 -100.5t242.5 100.5t101.5 241.5t-101.5 242.5t-242.5 101.5t-241.5 -101.5t-100.5 -242.5z" />
<glyph unicode="&#xa5;" horiz-adv-x="1566" d="M285 1495l22 82h576l-23 -82q-77 0 -111 -16.5t-34 -55.5q0 -34 16 -73l219 -529l285 416q37 54 50 74.5t23.5 46t10.5 49.5q0 42 -40.5 65t-111.5 23l23 82h506l-23 -82q-80 0 -119 -29t-114 -137l-383 -538h334l-29 -103h-367l-51 -190h363l-29 -103h-360l-13 -51 q-24 -89 -24 -143q0 -67 47 -93t159 -26l-24 -82h-694l22 82q70 0 114 9t80 36t59.5 73.5t43.5 123.5l19 71h-359l29 103h356l49 190h-350l29 103h278l-202 487q-32 77 -54.5 117.5t-52.5 64.5t-60 29.5t-85 5.5z" />
<glyph unicode="&#xa6;" horiz-adv-x="692" d="M250 -369v789h164v-789h-164zM250 748v788h164v-788h-164z" />
<glyph unicode="&#xa7;" horiz-adv-x="1271" d="M-2 -86q0 66 36 104.5t97 38.5q60 0 88.5 -37t28.5 -116q0 -164 98 -164q139 0 139 264q0 93 -33.5 244.5t-73 287.5t-73 291.5t-33.5 255.5q0 131 38.5 237.5t101.5 176t146.5 116.5t170 67t176.5 20q142 0 246 -74t104 -196q0 -64 -31.5 -104t-82.5 -40 q-113 0 -113 133q0 11 3 38.5t3 41.5q0 119 -123 119q-56 0 -93.5 -50.5t-37.5 -148.5q0 -105 39 -262.5t85 -296t85 -304.5t39 -286q0 -133 -42 -241.5t-109 -178t-154.5 -117t-175.5 -67.5t-176 -20q-102 0 -185 29t-135.5 91t-52.5 148zM477 1206q0 -93 31 -249 t68.5 -299t68.5 -309t31 -275q0 -120 -29 -194t-108 -130q282 69 282 432q0 98 -32.5 254t-72 294t-72 292.5t-32.5 249.5q0 118 16 180t77 127q-119 -57 -173.5 -147t-54.5 -226z" />
<glyph unicode="&#xa8;" horiz-adv-x="661" d="M35 1419q0 21 4 33q12 51 55 85t94 34q42 0 67.5 -24.5t25.5 -63.5q0 -60 -48.5 -105t-107.5 -45q-41 0 -65.5 23.5t-24.5 62.5zM377 1419q0 21 4 33q12 51 55 85t94 34q42 0 67.5 -24.5t25.5 -63.5q0 -60 -48.5 -105t-107.5 -45q-41 0 -65.5 23.5t-24.5 62.5z" />
<glyph unicode="&#xa9;" horiz-adv-x="1880" d="M186 788q0 164 62 313.5t167.5 258t251.5 173t306 64.5q163 0 311 -63.5t255 -171t170 -257t63 -314.5q0 -222 -107 -408.5t-290 -294.5t-400 -108q-161 0 -307 64.5t-251.5 172.5t-168 257.5t-62.5 313.5zM285 788q0 -193 91.5 -356t250.5 -258.5t348 -95.5 q142 0 271 56.5t222.5 152t149 227.5t55.5 277t-55.5 276.5t-149 226t-223 150t-272.5 55.5q-189 0 -347.5 -96t-249.5 -259.5t-91 -355.5zM532 768q0 214 127.5 346.5t331.5 132.5q124 0 258 -84l21 72h43l10 -268h-53q-25 92 -97 145t-172 53q-138 0 -214 -102.5 t-76 -286.5q0 -180 76 -275t219 -95q200 0 260 219h67q-31 -141 -119 -222t-235 -81q-204 0 -325.5 121.5t-121.5 324.5z" />
<glyph unicode="&#xaa;" horiz-adv-x="776" d="M264 1190q0 88 52 184t132 159.5t156 63.5q67 0 90 -65l23 55h104l-57 -155q-29 -78 -52.5 -164t-23.5 -117q0 -29 19 -29q27 0 102 105l27 -31q-45 -72 -101 -115t-102 -43q-53 0 -53 64q0 11 4 57h-9q-28 -53 -79 -87t-105 -34q-57 0 -92 40t-35 112zM391 1206 q0 -41 15 -63.5t40 -22.5q42 0 89.5 63t78.5 146t31 141q0 64 -45 64q-44 0 -94 -56t-82.5 -133.5t-32.5 -138.5z" />
<glyph unicode="&#xab;" horiz-adv-x="978" d="M59 537l437 325l28 -43l-278 -282l125 -283l-49 -41zM410 537l436 325l28 -43l-278 -282l125 -283l-49 -41z" />
<glyph unicode="&#xac;" horiz-adv-x="1384" d="M197 641v102h938v-518h-103v416h-835z" />
<glyph unicode="&#xad;" horiz-adv-x="999" d="M166 508v170h633v-170h-633z" />
<glyph unicode="&#xae;" horiz-adv-x="1880" d="M186 788q0 164 62 313.5t167.5 258t251.5 173t306 64.5q163 0 311 -63.5t255 -171t170 -257t63 -314.5q0 -222 -107 -408.5t-290 -294.5t-400 -108q-161 0 -307 64.5t-251.5 172.5t-168 257.5t-62.5 313.5zM285 788q0 -193 91.5 -356t250.5 -258.5t348 -95.5 q142 0 271 56.5t222.5 152t149 227.5t55.5 277t-55.5 276.5t-149 226t-223 150t-272.5 55.5q-189 0 -347.5 -96t-249.5 -259.5t-91 -355.5zM567 375v45q73 3 94 27t21 102v530q0 79 -18.5 102.5t-83.5 26.5v52h358q163 0 253.5 -59t90.5 -163q0 -197 -221 -233l254 -307 q29 -35 60 -52.5t77 -25.5v-45h-221l-283 350q-27 38 -50 48.5t-73 10.5v-229q0 -85 26 -110t122 -25v-45h-406zM825 852h82q104 0 154.5 43t50.5 137q0 90 -41 128t-133 38h-94q-19 0 -19 -18v-328z" />
<glyph unicode="&#xaf;" horiz-adv-x="634" d="M27 1438l26 102h553l-26 -102h-553z" />
<glyph unicode="&#xb0;" horiz-adv-x="700" d="M285 1352q0 101 72 173t173 72t173.5 -72t72.5 -173t-72.5 -173.5t-173.5 -72.5t-173 72.5t-72 173.5zM346 1352q0 -75 54.5 -130t129.5 -55t129 55t54 130t-54 128.5t-129 53.5t-129.5 -53.5t-54.5 -128.5z" />
<glyph unicode="&#xb1;" horiz-adv-x="1349" d="M186 195v102h959v-102h-959zM186 907v103h426v428h107v-428h426v-103h-426v-428h-107v428h-426z" />
<glyph unicode="&#xb2;" horiz-adv-x="577" d="M199 958l6 43q205 164 287.5 264t82.5 185q0 43 -24.5 68.5t-67.5 25.5q-47 0 -80.5 -29.5t-33.5 -70.5q0 -37 20 -57.5t57 -20.5q-16 -45 -71 -45q-44 0 -71.5 28t-27.5 74q0 72 66 124t158 52q83 0 132.5 -41.5t49.5 -109.5q0 -84 -81.5 -178.5t-266.5 -222.5v-9h147 q39 0 62.5 13t46.5 49h39l-51 -142h-379z" />
<glyph unicode="&#xb3;" horiz-adv-x="587" d="M201 1077q0 46 33 80.5t77 34.5q21 0 38 -11t20 -26q-31 0 -53.5 -25.5t-22.5 -60.5q0 -65 94 -65q63 0 102 37t39 98q0 54 -26 90.5t-66 36.5q-9 0 -32 -3t-31 -3q-27 0 -27 16q0 20 22.5 29t55 14t64.5 15t54.5 40t22.5 80q0 92 -73 92q-43 0 -71 -22t-28 -54 q0 -53 51 -53q-14 -31 -55 -31q-36 0 -58 21t-22 55q0 58 53.5 96.5t135.5 38.5q77 0 122.5 -34.5t45.5 -92.5q0 -57 -43.5 -105t-106.5 -62v-9q56 -13 87.5 -51.5t31.5 -91.5q0 -83 -74 -142t-180 -59q-80 0 -130 35t-50 92z" />
<glyph unicode="&#xb4;" horiz-adv-x="563" d="M41 1333l266 244q74 68 137 68q36 0 57 -19.5t21 -52.5q0 -58 -104 -107l-281 -133h-96z" />
<glyph unicode="&#xb5;" horiz-adv-x="1402" d="M12 -430q0 30 13 84q25 99 109.5 382t158.5 513q84 258 84 328q0 43 -23 43q-50 0 -190 -172l-53 28q66 131 185 230.5t210 99.5q47 0 74.5 -30.5t27.5 -82.5q0 -47 -21 -118.5t-114 -344.5q-72 -213 -72 -317q0 -86 56 -86q78 0 196.5 164t200.5 385l152 409h190 l-152 -469q-118 -366 -118 -430q0 -53 35 -53q43 0 109 73t106 165l61 -31q-61 -152 -171 -256t-208 -104q-57 0 -81.5 43t-24.5 143q0 52 10 117l-6 6q-66 -149 -146.5 -229t-163.5 -80q-95 0 -129 73l-6 -2l-69 -422q-14 -83 -47 -122t-91 -39q-48 0 -70 24t-22 78z" />
<glyph unicode="&#xb6;" horiz-adv-x="1122" d="M16 -377q0 51 27 81t74 30q38 0 59.5 -22.5t28 -49.5t26 -49.5t54.5 -22.5q46 0 84.5 48.5t60.5 130.5l238 919q-39 -8 -88 -8q-72 0 -137 20.5t-118 61t-84.5 109t-31.5 155.5q0 171 89 297t242.5 190t352.5 64h340l-21 -78q-42 0 -65 -5t-46.5 -21t-40.5 -53.5 t-35 -93.5t-42 -152l-258 -1024q-42 -166 -85 -284t-88 -195.5t-99 -122.5t-110.5 -62.5t-129.5 -17.5q-85 0 -141 44.5t-56 110.5z" />
<glyph unicode="&#xb7;" horiz-adv-x="563" d="M125 561q0 57 38.5 96t94.5 39q57 0 96 -39t39 -96q0 -56 -39 -94.5t-96 -38.5q-56 0 -94.5 39t-38.5 94z" />
<glyph unicode="&#xb8;" horiz-adv-x="475" d="M-23 -403q0 43 24.5 71.5t59.5 28.5q22 0 34.5 -22t16.5 -48.5t22 -48.5t50 -22q51 0 92 37.5t41 91.5q0 84 -137 84q-41 0 -71 -5l-3 7l175 254h108l-110 -172q103 0 158 -33t55 -96q0 -103 -96.5 -179.5t-215.5 -76.5q-90 0 -146.5 36.5t-56.5 92.5z" />
<glyph unicode="&#xb9;" horiz-adv-x="559" d="M225 958l11 43q59 0 88.5 25t46.5 90l82 326q2 4 2 12q0 12 -13 12q-4 0 -43 -7t-75 -7l14 45q61 0 109.5 26t99.5 74h41l-105 -409q-20 -82 -20 -115q0 -72 86 -72l-10 -43h-314z" />
<glyph unicode="&#xba;" horiz-adv-x="692" d="M272 1243q0 133 97.5 243.5t216.5 110.5q84 0 136 -53t52 -141q0 -84 -45 -169t-119.5 -140.5t-150.5 -55.5q-78 0 -132.5 56.5t-54.5 148.5zM410 1202q0 -102 65 -102q40 0 80.5 56t65 136.5t24.5 151.5q0 53 -18 74.5t-52 21.5q-40 0 -79 -54t-62.5 -133t-23.5 -151z " />
<glyph unicode="&#xbb;" horiz-adv-x="978" d="M49 254l277 283l-127 282l53 43l260 -325l-434 -324zM399 254l277 283l-127 282l53 43l260 -325l-434 -324z" />
<glyph unicode="&#xbc;" horiz-adv-x="1298" d="M-27 0l1276 1577h119l-1257 -1577h-138zM223 958l10 43q59 0 89 25t47 90l82 326q2 4 2 12q0 12 -13 12q-4 0 -43 -7t-75 -7l14 45q61 0 109.5 26t99.5 74h41l-105 -409q-20 -82 -20 -115q0 -72 86 -72l-10 -43h-314zM672 233l10 41l381 365h47l-90 -356h100l-12 -50 h-100l-68 -233h-86l59 233h-241zM758 283h170l59 215l-6 2z" />
<glyph unicode="&#xbd;" horiz-adv-x="1343" d="M-25 0l1276 1577h119l-1257 -1577h-138zM225 958l11 43q59 0 88.5 25t46.5 90l82 326q2 4 2 12q0 12 -13 12q-4 0 -43 -7t-75 -7l14 45q61 0 109.5 26t99.5 74h41l-105 -409q-20 -82 -20 -115q0 -72 86 -72l-10 -43h-314zM700 0l7 43q205 164 287.5 264t82.5 185 q0 43 -24.5 68.5t-67.5 25.5q-47 0 -81 -30t-34 -71q0 -37 20.5 -57t57.5 -20q-16 -46 -71 -46q-44 0 -71.5 28.5t-27.5 74.5q0 72 65.5 124t157.5 52q83 0 133 -42t50 -110q0 -84 -80 -177t-268 -224v-8h147q40 0 63 13t46 48h38l-51 -141h-379z" />
<glyph unicode="&#xbe;" horiz-adv-x="1351" d="M27 0l1276 1577h118l-1257 -1577h-137zM217 1077q0 46 33.5 80.5t77.5 34.5q21 0 37.5 -11t19.5 -26q-31 0 -53.5 -25.5t-22.5 -60.5q0 -65 94 -65q63 0 102.5 37t39.5 98q0 54 -26 90.5t-66 36.5q-9 0 -32.5 -3t-31.5 -3q-27 0 -27 16q0 20 22.5 29t55 14t65 15t55 40 t22.5 80q0 92 -74 92q-42 0 -70 -22t-28 -54q0 -53 51 -53q-14 -31 -55 -31q-36 0 -58 21t-22 55q0 59 53 97t135 38q77 0 122.5 -34.5t45.5 -92.5q0 -57 -43.5 -105t-106.5 -62v-9q56 -13 87.5 -51.5t31.5 -91.5q0 -83 -74 -142t-180 -59q-80 0 -130 35t-50 92zM725 233 l10 41l381 365h47l-90 -356h101l-13 -50h-100l-68 -233h-86l60 233h-242zM811 283h170l59 215l-6 2z" />
<glyph unicode="&#xbf;" horiz-adv-x="962" d="M43 307q0 84 33 157.5t85 126t115.5 99t127 85.5t115.5 75.5t85 79.5t33 88q0 82 -94 82q-95 0 -152 -105l-55 33q78 160 227 160q89 0 137 -52.5t48 -150.5q0 -79 -31.5 -146.5t-82.5 -116t-112 -92t-122 -83t-112 -79t-82.5 -89.5t-31.5 -107q0 -85 62 -139.5 t159 -54.5q87 0 145 42.5t58 106.5q0 37 -22.5 55t-49 22t-49 23.5t-22.5 59.5q0 47 29.5 73.5t82.5 26.5q83 0 140 -59t57 -147q0 -124 -111 -212.5t-268 -88.5q-155 0 -248.5 89.5t-93.5 237.5zM508 1473q0 53 38 89.5t93 36.5q54 0 90.5 -36t36.5 -90q0 -55 -37.5 -93.5 t-91.5 -38.5t-91.5 39t-37.5 93z" />
<glyph unicode="&#xc0;" d="M-221 0l20 82q97 0 203 83.5t295 307.5l944 1124h172l-285 -1257q-24 -108 -24 -158q0 -60 38.5 -80t151.5 -20l-20 -82h-606l20 82q63 0 99 8.5t64.5 38.5t45 77.5t35.5 135.5l55 252h-440l-129 -135q-107 -111 -161.5 -176t-67.5 -88.5t-13 -42.5q0 -38 34.5 -54 t119.5 -16l-21 -82h-530zM635 696h371l168 635h-9zM954 1882q0 36 31.5 60t67.5 24q39 0 73.5 -15.5t85.5 -52.5l226 -157h-123l-232 57q-129 30 -129 84z" />
<glyph unicode="&#xc1;" d="M-221 0l20 82q97 0 203 83.5t295 307.5l944 1124h172l-285 -1257q-24 -108 -24 -158q0 -60 38.5 -80t151.5 -20l-20 -82h-606l20 82q63 0 99 8.5t64.5 38.5t45 77.5t35.5 135.5l55 252h-440l-129 -135q-107 -111 -161.5 -176t-67.5 -88.5t-13 -42.5q0 -38 34.5 -54 t119.5 -16l-21 -82h-530zM635 696h371l168 635h-9zM1280 1741l307 157q72 37 115 52.5t82 15.5q61 0 61 -51q0 -78 -182 -117l-260 -57h-123z" />
<glyph unicode="&#xc2;" d="M-221 0l20 82q97 0 203 83.5t295 307.5l944 1124h172l-285 -1257q-24 -108 -24 -158q0 -60 38.5 -80t151.5 -20l-20 -82h-606l20 82q63 0 99 8.5t64.5 38.5t45 77.5t35.5 135.5l55 252h-440l-129 -135q-107 -111 -161.5 -176t-67.5 -88.5t-13 -42.5q0 -38 34.5 -54 t119.5 -16l-21 -82h-530zM635 696h371l168 635h-9zM1042 1743l283 223h225l164 -223h-92l-215 110l-272 -110h-93z" />
<glyph unicode="&#xc3;" d="M-221 0l20 82q97 0 203 83.5t295 307.5l944 1124h172l-285 -1257q-24 -108 -24 -158q0 -60 38.5 -80t151.5 -20l-20 -82h-606l20 82q63 0 99 8.5t64.5 38.5t45 77.5t35.5 135.5l55 252h-440l-129 -135q-107 -111 -161.5 -176t-67.5 -88.5t-13 -42.5q0 -38 34.5 -54 t119.5 -16l-21 -82h-530zM635 696h371l168 635h-9zM1051 1733q17 103 77 168t138 65q65 0 172 -47t153 -47q34 0 55.5 20t34.5 66h68q-11 -97 -68 -169.5t-135 -72.5q-51 0 -117 25t-126 49.5t-97 24.5q-34 0 -53 -18.5t-33 -63.5h-69z" />
<glyph unicode="&#xc4;" d="M-221 0l20 82q97 0 203 83.5t295 307.5l944 1124h172l-285 -1257q-24 -108 -24 -158q0 -60 38.5 -80t151.5 -20l-20 -82h-606l20 82q63 0 99 8.5t64.5 38.5t45 77.5t35.5 135.5l55 252h-440l-129 -135q-107 -111 -161.5 -176t-67.5 -88.5t-13 -42.5q0 -38 34.5 -54 t119.5 -16l-21 -82h-530zM635 696h371l168 635h-9zM1124 1833q0 21 4 31q10 43 48 72.5t81 29.5q36 0 59 -21.5t23 -54.5q0 -53 -43 -92t-94 -39q-35 0 -56.5 20.5t-21.5 53.5zM1497 1833q0 21 4 31q10 43 48.5 72.5t82.5 29.5q35 0 57.5 -21.5t22.5 -54.5q0 -52 -43 -91.5 t-92 -39.5q-36 0 -58 20.5t-22 53.5z" />
<glyph unicode="&#xc5;" d="M-221 0l20 82q97 0 203 83.5t295 307.5l944 1124h172l-285 -1257q-24 -108 -24 -158q0 -60 38.5 -80t151.5 -20l-20 -82h-606l20 82q63 0 99 8.5t64.5 38.5t45 77.5t35.5 135.5l55 252h-440l-129 -135q-107 -111 -161.5 -176t-67.5 -88.5t-13 -42.5q0 -38 34.5 -54 t119.5 -16l-21 -82h-530zM635 696h371l168 635h-9zM1262 1798q0 65 53.5 116.5t120.5 51.5q46 0 74 -27t28 -73q0 -64 -54 -115t-122 -51q-46 0 -73 27t-27 71zM1327 1812q0 -23 14 -36t37 -13q35 0 63.5 26t28.5 60q0 23 -14 37.5t-39 14.5q-35 0 -62.5 -27.5t-27.5 -61.5z " />
<glyph unicode="&#xc6;" horiz-adv-x="2193" d="M-174 0l20 82q97 0 203 83.5t295 307.5l766 913q33 41 33 60q0 26 -51.5 37.5t-169.5 11.5l22 82h1180v-414h-78q-26 97 -58.5 160.5t-76 99.5t-92.5 50t-117 14h-266l-140 -608h109q109 0 164.5 46t120.5 187h75l-123 -606h-81q6 61 6 106q0 93 -36.5 134.5t-127.5 41.5 h-127l-100 -448q-25 -112 -25 -158q0 -51 56 -72.5t198 -21.5q158 0 260.5 34t171.5 107t127 203h96l-159 -432h-1186l20 82q63 0 99 8.5t64.5 38.5t45 77.5t35.5 135.5l55 252h-440l-129 -135q-107 -111 -161.5 -176t-67.5 -88.5t-13 -42.5q0 -38 34.5 -54t119.5 -16 l-21 -82h-530zM682 696h371l168 635h-9z" />
<glyph unicode="&#xc7;" horiz-adv-x="1490" d="M150 616q0 190 71.5 371t190 314.5t279 214.5t329.5 81q193 0 369 -122l75 102h76l-94 -514h-78q-15 221 -95 324.5t-237 103.5q-176 0 -323 -116t-231.5 -317.5t-84.5 -443.5q0 -252 100.5 -380t295.5 -128q147 0 266.5 79.5t228.5 250.5l74 -49q-125 -193 -248 -287.5 t-276 -113.5l-84 -133q103 0 158 -33t55 -96q0 -103 -96.5 -179.5t-215.5 -76.5q-90 0 -146 36.5t-56 92.5q0 43 24.5 71.5t59.5 28.5q19 0 29.5 -14.5t15.5 -35.5t11.5 -41.5t22.5 -35t43 -14.5q51 0 92.5 37.5t41.5 91.5q0 41 -36 62.5t-102 21.5q-41 0 -71 -5l-2 7 l143 209q-267 7 -421 178t-154 458z" />
<glyph unicode="&#xc8;" horiz-adv-x="1515" d="M-53 0l22 82q92 0 141.5 21t78 70t55.5 151l237 903q29 113 29 159q0 65 -45 87t-160 22l23 82h1118v-414h-78q-26 97 -58.5 160.5t-76 99.5t-92.5 50t-117 14h-266l-160 -608h129q109 0 164.5 46t120.5 187h75l-122 -606h-82q6 62 6 106q0 93 -36.5 134.5t-127.5 41.5 h-154l-116 -440q-19 -71 -19 -115q0 -75 67 -110t224 -35q158 0 260.5 34t171.5 107t127 203h96l-159 -432h-1276zM713 1882q0 36 31 60t67 24q39 0 74 -15.5t86 -52.5l225 -157h-123l-231 57q-129 30 -129 84z" />
<glyph unicode="&#xc9;" horiz-adv-x="1515" d="M-53 0l22 82q92 0 141.5 21t78 70t55.5 151l237 903q29 113 29 159q0 65 -45 87t-160 22l23 82h1118v-414h-78q-26 97 -58.5 160.5t-76 99.5t-92.5 50t-117 14h-266l-160 -608h129q109 0 164.5 46t120.5 187h75l-122 -606h-82q6 62 6 106q0 93 -36.5 134.5t-127.5 41.5 h-154l-116 -440q-19 -71 -19 -115q0 -75 67 -110t224 -35q158 0 260.5 34t171.5 107t127 203h96l-159 -432h-1276zM774 1741l307 157q72 37 115 52.5t82 15.5q61 0 61 -51q0 -78 -182 -117l-260 -57h-123z" />
<glyph unicode="&#xca;" horiz-adv-x="1515" d="M-53 0l22 82q92 0 141.5 21t78 70t55.5 151l237 903q29 113 29 159q0 65 -45 87t-160 22l23 82h1118v-414h-78q-26 97 -58.5 160.5t-76 99.5t-92.5 50t-117 14h-266l-160 -608h129q109 0 164.5 46t120.5 187h75l-122 -606h-82q6 62 6 106q0 93 -36.5 134.5t-127.5 41.5 h-154l-116 -440q-19 -71 -19 -115q0 -75 67 -110t224 -35q158 0 260.5 34t171.5 107t127 203h96l-159 -432h-1276zM643 1743l283 223h225l164 -223h-92l-215 110l-273 -110h-92z" />
<glyph unicode="&#xcb;" horiz-adv-x="1515" d="M-53 0l22 82q92 0 141.5 21t78 70t55.5 151l237 903q29 113 29 159q0 65 -45 87t-160 22l23 82h1118v-414h-78q-26 97 -58.5 160.5t-76 99.5t-92.5 50t-117 14h-266l-160 -608h129q109 0 164.5 46t120.5 187h75l-122 -606h-82q6 62 6 106q0 93 -36.5 134.5t-127.5 41.5 h-154l-116 -440q-19 -71 -19 -115q0 -75 67 -110t224 -35q158 0 260.5 34t171.5 107t127 203h96l-159 -432h-1276zM717 1833q0 21 4 31q10 43 48 72.5t81 29.5q36 0 59 -21.5t23 -54.5q0 -53 -43 -92t-94 -39q-35 0 -56.5 20.5t-21.5 53.5zM1090 1833q0 21 4 31 q10 43 48.5 72.5t82.5 29.5q35 0 57.5 -21.5t22.5 -54.5q0 -52 -43.5 -91.5t-92.5 -39.5q-36 0 -57.5 20.5t-21.5 53.5z" />
<glyph unicode="&#xcc;" horiz-adv-x="860" d="M-57 0l22 82q125 0 181.5 47.5t95.5 194.5l239 905q31 118 31 168q0 60 -43.5 79t-159.5 19l23 82h665l-22 -82q-70 0 -112.5 -12.5t-77.5 -52t-58.5 -100.5t-52.5 -171l-215 -815q-25 -92 -25 -143q0 -67 43 -93t144 -26l-25 -82h-653zM422 1882q0 36 31 60t67 24 q39 0 74 -15.5t86 -52.5l225 -157h-123l-231 57q-129 30 -129 84z" />
<glyph unicode="&#xcd;" horiz-adv-x="860" d="M-57 0l22 82q125 0 181.5 47.5t95.5 194.5l239 905q31 118 31 168q0 60 -43.5 79t-159.5 19l23 82h665l-22 -82q-70 0 -112.5 -12.5t-77.5 -52t-58.5 -100.5t-52.5 -171l-215 -815q-25 -92 -25 -143q0 -67 43 -93t144 -26l-25 -82h-653zM483 1741l308 157 q72 37 114.5 52.5t81.5 15.5q62 0 62 -51q0 -78 -183 -117l-260 -57h-123z" />
<glyph unicode="&#xce;" horiz-adv-x="860" d="M-57 0l22 82q125 0 181.5 47.5t95.5 194.5l239 905q31 118 31 168q0 60 -43.5 79t-159.5 19l23 82h665l-22 -82q-70 0 -112.5 -12.5t-77.5 -52t-58.5 -100.5t-52.5 -171l-215 -815q-25 -92 -25 -143q0 -67 43 -93t144 -26l-25 -82h-653zM369 1743l282 223h226l163 -223 h-92l-215 110l-272 -110h-92z" />
<glyph unicode="&#xcf;" horiz-adv-x="860" d="M-57 0l22 82q125 0 181.5 47.5t95.5 194.5l239 905q31 118 31 168q0 60 -43.5 79t-159.5 19l23 82h665l-22 -82q-70 0 -112.5 -12.5t-77.5 -52t-58.5 -100.5t-52.5 -171l-215 -815q-25 -92 -25 -143q0 -67 43 -93t144 -26l-25 -82h-653zM459 1833q0 21 4 31 q10 43 48 72.5t81 29.5q36 0 59 -21.5t23 -54.5q0 -53 -43 -92t-94 -39q-35 0 -56.5 20.5t-21.5 53.5zM831 1833q0 19 5 31q10 43 48.5 72.5t82.5 29.5q35 0 57.5 -21.5t22.5 -54.5q0 -52 -43.5 -91.5t-92.5 -39.5q-36 0 -58 20.5t-22 53.5z" />
<glyph unicode="&#xd0;" horiz-adv-x="1718" d="M-53 0l22 82q71 0 110.5 7.5t72.5 34.5t53 72.5t41 127.5l110 426h-190l27 102h190l98 377q2 6 15 48.5t21.5 76.5t8.5 55q0 28 -16 47t-44.5 26.5t-53 10t-56.5 2.5h-39l27 82h555q326 0 516 -158q112 -92 167.5 -224t55.5 -280q0 -182 -78.5 -361.5t-205.5 -305.5 q-135 -134 -306.5 -191t-383.5 -57h-717zM440 242q0 -152 205 -152q154 0 283 53t215 139.5t145.5 198.5t86 227t26.5 228q0 255 -137.5 397t-380.5 142q-66 0 -99 -20t-51 -85l-139 -518h233l-26 -102h-236l-73 -277q-52 -192 -52 -231z" />
<glyph unicode="&#xd1;" horiz-adv-x="1724" d="M-18 0l22 82q94 0 171.5 68.5t105.5 173.5l241 909q8 31 8 63q0 95 -81.5 146t-219.5 53l25 82h481l512 -1174h8l218 830q10 45 10 76q0 85 -48.5 134.5t-123.5 51.5l24 82h525l-23 -82q-77 0 -142 -68t-93 -174l-332 -1253h-82l-537 1233h-8l-233 -889q-13 -54 -13 -88 q0 -83 51.5 -127.5t143.5 -46.5l-25 -82h-585zM791 1733q17 103 77 168t138 65q65 0 172 -47t153 -47q34 0 55.5 20t34.5 66h68q-11 -97 -68 -169.5t-135 -72.5q-51 0 -117 25t-126 49.5t-97 24.5q-34 0 -53 -18.5t-33 -63.5h-69z" />
<glyph unicode="&#xd2;" horiz-adv-x="1679" d="M152 621q0 128 33 253t91 232t140.5 198.5t179 155.5t209.5 100.5t229 36.5q261 0 416.5 -172.5t155.5 -463.5q0 -193 -71.5 -374.5t-190.5 -314t-281 -212.5t-334 -80q-262 0 -419.5 175t-157.5 466zM399 614q0 -258 91.5 -391t267.5 -133q170 0 307 118.5t215 330.5 t78 477q0 244 -79 359.5t-245 115.5q-175 0 -321 -116t-230 -317.5t-84 -443.5zM797 1882q0 36 31 60t67 24q39 0 74 -15.5t86 -52.5l225 -157h-123l-231 57q-129 30 -129 84z" />
<glyph unicode="&#xd3;" horiz-adv-x="1679" d="M152 621q0 128 33 253t91 232t140.5 198.5t179 155.5t209.5 100.5t229 36.5q261 0 416.5 -172.5t155.5 -463.5q0 -193 -71.5 -374.5t-190.5 -314t-281 -212.5t-334 -80q-262 0 -419.5 175t-157.5 466zM399 614q0 -258 91.5 -391t267.5 -133q170 0 307 118.5t215 330.5 t78 477q0 244 -79 359.5t-245 115.5q-175 0 -321 -116t-230 -317.5t-84 -443.5zM858 1741l307 157q72 37 115 52.5t82 15.5q61 0 61 -51q0 -78 -182 -117l-260 -57h-123z" />
<glyph unicode="&#xd4;" horiz-adv-x="1679" d="M152 621q0 128 33 253t91 232t140.5 198.5t179 155.5t209.5 100.5t229 36.5q261 0 416.5 -172.5t155.5 -463.5q0 -193 -71.5 -374.5t-190.5 -314t-281 -212.5t-334 -80q-262 0 -419.5 175t-157.5 466zM399 614q0 -258 91.5 -391t267.5 -133q170 0 307 118.5t215 330.5 t78 477q0 244 -79 359.5t-245 115.5q-175 0 -321 -116t-230 -317.5t-84 -443.5zM760 1743l282 223h226l164 -223h-93l-215 110l-272 -110h-92z" />
<glyph unicode="&#xd5;" horiz-adv-x="1679" d="M152 621q0 128 33 253t91 232t140.5 198.5t179 155.5t209.5 100.5t229 36.5q261 0 416.5 -172.5t155.5 -463.5q0 -193 -71.5 -374.5t-190.5 -314t-281 -212.5t-334 -80q-262 0 -419.5 175t-157.5 466zM399 614q0 -258 91.5 -391t267.5 -133q170 0 307 118.5t215 330.5 t78 477q0 244 -79 359.5t-245 115.5q-175 0 -321 -116t-230 -317.5t-84 -443.5zM780 1733q17 103 77 168t138 65q65 0 172.5 -47t153.5 -47q34 0 55.5 20t34.5 66h68q-11 -97 -68 -169.5t-135 -72.5q-51 0 -117 25t-126 49.5t-97 24.5q-34 0 -53 -18.5t-33 -63.5h-70z" />
<glyph unicode="&#xd6;" horiz-adv-x="1679" d="M152 621q0 128 33 253t91 232t140.5 198.5t179 155.5t209.5 100.5t229 36.5q261 0 416.5 -172.5t155.5 -463.5q0 -193 -71.5 -374.5t-190.5 -314t-281 -212.5t-334 -80q-262 0 -419.5 175t-157.5 466zM399 614q0 -258 91.5 -391t267.5 -133q170 0 307 118.5t215 330.5 t78 477q0 244 -79 359.5t-245 115.5q-175 0 -321 -116t-230 -317.5t-84 -443.5zM852 1833q0 21 4 31q10 43 48 72.5t81 29.5q36 0 59 -21.5t23 -54.5q0 -53 -43 -92t-94 -39q-35 0 -56.5 20.5t-21.5 53.5zM1225 1833q0 21 4 31q10 43 48.5 72.5t82.5 29.5q35 0 57.5 -21.5 t22.5 -54.5q0 -52 -43 -91.5t-92 -39.5q-36 0 -58 20.5t-22 53.5z" />
<glyph unicode="&#xd7;" horiz-adv-x="1112" d="M168 377l317 317l-315 316l72 71l315 -315l317 317l76 -75l-317 -318l315 -315l-71 -72l-316 315l-317 -317z" />
<glyph unicode="&#xd8;" horiz-adv-x="1679" d="M96 -127l217 277q-161 175 -161 471q0 128 33 253t91 232t140.5 198.5t179 155.5t209.5 100.5t229 36.5q199 0 340 -104l160 203h141l-219 -277q150 -173 150 -458q0 -193 -71.5 -374.5t-190.5 -314t-281 -212.5t-334 -80q-197 0 -334 96l-159 -203h-140zM399 614 q0 -185 45 -301l836 1061q-80 117 -246 117q-175 0 -321 -116t-230 -317.5t-84 -443.5zM500 209q93 -119 258 -119q170 0 307 118.5t215 330.5t78 477q0 134 -29 244z" />
<glyph unicode="&#xd9;" horiz-adv-x="1654" d="M233 449q0 122 41 274l136 504q26 102 26 157q0 61 -43 86t-149 25l26 82h654l-23 -82q-52 0 -85 -4t-63 -18.5t-48 -34.5t-37.5 -62t-34 -90.5t-35.5 -128.5l-133 -514q-27 -105 -27 -192q0 -166 85.5 -261.5t244.5 -95.5q98 0 179 37t141.5 106.5t105 156t80.5 200.5 q59 184 111.5 442t52.5 336q0 113 -209 123l24 82h539l-25 -82q-70 0 -107 -20t-64 -78.5t-54 -184.5l-88 -409q-178 -823 -702 -823q-257 0 -388 121t-131 348zM815 1882q0 36 31 60t67 24q39 0 74 -15.5t86 -52.5l225 -157h-122l-232 57q-129 30 -129 84z" />
<glyph unicode="&#xda;" horiz-adv-x="1654" d="M233 449q0 122 41 274l136 504q26 102 26 157q0 61 -43 86t-149 25l26 82h654l-23 -82q-52 0 -85 -4t-63 -18.5t-48 -34.5t-37.5 -62t-34 -90.5t-35.5 -128.5l-133 -514q-27 -105 -27 -192q0 -166 85.5 -261.5t244.5 -95.5q98 0 179 37t141.5 106.5t105 156t80.5 200.5 q59 184 111.5 442t52.5 336q0 113 -209 123l24 82h539l-25 -82q-70 0 -107 -20t-64 -78.5t-54 -184.5l-88 -409q-178 -823 -702 -823q-257 0 -388 121t-131 348zM877 1741l307 157q72 37 114.5 52.5t81.5 15.5q62 0 62 -51q0 -78 -182 -117l-261 -57h-122z" />
<glyph unicode="&#xdb;" horiz-adv-x="1654" d="M233 449q0 122 41 274l136 504q26 102 26 157q0 61 -43 86t-149 25l26 82h654l-23 -82q-52 0 -85 -4t-63 -18.5t-48 -34.5t-37.5 -62t-34 -90.5t-35.5 -128.5l-133 -514q-27 -105 -27 -192q0 -166 85.5 -261.5t244.5 -95.5q98 0 179 37t141.5 106.5t105 156t80.5 200.5 q59 184 111.5 442t52.5 336q0 113 -209 123l24 82h539l-25 -82q-70 0 -107 -20t-64 -78.5t-54 -184.5l-88 -409q-178 -823 -702 -823q-257 0 -388 121t-131 348zM745 1743l283 223h225l164 -223h-92l-215 110l-272 -110h-93z" />
<glyph unicode="&#xdc;" horiz-adv-x="1654" d="M233 449q0 122 41 274l136 504q26 102 26 157q0 61 -43 86t-149 25l26 82h654l-23 -82q-52 0 -85 -4t-63 -18.5t-48 -34.5t-37.5 -62t-34 -90.5t-35.5 -128.5l-133 -514q-27 -105 -27 -192q0 -166 85.5 -261.5t244.5 -95.5q98 0 179 37t141.5 106.5t105 156t80.5 200.5 q59 184 111.5 442t52.5 336q0 113 -209 123l24 82h539l-25 -82q-70 0 -107 -20t-64 -78.5t-54 -184.5l-88 -409q-178 -823 -702 -823q-257 0 -388 121t-131 348zM819 1833q0 21 4 31q10 43 48 72.5t81 29.5q36 0 59 -21.5t23 -54.5q0 -53 -43 -92t-94 -39q-35 0 -56.5 20.5 t-21.5 53.5zM1192 1833q0 21 4 31q10 43 48.5 72.5t82.5 29.5q35 0 57.5 -21.5t22.5 -54.5q0 -52 -43 -91.5t-92 -39.5q-36 0 -58 20.5t-22 53.5z" />
<glyph unicode="&#xdd;" horiz-adv-x="1411" d="M184 1495l23 82h575l-22 -82q-78 0 -112 -16.5t-34 -55.5q0 -32 17 -73l219 -529l285 416q37 54 50 74.5t23.5 46t10.5 49.5q0 42 -40.5 65t-111.5 23l23 82h505l-22 -82q-43 0 -69.5 -5.5t-54 -27t-48.5 -48.5t-62 -85l-438 -616l-96 -369q-25 -92 -25 -143 q0 -67 47.5 -93t159.5 -26l-24 -82h-695l23 82q70 0 114 9t80 36t59.5 73.5t43.5 123.5l94 364l-246 590q-32 77 -54.5 117.5t-52.5 64.5t-60 29.5t-85 5.5zM748 1741l307 157q72 37 114.5 52.5t81.5 15.5q62 0 62 -51q0 -78 -183 -117l-260 -57h-122z" />
<glyph unicode="&#xde;" horiz-adv-x="1443" d="M-74 0l23 78q75 2 118 11t76 36t51.5 68.5t38.5 117.5l256 955q23 85 23 131q0 57 -38.5 78t-147.5 24l22 78h723l-22 -78q-65 0 -106.5 -3t-78 -13t-58 -25t-41.5 -44.5t-33.5 -65.5t-29.5 -93l-10 -34h223q494 0 494 -351q0 -233 -207 -371.5t-557 -138.5h-184l-10 -38 q-23 -88 -23 -132q0 -66 51 -89t191 -23l-23 -78h-721zM489 463h146q235 0 374.5 122t139.5 328q0 114 -60 162.5t-200 48.5h-189q-34 0 -43 -34z" />
<glyph unicode="&#xdf;" horiz-adv-x="1200" d="M-463 -375q0 49 27.5 79t73.5 30q31 0 50.5 -15t28 -36t16.5 -42t24.5 -36t43.5 -15q49 0 88.5 47t61.5 132l356 1431q59 237 192 368.5t318 131.5q160 0 252 -80.5t92 -220.5q0 -161 -112 -286t-285 -157l-4 -10q147 0 232 -95.5t85 -260.5q0 -116 -46.5 -228.5 t-122 -196t-177.5 -134.5t-207 -51q-86 0 -135 34.5t-49 94.5q0 54 33.5 93.5t77.5 39.5q27 0 39.5 -17.5t15 -42t6 -49t19.5 -42t49 -17.5q75 0 140 67.5t103.5 182t38.5 245.5q0 168 -77 246t-242 78l26 104q145 0 235.5 73.5t135.5 225.5q2 16 6.5 40.5t7 43.5t2.5 35 q0 96 -49.5 139t-154.5 43q-89 0 -143.5 -86t-106.5 -299l-256 -1062q-89 -366 -203 -524t-289 -158q-101 0 -159 42t-58 115z" />
<glyph unicode="&#xe0;" horiz-adv-x="1167" d="M20 276q0 137 60.5 288t152.5 269t210 195.5t225 77.5q68 0 111 -32.5t69 -102.5l43 114h170l-117 -313q-58 -153 -104.5 -335.5t-46.5 -250.5q0 -59 38 -59q52 0 205 213l54 -43q-84 -150 -184 -233.5t-193 -83.5q-99 0 -99 153q0 16 7 109l-9 2q-60 -114 -164.5 -189 t-205.5 -75q-103 0 -162.5 79t-59.5 217zM215 287q0 -74 31.5 -118t83.5 -44q68 0 147.5 82t141.5 199t103.5 249.5t41.5 229.5q0 53 -22.5 83.5t-61.5 30.5q-61 0 -128.5 -46.5t-126 -123.5t-106.5 -169t-76 -191t-28 -182zM500 1556q0 39 30.5 64t69.5 25q63 0 119 -68 l201 -244h-97l-243 133q-80 44 -80 90z" />
<glyph unicode="&#xe1;" horiz-adv-x="1167" d="M20 276q0 137 60.5 288t152.5 269t210 195.5t225 77.5q68 0 111 -32.5t69 -102.5l43 114h170l-117 -313q-58 -153 -104.5 -335.5t-46.5 -250.5q0 -59 38 -59q52 0 205 213l54 -43q-84 -150 -184 -233.5t-193 -83.5q-99 0 -99 153q0 16 7 109l-9 2q-60 -114 -164.5 -189 t-205.5 -75q-103 0 -162.5 79t-59.5 217zM215 287q0 -74 31.5 -118t83.5 -44q68 0 147.5 82t141.5 199t103.5 249.5t41.5 229.5q0 53 -22.5 83.5t-61.5 30.5q-61 0 -128.5 -46.5t-126 -123.5t-106.5 -169t-76 -191t-28 -182zM573 1333l267 244q74 68 137 68q36 0 57 -19.5 t21 -52.5q0 -58 -105 -107l-280 -133h-97z" />
<glyph unicode="&#xe2;" horiz-adv-x="1167" d="M20 276q0 137 60.5 288t152.5 269t210 195.5t225 77.5q68 0 111 -32.5t69 -102.5l43 114h170l-117 -313q-58 -153 -104.5 -335.5t-46.5 -250.5q0 -59 38 -59q52 0 205 213l54 -43q-84 -150 -184 -233.5t-193 -83.5q-99 0 -99 153q0 16 7 109l-9 2q-60 -114 -164.5 -189 t-205.5 -75q-103 0 -162.5 79t-59.5 217zM215 287q0 -74 31.5 -118t83.5 -44q68 0 147.5 82t141.5 199t103.5 249.5t41.5 229.5q0 53 -22.5 83.5t-61.5 30.5q-61 0 -128.5 -46.5t-126 -123.5t-106.5 -169t-76 -191t-28 -182zM385 1333l315 264h185l172 -264h-92l-207 140 l-281 -140h-92z" />
<glyph unicode="&#xe3;" horiz-adv-x="1167" d="M20 276q0 137 60.5 288t152.5 269t210 195.5t225 77.5q68 0 111 -32.5t69 -102.5l43 114h170l-117 -313q-58 -153 -104.5 -335.5t-46.5 -250.5q0 -59 38 -59q52 0 205 213l54 -43q-84 -150 -184 -233.5t-193 -83.5q-99 0 -99 153q0 16 7 109l-9 2q-60 -114 -164.5 -189 t-205.5 -75q-103 0 -162.5 79t-59.5 217zM215 287q0 -74 31.5 -118t83.5 -44q68 0 147.5 82t141.5 199t103.5 249.5t41.5 229.5q0 53 -22.5 83.5t-61.5 30.5q-61 0 -128.5 -46.5t-126 -123.5t-106.5 -169t-76 -191t-28 -182zM408 1352q17 103 77 168t138 65q64 0 176 -49 q103 -45 149 -45q34 0 55.5 20t34.5 66h68q-5 -42 -23 -89t-43 -79q-55 -74 -137 -74q-46 0 -172 51q-126 48 -168 48q-34 0 -53 -18.5t-33 -63.5h-69z" />
<glyph unicode="&#xe4;" horiz-adv-x="1167" d="M20 276q0 137 60.5 288t152.5 269t210 195.5t225 77.5q68 0 111 -32.5t69 -102.5l43 114h170l-117 -313q-58 -153 -104.5 -335.5t-46.5 -250.5q0 -59 38 -59q52 0 205 213l54 -43q-84 -150 -184 -233.5t-193 -83.5q-99 0 -99 153q0 16 7 109l-9 2q-60 -114 -164.5 -189 t-205.5 -75q-103 0 -162.5 79t-59.5 217zM215 287q0 -74 31.5 -118t83.5 -44q68 0 147.5 82t141.5 199t103.5 249.5t41.5 229.5q0 53 -22.5 83.5t-61.5 30.5q-61 0 -128.5 -46.5t-126 -123.5t-106.5 -169t-76 -191t-28 -182zM465 1419q0 21 4 33q12 51 55 85t94 34 q42 0 67.5 -24.5t25.5 -63.5q0 -60 -48.5 -105t-107.5 -45q-41 0 -65.5 23.5t-24.5 62.5zM807 1419q0 21 4 33q12 51 55.5 85t94.5 34q42 0 67 -24.5t25 -63.5q0 -60 -48.5 -105t-107.5 -45q-41 0 -65.5 23.5t-24.5 62.5z" />
<glyph unicode="&#xe5;" horiz-adv-x="1167" d="M20 276q0 137 60.5 288t152.5 269t210 195.5t225 77.5q68 0 111 -32.5t69 -102.5l43 114h170l-117 -313q-58 -153 -104.5 -335.5t-46.5 -250.5q0 -59 38 -59q52 0 205 213l54 -43q-84 -150 -184 -233.5t-193 -83.5q-99 0 -99 153q0 16 7 109l-9 2q-60 -114 -164.5 -189 t-205.5 -75q-103 0 -162.5 79t-59.5 217zM215 287q0 -74 31.5 -118t83.5 -44q68 0 147.5 82t141.5 199t103.5 249.5t41.5 229.5q0 53 -22.5 83.5t-61.5 30.5q-61 0 -128.5 -46.5t-126 -123.5t-106.5 -169t-76 -191t-28 -182zM573 1470q0 88 70 159t162 71q64 0 101.5 -35 t37.5 -92q0 -93 -71.5 -161.5t-163.5 -68.5q-63 0 -99.5 35t-36.5 92zM659 1495q0 -31 20.5 -50.5t55.5 -19.5q46 0 83.5 36.5t37.5 86.5q0 29 -20 47.5t-52 18.5q-46 0 -85.5 -35t-39.5 -84z" />
<glyph unicode="&#xe6;" horiz-adv-x="1548" d="M20 276q0 137 60.5 288t152.5 269t210 195.5t225 77.5q68 0 111 -32.5t69 -102.5l57 155h170l-61 -151l6 -4q102 135 278 135q98 0 161 -50t63 -128q0 -93 -90.5 -194t-245.5 -183.5t-334 -122.5q-8 -52 -8 -113q0 -109 40 -166t117 -57q75 0 157 59.5t151 163.5l65 -43 q-177 -292 -438 -292q-126 0 -201.5 71.5t-89.5 202.5q-71 -117 -186.5 -195.5t-218.5 -78.5q-102 0 -161 79t-59 217zM215 295q0 -79 30 -124.5t83 -45.5q94 0 197.5 120t171 296.5t67.5 332.5q0 125 -90 125t-199 -115t-184.5 -282.5t-75.5 -306.5zM872 520 q198 54 327.5 168t129.5 236q0 86 -72 86q-104 0 -217.5 -148.5t-167.5 -341.5z" />
<glyph unicode="&#xe7;" horiz-adv-x="903" d="M29 313q0 133 57.5 277t146.5 257t203 186t219 73q97 0 161.5 -53t64.5 -133q0 -51 -30.5 -83t-76.5 -32q-45 0 -75.5 29.5t-30.5 72.5q0 20 8 43.5t8 30.5q0 29 -49 29q-89 0 -180.5 -106t-151 -270t-59.5 -323q0 -99 38 -155t105 -56q72 0 157.5 76.5t147.5 194.5 l72 -41q-68 -135 -155 -221t-187 -115l-90 -141q103 0 158 -33t55 -96q0 -103 -96.5 -179.5t-215.5 -76.5q-90 0 -146 36.5t-56 92.5q0 43 24.5 71.5t59.5 28.5q22 0 34.5 -22t16.5 -48.5t22 -48.5t50 -22q51 0 92 37.5t41 91.5q0 41 -36 62.5t-102 21.5q-41 0 -71 -5l-2 7 l143 209q-125 8 -199.5 97.5t-74.5 235.5z" />
<glyph unicode="&#xe8;" horiz-adv-x="933" d="M29 313q0 110 38 226.5t103.5 216t148 179.5t178.5 125.5t187 45.5q98 0 160.5 -50t62.5 -128q0 -93 -90.5 -194t-245 -183.5t-333.5 -122.5q-9 -58 -9 -113q0 -109 40.5 -166t117.5 -57q75 0 156.5 59.5t150.5 163.5l66 -43q-177 -292 -438 -292q-139 0 -216 87.5 t-77 245.5zM258 520q198 54 327.5 168t129.5 236q0 86 -72 86q-104 0 -217.5 -148.5t-167.5 -341.5zM479 1556q0 39 31 64t70 25q62 0 118 -68l201 -244h-96l-244 133q-80 44 -80 90z" />
<glyph unicode="&#xe9;" horiz-adv-x="933" d="M29 313q0 110 38 226.5t103.5 216t148 179.5t178.5 125.5t187 45.5q98 0 160.5 -50t62.5 -128q0 -93 -90.5 -194t-245 -183.5t-333.5 -122.5q-9 -58 -9 -113q0 -109 40.5 -166t117.5 -57q75 0 156.5 59.5t150.5 163.5l66 -43q-177 -292 -438 -292q-139 0 -216 87.5 t-77 245.5zM258 520q198 54 327.5 168t129.5 236q0 86 -72 86q-104 0 -217.5 -148.5t-167.5 -341.5zM553 1333l266 244q74 68 137 68q36 0 57 -19.5t21 -52.5q0 -58 -104 -107l-281 -133h-96z" />
<glyph unicode="&#xea;" horiz-adv-x="933" d="M29 313q0 110 38 226.5t103.5 216t148 179.5t178.5 125.5t187 45.5q98 0 160.5 -50t62.5 -128q0 -93 -90.5 -194t-245 -183.5t-333.5 -122.5q-9 -58 -9 -113q0 -109 40.5 -166t117.5 -57q75 0 156.5 59.5t150.5 163.5l66 -43q-177 -292 -438 -292q-139 0 -216 87.5 t-77 245.5zM258 520q198 54 327.5 168t129.5 236q0 86 -72 86q-104 0 -217.5 -148.5t-167.5 -341.5zM365 1333l315 264h184l172 -264h-92l-207 140l-280 -140h-92z" />
<glyph unicode="&#xeb;" horiz-adv-x="933" d="M29 313q0 110 38 226.5t103.5 216t148 179.5t178.5 125.5t187 45.5q98 0 160.5 -50t62.5 -128q0 -93 -90.5 -194t-245 -183.5t-333.5 -122.5q-9 -58 -9 -113q0 -109 40.5 -166t117.5 -57q75 0 156.5 59.5t150.5 163.5l66 -43q-177 -292 -438 -292q-139 0 -216 87.5 t-77 245.5zM258 520q198 54 327.5 168t129.5 236q0 86 -72 86q-104 0 -217.5 -148.5t-167.5 -341.5zM444 1419q0 18 5 33q12 51 55 85t94 34q42 0 67 -24.5t25 -63.5q0 -60 -48 -105t-107 -45q-41 0 -66 24t-25 62zM786 1419q0 18 5 33q12 51 55 85t94 34q42 0 67 -24.5 t25 -63.5q0 -60 -48 -105t-107 -45q-41 0 -66 24t-25 62z" />
<glyph unicode="&#xec;" horiz-adv-x="704" d="M55 793q53 104 175.5 208.5t220.5 104.5q53 0 77.5 -31t24.5 -106q0 -17 -2.5 -36t-10 -46t-13.5 -47.5t-20 -61t-22.5 -64t-29 -78.5t-31.5 -85l-76 -207q-43 -125 -43 -160q0 -47 43 -47q28 0 63 25t66 62t53.5 69t36.5 57l62 -35q-27 -54 -67.5 -109t-93.5 -107.5 t-119 -85.5t-130 -33q-61 0 -90 31.5t-29 101.5q0 54 17.5 118.5t58.5 182.5l92 262q54 147 54 207q0 47 -29 47q-38 0 -95.5 -64t-82.5 -110zM283 1556q0 39 30.5 64t69.5 25q63 0 119 -68l200 -244h-96l-244 133q-79 44 -79 90z" />
<glyph unicode="&#xed;" horiz-adv-x="704" d="M55 793q53 104 175.5 208.5t220.5 104.5q53 0 77.5 -31t24.5 -106q0 -17 -2.5 -36t-10 -46t-13.5 -47.5t-20 -61t-22.5 -64t-29 -78.5t-31.5 -85l-76 -207q-43 -125 -43 -160q0 -47 43 -47q28 0 63 25t66 62t53.5 69t36.5 57l62 -35q-27 -54 -67.5 -109t-93.5 -107.5 t-119 -85.5t-130 -33q-61 0 -90 31.5t-29 101.5q0 54 17.5 118.5t58.5 182.5l92 262q54 147 54 207q0 47 -29 47q-38 0 -95.5 -64t-82.5 -110zM356 1333l267 244q74 68 137 68q36 0 57 -19.5t21 -52.5q0 -58 -105 -107l-280 -133h-97z" />
<glyph unicode="&#xee;" horiz-adv-x="704" d="M55 793q53 104 175.5 208.5t220.5 104.5q53 0 77.5 -31t24.5 -106q0 -17 -2.5 -36t-10 -46t-13.5 -47.5t-20 -61t-22.5 -64t-29 -78.5t-31.5 -85l-76 -207q-43 -125 -43 -160q0 -47 43 -47q28 0 63 25t66 62t53.5 69t36.5 57l62 -35q-27 -54 -67.5 -109t-93.5 -107.5 t-119 -85.5t-130 -33q-61 0 -90 31.5t-29 101.5q0 54 17.5 118.5t58.5 182.5l92 262q54 147 54 207q0 47 -29 47q-38 0 -95.5 -64t-82.5 -110zM168 1333l315 264h185l172 -264h-92l-207 140l-281 -140h-92z" />
<glyph unicode="&#xef;" horiz-adv-x="704" d="M55 793q53 104 175.5 208.5t220.5 104.5q53 0 77.5 -31t24.5 -106q0 -17 -2.5 -36t-10 -46t-13.5 -47.5t-20 -61t-22.5 -64t-29 -78.5t-31.5 -85l-76 -207q-43 -125 -43 -160q0 -47 43 -47q28 0 63 25t66 62t53.5 69t36.5 57l62 -35q-27 -54 -67.5 -109t-93.5 -107.5 t-119 -85.5t-130 -33q-61 0 -90 31.5t-29 101.5q0 54 17.5 118.5t58.5 182.5l92 262q54 147 54 207q0 47 -29 47q-38 0 -95.5 -64t-82.5 -110zM248 1419q0 21 4 33q12 51 55 85t94 34q42 0 67.5 -24.5t25.5 -63.5q0 -60 -48.5 -105t-107.5 -45q-41 0 -65.5 23.5t-24.5 62.5z M590 1419q0 21 4 33q12 51 55 85t94 34q42 0 67.5 -24.5t25.5 -63.5q0 -60 -48.5 -105t-107.5 -45q-41 0 -65.5 23.5t-24.5 62.5z" />
<glyph unicode="&#xf0;" horiz-adv-x="1189" d="M43 369q0 126 50 247t130.5 209t185.5 141.5t212 53.5q109 0 177.5 -45t90.5 -131l8 4q-2 163 -33 277t-98 198l-305 -154l-39 78l285 146q-70 67 -246 135l55 69q217 -68 320 -139l305 154l41 -78l-275 -139q209 -180 209 -514q0 -184 -59 -352.5t-155.5 -288 t-223.5 -190t-260 -70.5q-169 0 -272 108t-103 281zM289 311q0 -116 39 -177.5t114 -61.5q61 0 115.5 30t94 80t72 113t52.5 131t30.5 132t10.5 118q0 116 -52.5 180t-148.5 64q-77 0 -142 -63.5t-103.5 -159t-60 -197.5t-21.5 -189z" />
<glyph unicode="&#xf1;" horiz-adv-x="1284" d="M35 694q72 210 161 311t203 101q66 0 93.5 -37t27.5 -125q0 -106 -35 -186l7 -6q104 183 212 268.5t234 85.5q89 0 136.5 -43t47.5 -123q0 -53 -22 -135.5t-86 -267.5q-34 -99 -45.5 -133t-31 -95.5t-26 -91t-6.5 -47.5q0 -31 21 -31q29 0 83.5 47t149.5 152l53 -29 q-66 -121 -192.5 -225t-208.5 -104q-51 0 -81 44.5t-30 118.5q0 56 25 139t137 400q38 109 51 157.5t13 84.5q0 75 -56 75q-63 0 -151 -85t-172 -221t-139 -283l-152 -410h-180l151 469q73 228 101 329t28 140q0 55 -34 55q-46 0 -116 -102.5t-110 -226.5zM434 1352 q17 103 77 168t138 65q64 0 176 -49q103 -45 150 -45q34 0 55.5 20t34.5 66h68q-5 -42 -23 -89t-43 -79q-55 -74 -137 -74q-46 0 -172 51q-126 48 -168 48q-34 0 -53 -18.5t-33 -63.5h-70z" />
<glyph unicode="&#xf2;" horiz-adv-x="1071" d="M49 391q0 131 50.5 261.5t131 230t189 161.5t217.5 62q149 0 243.5 -108t94.5 -285q0 -169 -85.5 -340t-224.5 -282t-282 -111t-238.5 111.5t-95.5 299.5zM264 291q0 -209 131 -209q88 0 179 119.5t147.5 292t56.5 325.5q0 102 -36.5 146.5t-104.5 44.5 q-88 0 -176.5 -116.5t-142.5 -284.5t-54 -318zM461 1556q0 39 30.5 64t69.5 25q63 0 119 -68l201 -244h-97l-243 133q-80 44 -80 90z" />
<glyph unicode="&#xf3;" horiz-adv-x="1071" d="M49 391q0 131 50.5 261.5t131 230t189 161.5t217.5 62q149 0 243.5 -108t94.5 -285q0 -169 -85.5 -340t-224.5 -282t-282 -111t-238.5 111.5t-95.5 299.5zM264 291q0 -209 131 -209q88 0 179 119.5t147.5 292t56.5 325.5q0 102 -36.5 146.5t-104.5 44.5 q-88 0 -176.5 -116.5t-142.5 -284.5t-54 -318zM535 1333l266 244q74 68 137 68q36 0 57 -19.5t21 -52.5q0 -58 -105 -107l-280 -133h-96z" />
<glyph unicode="&#xf4;" horiz-adv-x="1071" d="M49 391q0 131 50.5 261.5t131 230t189 161.5t217.5 62q149 0 243.5 -108t94.5 -285q0 -169 -85.5 -340t-224.5 -282t-282 -111t-238.5 111.5t-95.5 299.5zM264 291q0 -209 131 -209q88 0 179 119.5t147.5 292t56.5 325.5q0 102 -36.5 146.5t-104.5 44.5 q-88 0 -176.5 -116.5t-142.5 -284.5t-54 -318zM403 1333l316 264h184l172 -264h-92l-207 140l-280 -140h-93z" />
<glyph unicode="&#xf5;" horiz-adv-x="1071" d="M49 391q0 131 50.5 261.5t131 230t189 161.5t217.5 62q149 0 243.5 -108t94.5 -285q0 -169 -85.5 -340t-224.5 -282t-282 -111t-238.5 111.5t-95.5 299.5zM264 291q0 -209 131 -209q88 0 179 119.5t147.5 292t56.5 325.5q0 102 -36.5 146.5t-104.5 44.5 q-88 0 -176.5 -116.5t-142.5 -284.5t-54 -318zM369 1352q17 103 77 168t138 65q64 0 176 -49q103 -45 149 -45q34 0 55.5 20t34.5 66h68q-5 -42 -23 -89t-43 -79q-55 -74 -137 -74q-46 0 -172 51q-126 48 -168 48q-34 0 -53 -18.5t-33 -63.5h-69z" />
<glyph unicode="&#xf6;" horiz-adv-x="1071" d="M49 391q0 131 50.5 261.5t131 230t189 161.5t217.5 62q149 0 243.5 -108t94.5 -285q0 -169 -85.5 -340t-224.5 -282t-282 -111t-238.5 111.5t-95.5 299.5zM264 291q0 -209 131 -209q88 0 179 119.5t147.5 292t56.5 325.5q0 102 -36.5 146.5t-104.5 44.5 q-88 0 -176.5 -116.5t-142.5 -284.5t-54 -318zM477 1419q0 21 4 33q12 51 55.5 85t94.5 34q42 0 67 -24.5t25 -63.5q0 -60 -48.5 -105t-107.5 -45q-41 0 -65.5 23.5t-24.5 62.5zM819 1419q0 21 4 33q12 51 55.5 85t94.5 34q42 0 67 -24.5t25 -63.5q0 -60 -48.5 -105 t-107.5 -45q-41 0 -65.5 23.5t-24.5 62.5z" />
<glyph unicode="&#xf7;" horiz-adv-x="1232" d="M147 641v102h959v-102h-959zM498 332q0 57 38.5 96t94.5 39q57 0 96 -39t39 -96q0 -56 -39 -94.5t-96 -38.5q-55 0 -94 38.5t-39 94.5zM498 1049q0 57 38.5 96t94.5 39q57 0 96 -39t39 -96q0 -56 -39 -95t-96 -39q-55 0 -94 39t-39 95z" />
<glyph unicode="&#xf8;" horiz-adv-x="1071" d="M-88 -125l203 256q-66 109 -66 260q0 131 50.5 261.5t131 230t189 161.5t217.5 62q113 0 197 -66l135 172h141l-201 -254q66 -106 66 -245q0 -169 -85.5 -340t-224.5 -282t-282 -111q-112 0 -195 67l-137 -172h-139zM264 319l492 623q-35 68 -119 68q-85 0 -171.5 -110 t-141.5 -270.5t-60 -310.5zM283 166q33 -84 112 -84q85 0 174 113.5t146.5 279.5t62.5 318z" />
<glyph unicode="&#xf9;" horiz-adv-x="1214" d="M43 776q65 126 182 228t213 102q49 0 76 -31t27 -88q0 -46 -21 -120.5t-46 -141t-77 -195.5q-33 -82 -49.5 -127.5t-30.5 -101t-14 -96.5q0 -78 43 -78q44 0 120.5 76.5t158 207t131.5 265.5l151 409h191l-152 -469q-69 -215 -94 -304t-25 -126q0 -53 37 -53q42 0 108 73 t105 165l62 -31q-57 -142 -166 -251t-211 -109q-60 0 -84.5 43t-24.5 131q0 76 15 153l-6 6q-186 -333 -398 -333q-90 0 -131 50t-41 134q0 126 103 385q81 203 107 274t26 101q0 22 -19 22q-26 0 -76 -46.5t-137 -151.5zM504 1556q0 39 30.5 64t69.5 25q63 0 119 -68 l201 -244h-97l-243 133q-80 44 -80 90z" />
<glyph unicode="&#xfa;" horiz-adv-x="1214" d="M43 776q65 126 182 228t213 102q49 0 76 -31t27 -88q0 -46 -21 -120.5t-46 -141t-77 -195.5q-33 -82 -49.5 -127.5t-30.5 -101t-14 -96.5q0 -78 43 -78q44 0 120.5 76.5t158 207t131.5 265.5l151 409h191l-152 -469q-69 -215 -94 -304t-25 -126q0 -53 37 -53q42 0 108 73 t105 165l62 -31q-57 -142 -166 -251t-211 -109q-60 0 -84.5 43t-24.5 131q0 76 15 153l-6 6q-186 -333 -398 -333q-90 0 -131 50t-41 134q0 126 103 385q81 203 107 274t26 101q0 22 -19 22q-26 0 -76 -46.5t-137 -151.5zM578 1333l266 244q74 68 137 68q36 0 57 -19.5 t21 -52.5q0 -58 -105 -107l-280 -133h-96z" />
<glyph unicode="&#xfb;" horiz-adv-x="1214" d="M43 776q65 126 182 228t213 102q49 0 76 -31t27 -88q0 -46 -21 -120.5t-46 -141t-77 -195.5q-33 -82 -49.5 -127.5t-30.5 -101t-14 -96.5q0 -78 43 -78q44 0 120.5 76.5t158 207t131.5 265.5l151 409h191l-152 -469q-69 -215 -94 -304t-25 -126q0 -53 37 -53q42 0 108 73 t105 165l62 -31q-57 -142 -166 -251t-211 -109q-60 0 -84.5 43t-24.5 131q0 76 15 153l-6 6q-186 -333 -398 -333q-90 0 -131 50t-41 134q0 126 103 385q81 203 107 274t26 101q0 22 -19 22q-26 0 -76 -46.5t-137 -151.5zM389 1333l316 264h184l172 -264h-92l-207 140 l-281 -140h-92z" />
<glyph unicode="&#xfc;" horiz-adv-x="1214" d="M43 776q65 126 182 228t213 102q49 0 76 -31t27 -88q0 -46 -21 -120.5t-46 -141t-77 -195.5q-33 -82 -49.5 -127.5t-30.5 -101t-14 -96.5q0 -78 43 -78q44 0 120.5 76.5t158 207t131.5 265.5l151 409h191l-152 -469q-69 -215 -94 -304t-25 -126q0 -53 37 -53q42 0 108 73 t105 165l62 -31q-57 -142 -166 -251t-211 -109q-60 0 -84.5 43t-24.5 131q0 76 15 153l-6 6q-186 -333 -398 -333q-90 0 -131 50t-41 134q0 126 103 385q81 203 107 274t26 101q0 22 -19 22q-26 0 -76 -46.5t-137 -151.5zM469 1419q0 21 4 33q12 51 55.5 85t94.5 34 q42 0 67 -24.5t25 -63.5q0 -60 -48.5 -105t-107.5 -45q-41 0 -65.5 23.5t-24.5 62.5zM811 1419q0 21 4 33q12 51 55.5 85t94.5 34q42 0 67 -24.5t25 -63.5q0 -60 -48.5 -105t-107.5 -45q-41 0 -65.5 23.5t-24.5 62.5z" />
<glyph unicode="&#xfd;" horiz-adv-x="1054" d="M-227 -371q0 51 29 83t75 32q37 0 60.5 -24t32 -53t25 -53t42.5 -24q49 0 134 71t162 174t107 188l-110 575q-31 161 -64.5 229t-72.5 68q-74 0 -136 -244l-75 21q43 191 127.5 312.5t175.5 121.5q39 0 66.5 -30t56.5 -105q51 -134 112 -420l70 -330h8q88 112 156.5 256 t68.5 258q0 29 -7 117.5t-7 110.5q0 69 34.5 106t80.5 37q50 0 76 -43t26 -107q0 -164 -162 -493t-370 -598q-307 -397 -535 -397q-83 0 -134.5 46t-51.5 115zM463 1333l266 244q74 68 137 68q36 0 57 -19.5t21 -52.5q0 -58 -104 -107l-281 -133h-96z" />
<glyph unicode="&#xfe;" horiz-adv-x="1105" d="M-313 -512l12 82q87 0 126 20t54 74l527 1751q30 105 30 131q0 72 -155 72l16 61l393 19l-260 -789l6 -4q60 94 149 146.5t189 52.5q123 0 191.5 -78t68.5 -213q0 -142 -63 -293.5t-161 -269.5t-225.5 -194t-248.5 -76q-96 0 -150 71l-6 -2l-76 -297q-16 -66 -16 -88 q0 -51 42.5 -71.5t148.5 -22.5l-13 -82h-579zM264 252q0 -168 105 -168q69 0 152 74t150.5 183.5t113.5 243t46 244.5q0 70 -32.5 118t-79.5 48q-67 0 -148.5 -74.5t-148.5 -183.5t-112.5 -242.5t-45.5 -242.5z" />
<glyph unicode="&#xff;" horiz-adv-x="1054" d="M-227 -371q0 51 29 83t75 32q37 0 60.5 -24t32 -53t25 -53t42.5 -24q49 0 134 71t162 174t107 188l-110 575q-31 161 -64.5 229t-72.5 68q-74 0 -136 -244l-75 21q43 191 127.5 312.5t175.5 121.5q39 0 66.5 -30t56.5 -105q51 -134 112 -420l70 -330h8q88 112 156.5 256 t68.5 258q0 29 -7 117.5t-7 110.5q0 69 34.5 106t80.5 37q50 0 76 -43t26 -107q0 -164 -162 -493t-370 -598q-307 -397 -535 -397q-83 0 -134.5 46t-51.5 115zM360 1419q0 18 5 33q12 51 55 85t94 34q42 0 67 -24.5t25 -63.5q0 -60 -48 -105t-107 -45q-41 0 -66 24t-25 62z M702 1419q0 18 5 33q12 51 55 85t94 34q42 0 67 -24.5t25 -63.5q0 -60 -48 -105t-107 -45q-41 0 -66 24t-25 62z" />
<glyph unicode="&#x152;" horiz-adv-x="2371" d="M139 612q0 153 59.5 301t163 266t236.5 208.5t289 140t311 49.5h1104v-414h-78q-28 104 -59.5 165.5t-81 98.5t-111.5 49.5t-162 12.5h-165q-17 0 -28 -10t-11 -25l-140 -580q81 0 132 5t94.5 18.5t72.5 41t53 67.5t48 104h78l-123 -604h-82q4 86 4 112q0 74 -23 109 t-83.5 50t-188.5 16l-113 -471q-10 -44 -10 -91q1 -80 70 -111.5t229 -31.5q143 0 239.5 37t159 109t119.5 198h96l-159 -432h-1258q-153 0 -281.5 46.5t-216 127.5t-136 194t-48.5 244zM393 539q0 -213 121 -333t336 -120q76 0 117.5 7t72 34t45.5 66.5t33 117.5l228 955 q16 94 16 114q0 67 -41 91t-143 24q-272 0 -475 -194.5t-279 -530.5q-31 -133 -31 -231z" />
<glyph unicode="&#x153;" horiz-adv-x="1622" d="M49 391q0 131 50.5 261.5t131 230t189 161.5t217.5 62t191.5 -62t119.5 -170q96 107 206.5 169.5t217.5 62.5q98 0 160.5 -50t62.5 -128q0 -93 -90.5 -194t-245 -183.5t-333.5 -122.5q-8 -52 -8 -113q0 -109 40 -166t117 -57q75 0 156.5 59.5t150.5 163.5l66 -43 q-177 -292 -438 -292q-101 0 -170.5 46t-100.5 134q-79 -84 -171 -132t-185 -48q-143 0 -238.5 111.5t-95.5 299.5zM264 291q0 -209 131 -209q88 0 179 119.5t147.5 292t56.5 325.5q0 102 -36.5 146.5t-104.5 44.5q-88 0 -176.5 -116.5t-142.5 -284.5t-54 -318zM946 520 q198 54 327.5 168t129.5 236q0 86 -72 86q-103 0 -214 -142t-167 -331z" />
<glyph unicode="&#x178;" horiz-adv-x="1411" d="M184 1495l23 82h575l-22 -82q-78 0 -112 -16.5t-34 -55.5q0 -32 17 -73l219 -529l285 416q37 54 50 74.5t23.5 46t10.5 49.5q0 42 -40.5 65t-111.5 23l23 82h505l-22 -82q-43 0 -69.5 -5.5t-54 -27t-48.5 -48.5t-62 -85l-438 -616l-96 -369q-25 -92 -25 -143 q0 -67 47.5 -93t159.5 -26l-24 -82h-695l23 82q70 0 114 9t80 36t59.5 73.5t43.5 123.5l94 364l-246 590q-32 77 -54.5 117.5t-52.5 64.5t-60 29.5t-85 5.5zM723 1833q0 21 4 31q10 43 48 72.5t81 29.5q36 0 59 -21.5t23 -54.5q0 -53 -43 -92t-94 -39q-35 0 -56.5 20.5 t-21.5 53.5zM1096 1833q0 21 4 31q10 43 48.5 72.5t82.5 29.5q35 0 57.5 -21.5t22.5 -54.5q0 -52 -43 -91.5t-92 -39.5q-36 0 -58 20.5t-22 53.5z" />
<glyph unicode="&#x2c6;" horiz-adv-x="753" d="M4 1333l315 264h185l172 -264h-92l-207 140l-281 -140h-92z" />
<glyph unicode="&#x2dc;" horiz-adv-x="780" d="M41 1352q17 103 77 168t138 65q64 0 176 -49q103 -45 150 -45q34 0 55.5 20t34.5 66h67q-11 -97 -65 -168q-55 -74 -137 -74q-46 0 -172 51q-126 48 -168 48q-34 0 -53 -18.5t-33 -63.5h-70z" />
<glyph unicode="&#x2000;" horiz-adv-x="983" />
<glyph unicode="&#x2001;" horiz-adv-x="1966" />
<glyph unicode="&#x2002;" horiz-adv-x="983" />
<glyph unicode="&#x2003;" horiz-adv-x="1966" />
<glyph unicode="&#x2004;" horiz-adv-x="655" />
<glyph unicode="&#x2005;" horiz-adv-x="491" />
<glyph unicode="&#x2006;" horiz-adv-x="327" />
<glyph unicode="&#x2007;" horiz-adv-x="327" />
<glyph unicode="&#x2008;" horiz-adv-x="245" />
<glyph unicode="&#x2009;" horiz-adv-x="393" />
<glyph unicode="&#x200a;" horiz-adv-x="109" />
<glyph unicode="&#x2010;" horiz-adv-x="952" d="M123 508l47 170h633l-47 -170h-633z" />
<glyph unicode="&#x2011;" horiz-adv-x="952" d="M123 508l47 170h633l-47 -170h-633z" />
<glyph unicode="&#x2012;" horiz-adv-x="952" d="M123 508l47 170h633l-47 -170h-633z" />
<glyph unicode="&#x2013;" horiz-adv-x="1486" d="M123 508l47 170h1167l-47 -170h-1167z" />
<glyph unicode="&#x2014;" horiz-adv-x="2281" d="M123 508l47 170h1962l-47 -170h-1962z" />
<glyph unicode="&#x2018;" horiz-adv-x="514" d="M279 1253q0 129 80.5 228t273.5 219l33 -55q-112 -70 -170 -135t-80 -144q29 16 65 16q38 0 60 -21.5t22 -57.5q0 -66 -53.5 -112t-124.5 -46q-106 0 -106 108z" />
<glyph unicode="&#x2019;" horiz-adv-x="509" d="M264 1200q112 70 170 135t80 144q-31 -17 -65 -17q-39 0 -60.5 21.5t-21.5 58.5q0 66 53.5 112t124.5 46q106 0 106 -109q0 -131 -80 -229.5t-274 -216.5z" />
<glyph unicode="&#x201a;" horiz-adv-x="532" d="M-119 -283q112 70 170 135t80 144q-29 -16 -65 -16q-39 0 -60.5 21t-21.5 58q0 66 53.5 112t124.5 46q106 0 106 -108q0 -131 -80.5 -230t-273.5 -217z" />
<glyph unicode="&#x201c;" horiz-adv-x="907" d="M279 1253q0 129 80.5 228t273.5 219l33 -55q-112 -70 -170 -135t-80 -144q29 16 65 16q38 0 60 -21.5t22 -57.5q0 -66 -53.5 -112t-124.5 -46q-106 0 -106 108zM672 1253q0 129 80.5 228t273.5 219l33 -55q-112 -70 -170 -135t-80 -144q29 16 65 16q38 0 60 -21.5 t22 -57.5q0 -66 -53.5 -112t-124.5 -46q-106 0 -106 108z" />
<glyph unicode="&#x201d;" horiz-adv-x="903" d="M264 1200q112 70 170 135t80 144q-31 -17 -65 -17q-39 0 -60.5 21.5t-21.5 58.5q0 66 53.5 112t124.5 46q106 0 106 -109q0 -131 -80 -229.5t-274 -216.5zM657 1200q112 70 170 135t80 144q-31 -17 -65 -17q-39 0 -60.5 21.5t-21.5 58.5q0 66 53.5 112t124.5 46 q106 0 106 -109q0 -131 -80 -229.5t-274 -216.5z" />
<glyph unicode="&#x201e;" horiz-adv-x="925" d="M-119 -283q112 70 170 135t80 144q-29 -16 -65 -16q-39 0 -60.5 21t-21.5 58q0 66 53.5 112t124.5 46q106 0 106 -108q0 -131 -80.5 -230t-273.5 -217zM274 -283q112 70 170 135t80 144q-29 -16 -65 -16q-39 0 -60.5 21t-21.5 58q0 66 53.5 112t124.5 46q107 0 107 -108 q0 -131 -80.5 -230t-274.5 -217z" />
<glyph unicode="&#x2022;" horiz-adv-x="993" d="M203 756q0 130 94 220.5t225 90.5q127 0 219.5 -91t92.5 -220q0 -130 -94 -222t-228 -92q-124 0 -216.5 92.5t-92.5 221.5z" />
<glyph unicode="&#x2026;" horiz-adv-x="1478" d="M-2 119q0 62 40.5 104.5t100.5 42.5q62 0 104 -43t42 -102q0 -60 -43 -100.5t-103 -40.5q-58 0 -99.5 39.5t-41.5 99.5zM469 119q0 62 40.5 104.5t100.5 42.5q62 0 104 -43t42 -102q0 -60 -43 -100.5t-103 -40.5q-58 0 -99.5 39.5t-41.5 99.5zM940 119q0 62 40.5 104.5 t100.5 42.5q62 0 104 -43t42 -102q0 -60 -43 -100.5t-103 -40.5q-58 0 -99.5 39.5t-41.5 99.5z" />
<glyph unicode="&#x202f;" horiz-adv-x="393" />
<glyph unicode="&#x2039;" horiz-adv-x="628" d="M59 537l437 325l28 -43l-278 -282l125 -283l-49 -41z" />
<glyph unicode="&#x203a;" horiz-adv-x="628" d="M49 254l277 283l-127 282l53 43l260 -325l-434 -324z" />
<glyph unicode="&#x205f;" horiz-adv-x="491" />
<glyph unicode="&#x20ac;" horiz-adv-x="1458" d="M88 614l29 107h164q15 82 51 172h-170l24 106h185q122 274 329 436t437 162q155 0 249.5 -77t94.5 -203q0 -92 -53.5 -147.5t-141.5 -55.5q-62 0 -84 43q49 13 81 63t32 113q0 76 -49 118t-138 42q-153 0 -280 -125.5t-221 -368.5h473l-27 -106h-479q-32 -90 -49 -172 h481l-29 -107h-477q-33 -125 -33 -219q0 -146 70 -226.5t197 -80.5q131 0 229 75t98 179q0 79 -53 109q65 49 123 49q53 0 82 -38t29 -108q0 -99 -78 -186t-204.5 -137.5t-266.5 -50.5q-219 0 -339 132t-120 373q0 59 8 129h-174z" />
<glyph unicode="&#x2122;" horiz-adv-x="1923" d="M365 1421v156h618l8 -156h-43q-6 64 -32 87.5t-89 23.5q-58 0 -75 -5.5t-17 -21.5v-418q0 -56 20 -76.5t87 -23.5v-41h-330v41q66 3 86 24t20 76v418q0 16 -15 21.5t-66 5.5q-32 0 -51 -3t-39 -13.5t-30 -33.5t-11 -61h-41zM1032 946v41q59 2 74.5 22.5t15.5 96.5v311 q0 71 -14.5 93.5t-67.5 25.5v41h217l193 -463h8l201 463h205v-41q-53 -1 -67.5 -24.5t-14.5 -100.5v-299q0 -81 15.5 -102t74.5 -23v-41h-277v41q60 1 75.5 21.5t15.5 97.5v369h-9l-239 -537h-17l-231 537h-8v-363q0 -81 15.5 -102t74.5 -23v-41h-240z" />
<glyph unicode="&#x25fc;" horiz-adv-x="1105" d="M0 0v1106h1106v-1106h-1106z" />
</font>
</defs>
</svg>
