<?xml  version="1.0" encoding="UTF-8"?>
<!DOCTYPE svg PUBLIC "-//W3C//DTD SVG 1.0//EN" "http://www.w3.org/TR/2001/REC-SVG-20010904/DTD/svg10.dtd" >
<svg xmlns="http://www.w3.org/2000/svg" >
<metadata>
<version>1.0</version>
<id><![CDATA[Neo Sans W01]]></id>
<vendor>Monotype Imaging Inc.</vendor>
<credits>
<name>Fonts.com WebFonts</name>
<URL>http://webfonts.fonts.com</URL>
<role>Home of the Web fonts</role>
</credits>
<license>
<URL>http://webfonts.fonts.com/Legal</URL>
</license>
<copyright><![CDATA[Copyright 2004 Monotype Imaging Inc. All Rights Reserved. Neo Sans is designed by Sebastian Lester.]]></copyright>
<trademark><![CDATA[Neo Sans is a trademark of Monotype Imaging Inc. and may be registered in certain jurisdictions.]]></trademark>
<licensee>
<name></name>
</licensee>
</metadata>
<defs >
<font horiz-adv-x="514" id="1287ca7a-3ce7-40b7-9612-061d4c793f04">
<font-face font-family="" panose-1="2 11 5 4 3 5 4 4 2 4" ascent="980" descent="-216" units-per-em="1000" alphabetic="0">
</font-face>
<missing-glyph horiz-adv-x="0" />

<glyph unicode="&#xA;" />
<glyph unicode="&#xD;" horiz-adv-x="0" />
<glyph unicode=" " horiz-adv-x="247" />
<glyph unicode="!" horiz-adv-x="217" d="M146 213Q146 205 141 200T127 194H91Q83 194 77 199T71 213L64 733Q64 741 70 746T84 752H134Q142 752 148 747T154 733L146 213ZM152 19Q152 0 133 0H85Q77 0 72 5T66 19V113Q66 121 71 126T85 132H133Q141 132 146 127T152 113V19Z"  />
<glyph unicode="&quot;" horiz-adv-x="362" d="M333 741Q333 736 332 733L274 544Q269 525 255 525H208Q199 525 199 535Q199 541 200 544L246 733Q250 752 266 752H322Q333 752 333 741ZM163 741Q163 736 162 733L104 544Q99 525 85 525H38Q29 525 29 535Q29 541 30 544L76 733Q80 752 96 752H152Q163 752 163 741Z"  />
<glyph unicode="#" horiz-adv-x="660" d="M610 510L608 488Q606 469 588 469H491L473 267H571Q579 267 583 262T587 248V246L585 225Q583 206 565 206H467L451 19Q450 11 446 6T433 0H389Q381 0 377 5T373 17V19L389 206H234L218 19Q217 11 213 6T200 0H155Q148 0 144 5T139 17V19L155 206H62Q54 206 50 211T46 225V227L48 248Q50 267 68 267H161L179 469H85Q77 469 73 474T69 488V490L71 512Q73 531 91 531H184L201 724Q202 732 207 737T220 743H265Q272 743 276 738T280 726V724L263 531H418L435 724Q436 732 441 737T454 743H498Q506 743 509 738T513 726V724L496 531H594Q602 531 606 526T610 512V510ZM258 469L240 267H395L413 469H258Z"  />
<glyph unicode="$" horiz-adv-x="605" d="M528 193Q528 161 520 130T491 71T435 24T345 -3V-97Q345 -105 339 -111T325 -117H278Q270 -117 264 -111T258 -97V-7Q213 -6 179 -2T115 7Q102 9 99 13T96 25V66Q96 74 101 78T113 82H116Q133 80 154 79T198 76T242 74T281 73Q326 73 355 82T402 107T426 145T433 193Q433 212 427 227T407 258T370 289T313 327L216 386Q147 428 113 470T78 573Q78 651 124 693T258 747V833Q258 841 264 847T278 853H325Q333 853 339 847T345 833V750Q386 748 426 745T491 737Q508 734 508 720V677Q508 661 491 661H489Q456 663 409 666T317 670Q239 670 205 649T170 573Q170 538 196 512T279 452L371 397Q414 371 444 347T493 299T520 249T528 193Z"  />
<glyph unicode="%" horiz-adv-x="794" d="M749 155Q749 73 714 33T615 -7Q552 -7 516 33T480 155V248Q480 331 516 370T615 410Q678 410 713 371T749 248V155ZM650 737Q650 734 645 724L227 16Q221 5 217 1T205 -4H156Q146 -4 146 4Q146 11 150 16L568 724Q575 735 579 739T591 743H642Q650 743 650 737ZM314 496Q314 414 279 374T180 334Q117 334 81 374T45 496V589Q45 672 81 711T180 750Q243 750 278 711T314 589V496ZM687 248Q687 305 668 329T615 353Q581 353 562 329T542 248V155Q542 98 561 74T615 50Q649 50 668 74T687 155V248ZM252 589Q252 646 233 670T180 694Q146 694 127 670T107 589V496Q107 439 126 415T180 391Q214 391 233 415T252 496V589Z"  />
<glyph unicode="&amp;" horiz-adv-x="678" d="M641 11Q641 6 638 3T630 0H561Q554 0 551 2T545 7L495 61Q458 29 409 11T298 -7Q252 -7 208 2T130 33T74 90T53 176V184Q53 215 61 240T87 289T132 335T197 381L190 389Q155 429 134 458T103 510T89 549T86 583V591Q86 671 142 710T296 750Q338 750 374 740T437 710T479 661T495 591V583Q495 558 489 536T466 491T419 443T342 385L314 366L495 171Q515 207 524 252T534 347V361Q534 377 550 377H593Q610 377 610 361V347Q610 281 595 223T547 117L636 22Q641 17 641 11ZM412 591Q412 641 380 662T296 683Q239 683 204 663T168 591V583Q168 570 170 557T180 528T206 489T253 433L263 422L297 443Q333 465 355 482T390 514T407 546T412 583V591ZM248 326Q218 307 198 291T167 259T150 225T145 184V176Q145 146 157 124T191 89T240 69T298 62Q346 62 383 76T447 113L248 326Z"  />
<glyph unicode="&apos;" horiz-adv-x="192" d="M163 741Q163 736 162 733L104 544Q99 525 85 525H38Q29 525 29 535Q29 541 30 544L76 733Q80 752 96 752H152Q163 752 163 741Z"  />
<glyph unicode="(" horiz-adv-x="305" d="M280 -201Q280 -209 270 -209H223Q215 -209 211 -208T200 -198Q167 -158 141 -105T97 8T70 133T60 265V278Q60 344 69 409T97 535T141 647T200 741Q206 749 210 750T223 752H270Q280 752 280 744Q280 738 277 734Q213 640 181 525T148 278V265Q148 133 180 18T277 -191Q280 -196 280 -201Z"  />
<glyph unicode=")" horiz-adv-x="305" d="M259 265Q259 199 250 134T222 8T178 -105T119 -198Q113 -206 109 -207T96 -209H49Q39 -209 39 -201Q39 -196 42 -191Q106 -97 138 18T171 265V278Q171 410 139 525T42 734Q39 738 39 744Q39 752 49 752H96Q104 752 108 751T119 741Q152 700 178 648T222 535T249 410T259 278V265H259Z"  />
<glyph unicode="*" horiz-adv-x="465" d="M419 598Q419 588 405 583L280 544L357 438Q362 431 362 425Q362 418 356 414L332 396Q327 393 324 393Q316 393 309 403L233 509L157 403Q150 393 142 393Q138 393 134 396L109 414Q103 418 103 425Q103 431 108 438L186 544L62 583Q56 585 52 589T47 598Q47 600 47 600T48 603L57 632Q60 642 70 642Q73 642 79 640L203 599V730Q203 749 218 749H248Q263 749 263 730L262 599L387 640Q393 642 396 642Q406 642 409 632L418 603Q419 601 419 598Z"  />
<glyph unicode="+" horiz-adv-x="605" d="M530 371Q530 363 524 359T510 355H338V184Q338 176 334 170T322 164H282Q274 164 270 170T266 184V355H95Q87 355 81 359T75 371V411Q75 419 81 423T95 427H266V599Q266 607 270 613T282 619H322Q330 619 334 613T338 599V427H510Q518 427 524 423T530 411V371H530Z"  />
<glyph unicode="&#x2c;" horiz-adv-x="214" d="M169 118Q169 116 167 110L92 -79Q88 -89 85 -93T73 -98H32Q20 -98 20 -86Q20 -81 21 -79L78 110Q84 129 98 129H156Q169 129 169 118Z"  />
<glyph unicode="-" horiz-adv-x="333" d="M285 273Q285 256 266 256H67Q48 256 48 273V312Q48 320 53 325T67 330H266Q285 330 285 312V273H285Z"  />
<glyph unicode="." horiz-adv-x="214" d="M150 21Q150 13 145 7T131 1H83Q75 1 70 7T64 21V114Q64 122 69 127T83 133H131Q139 133 144 128T150 114V21H150Z"  />
<glyph unicode="/" horiz-adv-x="355" d="M333 729Q333 725 332 723L106 20Q104 12 100 6T88 0H37Q30 0 27 4T23 14Q23 18 24 20L251 723Q253 731 256 737T268 743H319Q326 743 329 739T333 729Z"  />
<glyph unicode="0" horiz-adv-x="605" d="M548 304Q548 221 531 162T482 66T405 11T303 -7Q246 -7 201 10T123 65T74 162T57 304V439Q57 522 74 581T123 677T200 732T303 750Q360 750 405 733T482 678T531 581T548 439V304ZM457 439Q457 502 446 546T415 619T367 660T303 673Q268 673 240 660T191 619T160 547T149 439V304Q149 241 160 197T191 124T239 83T303 70Q338 70 366 83T415 124T446 196T457 304V439Z"  />
<glyph unicode="1" horiz-adv-x="605" d="M90 0Q82 0 76 5T70 18V62Q70 70 76 74T90 79H249V649L92 583Q86 581 78 581T70 591V642Q70 647 72 649T80 655L259 737Q271 743 280 743H321Q329 743 334 738T340 724V79H500Q508 79 514 75T520 62V18Q520 10 514 5T500 0H90Z"  />
<glyph unicode="2" horiz-adv-x="605" d="M526 571Q526 512 496 469T396 378L300 313Q258 285 231 261T189 211T167 160T160 100V79H497Q505 79 511 75T517 62V18Q517 10 511 5T497 0H100Q92 0 86 5T80 19V100Q80 178 115 243T233 363L334 431Q365 452 385 468T416 499T432 531T437 571Q437 625 403 649T287 674Q248 674 200 670T110 659H106Q90 659 90 677V712Q90 720 95 724T109 730Q147 740 194 745T287 750Q409 750 467 707T526 571Z"  />
<glyph unicode="3" horiz-adv-x="605" d="M521 207Q521 151 503 111T451 44T373 6T272 -7Q224 -7 182 -1T103 13Q95 15 90 19T84 32V66Q84 83 101 83H104Q149 77 193 73T272 69Q354 69 391 102T428 207V228Q428 248 423 269T404 309T368 338T311 350H129Q110 350 110 368V403Q110 422 129 422H311Q347 422 370 433T405 461T423 500T428 541V555Q428 617 393 645T272 674Q228 674 191 670T104 659H101Q84 659 84 676V711Q84 718 89 723T103 730Q139 738 181 744T272 750Q328 750 374 741T452 708T503 648T521 555V541Q521 490 497 449T426 385Q453 372 471 354T500 315T516 272T521 228V207H521Z"  />
<glyph unicode="4" horiz-adv-x="605" d="M567 216Q567 198 548 198H461V20Q461 12 457 6T444 0H386Q378 0 374 6T369 20V198H80Q57 198 48 206T39 237V275Q39 296 51 312L347 727Q351 733 357 738T376 743H435Q461 743 461 721V274H548Q556 274 561 269T567 256V216ZM370 616Q370 622 366 622H365Q361 622 357 616L126 288Q123 283 123 280Q123 274 131 274H370V616Z"  />
<glyph unicode="5" horiz-adv-x="605" d="M528 226Q528 114 462 54T273 -7Q224 -7 180 -3T97 11Q89 13 84 17T78 31V68Q78 83 93 83H98Q146 75 190 72T273 69Q358 69 397 109T436 226V241Q436 316 387 345T227 375H107Q100 375 96 380T91 392V393L119 726Q120 734 125 738T139 743H483Q491 743 497 739T503 726V682Q503 674 497 670T483 666H196L180 450H227Q297 450 352 440T447 406T507 341T528 241V226H528Z"  />
<glyph unicode="6" horiz-adv-x="605" d="M546 246Q546 127 486 60T302 -7Q190 -7 125 61T60 277V452Q60 532 76 588T126 681T208 733T321 750Q381 750 421 745T493 733Q502 731 509 727T516 714V675Q516 666 511 662T498 657Q496 657 495 657T492 658Q454 666 412 670T321 674Q263 674 229 658T178 612T155 542T150 452V441Q181 448 217 454T301 461Q350 461 394 451T472 417T526 353T546 252V246ZM456 252Q456 292 443 319T408 361T359 383T301 390Q283 390 262 389T221 385T182 379T150 372V277Q150 216 160 176T189 111T237 77T302 67Q337 67 365 76T414 106T445 161T456 246V252Z"  />
<glyph unicode="7" horiz-adv-x="605" d="M533 680Q533 656 520 628L232 15Q224 0 210 0H150Q142 0 139 4T135 15Q135 20 138 26L440 654Q441 655 441 658Q441 665 434 665H93Q85 665 79 669T73 682V724Q73 732 79 737T93 743H458Q500 743 516 725T533 680Z"  />
<glyph unicode="8" horiz-adv-x="605" d="M551 207Q551 152 532 112T479 46T402 6T308 -7H298Q248 -7 204 6T127 45T75 112T55 207V226Q55 249 61 272T80 316T110 356T152 388Q104 412 81 453T57 544V553Q57 605 75 642T126 703T202 738T298 750H308Q359 750 403 739T480 703T530 642T549 553V544Q549 494 526 453T454 388Q478 375 496 357T526 317T544 272T551 226V207ZM461 553Q461 613 422 644T308 676H298Q223 676 184 645T145 553V544Q145 521 152 499T174 461T213 434T272 424H334Q368 424 392 434T432 460T454 499T461 544V553ZM460 226Q460 247 453 269T431 310T392 340T334 352H272Q237 352 213 341T174 311T153 270T146 226V207Q146 142 184 106T298 69H308Q383 69 421 105T460 207V226Z"  />
<glyph unicode="9" horiz-adv-x="605" d="M537 291Q537 211 521 155T471 62T389 10T276 -7Q216 -7 176 -2T104 10Q94 12 87 16T80 29V68Q80 77 85 81T98 86Q100 86 101 86T104 85Q142 77 184 73T275 69Q333 69 367 85T419 131T442 201T447 291V302Q415 295 379 289T296 282Q247 282 203 292T124 326T70 390T50 491V497Q50 616 110 683T294 750Q350 750 395 733T471 682T520 593T537 466V291ZM447 466Q447 527 437 567T408 632T360 666T295 676Q260 676 231 667T182 637T151 582T140 497V491Q140 450 153 424T188 382T237 360T295 353Q313 353 334 354T375 358T414 364T446 371L447 466Z"  />
<glyph unicode=":" horiz-adv-x="219" d="M153 437Q153 429 147 424T133 418H86Q78 418 72 423T66 437V530Q66 538 72 544T86 550H133Q141 550 147 544T153 530V437ZM153 19Q153 11 147 6T133 0H86Q78 0 72 5T66 19V113Q66 121 72 126T86 132H133Q141 132 147 127T153 113V19Z"  />
<glyph unicode=";" horiz-adv-x="219" d="M153 437Q153 418 134 418H85Q77 418 72 423T66 437V530Q66 538 71 544T85 550H134Q142 550 147 544T153 530V437ZM157 117Q157 115 155 109L80 -80Q76 -90 73 -95T61 -100H21Q9 -100 9 -87Q9 -82 10 -80L67 109Q73 128 87 128H144Q157 128 157 117Z"  />
<glyph unicode="&lt;" horiz-adv-x="605" d="M482 150Q482 140 470 140H412Q404 140 397 142T381 153L140 357Q122 372 122 391Q122 410 140 425L381 629Q390 637 397 639T412 642H470Q482 642 482 632Q482 624 472 615L210 391L472 167Q482 158 482 150Z"  />
<glyph unicode="=" horiz-adv-x="605" d="M515 482Q515 474 509 470T495 466H110Q102 466 96 470T90 482V522Q90 530 96 534T110 538H495Q503 538 509 534T515 522V482ZM515 261Q515 253 509 249T495 245H110Q102 245 96 249T90 261V301Q90 309 96 313T110 317H495Q503 317 509 313T515 301V261Z"  />
<glyph unicode="&gt;" horiz-adv-x="605" d="M483 391Q483 372 465 357L224 153Q208 140 193 140H135Q123 140 123 150Q123 158 133 167L395 391L133 615Q123 624 123 632Q123 642 135 642H193Q201 642 208 640T224 629L465 425Q483 410 483 391Z"  />
<glyph unicode="?" horiz-adv-x="446" d="M386 587Q386 569 383 552T369 516T341 472T295 416L250 365Q236 349 226 337T210 314T200 291T197 262V213Q197 205 191 200T177 194H133Q125 194 120 199T114 213V262Q114 286 117 304T127 340T147 374T180 413L226 464Q245 485 257 501T276 531T285 558T288 587V599Q288 639 263 655T186 671Q150 671 118 669T51 662H48Q33 662 33 679V714Q33 723 35 729T50 737Q81 743 116 746T186 750Q229 750 265 743T329 718T371 671T386 599V587ZM198 19Q198 0 179 0H131Q123 0 117 5T111 19V112Q111 120 117 126T131 132H179Q187 132 192 126T198 112V19Z"  />
<glyph unicode="@" horiz-adv-x="767" d="M728 366Q728 272 704 213T634 118Q587 83 520 69T364 54Q289 54 246 90T203 193Q203 198 203 202T204 211L215 328Q223 405 269 446T397 487Q429 487 462 483T525 472Q535 470 540 466T546 451V447L516 134Q563 141 591 160T636 210T657 279T662 366Q662 413 647 455T601 529T524 579T416 598Q350 598 298 580T209 528T150 448T122 344L107 192Q106 184 106 176T105 160Q105 115 120 76T167 9T245 -36T357 -53Q393 -53 429 -51T501 -46H502Q508 -46 510 -50Q511 -52 511 -53V-85Q511 -93 507 -95T495 -99Q475 -101 438 -104T356 -107Q284 -107 226 -88T127 -33T63 51T41 161Q41 169 41 176T42 192L57 348Q63 416 90 472T164 570T274 633T419 656Q496 656 554 632T650 567T708 474T728 366ZM457 409Q441 411 424 413T389 415Q344 415 324 393T298 326L287 212Q286 207 286 203T286 195Q286 160 305 143T368 126H389Q400 126 410 126T432 128L457 409Z"  />
<glyph unicode="A" horiz-adv-x="633" d="M604 16Q604 0 587 0H528Q521 0 517 4T511 15L446 245H187L123 15Q121 9 116 5T105 0H46Q29 0 29 16Q29 21 30 23L215 674Q221 697 232 711T258 734T287 746T317 750Q331 750 346 747T375 736T400 713T418 675L603 23Q604 21 604 16ZM336 653Q331 671 317 671Q302 671 297 653L206 324H427L336 653Z"  />
<glyph unicode="B" horiz-adv-x="616" d="M566 205Q566 142 543 101T479 36T385 3T274 -7Q224 -7 182 -5T111 2Q94 4 86 12T78 39V705Q78 739 110 742Q135 745 177 747T269 750Q329 750 382 741T475 710T538 651T562 557V541Q562 485 534 445T455 384Q507 366 536 323T566 222V205ZM471 557Q471 593 457 615T416 651T352 668T269 673Q243 673 217 672T170 670V422H324Q367 422 395 431T441 457T464 495T471 541V557ZM475 222Q475 247 468 270T444 310T397 338T324 349H170V74Q195 73 221 72T274 70Q320 70 357 76T421 97T461 138T475 205V222Z"  />
<glyph unicode="C" horiz-adv-x="545" d="M510 26Q510 17 504 13T490 6Q474 3 458 1T423 -3T380 -6T324 -7Q278 -7 231 7T146 56T84 151T60 302V441Q60 533 84 592T146 687T231 736T324 750Q372 750 415 745T492 734Q508 732 508 721V670Q508 665 506 662T496 659H493Q479 660 460 661T418 664T371 667T325 668Q288 668 257 657T202 619T165 549T151 441V302Q151 239 164 196T201 126T256 87T325 75Q346 75 369 76T415 78T457 80T490 83H494Q510 83 510 67V26H510Z"  />
<glyph unicode="D" horiz-adv-x="641" d="M584 304Q584 224 563 165T502 68T406 12T281 -7Q252 -7 225 -6T173 -4T129 -1T99 3Q78 6 78 28V715Q78 737 99 740Q110 742 129 743T172 746T224 749T281 750Q350 750 406 732T501 676T562 579T584 439V304ZM493 439Q493 507 477 552T432 623T365 661T281 672Q246 672 221 672T170 669V73Q194 71 220 71T281 71Q326 71 364 82T431 120T476 191T493 304V439Z"  />
<glyph unicode="E" horiz-adv-x="551" d="M496 12Q496 7 494 3T486 -2Q472 -4 448 -4T397 -6T341 -7T291 -7Q185 -7 132 36T78 179V564Q78 664 131 707T291 750Q313 750 340 750T395 749T446 747T486 744Q491 743 493 739T496 730V680Q496 668 485 668H292Q252 668 228 663T191 645T174 612T169 564V425H476Q484 425 490 419T496 405V367Q496 359 490 353T476 347H169V179Q169 150 173 131T191 99T228 81T292 75H485Q496 75 496 63V12H496Z"  />
<glyph unicode="F" horiz-adv-x="551" d="M496 367Q496 359 490 353T476 347H169V20Q169 12 163 6T149 0H98Q90 0 84 6T78 20V564Q78 664 131 707T291 750Q313 750 340 750T395 749T446 747T486 744Q491 743 493 739T496 730V680Q496 668 485 668H292Q252 668 228 663T191 645T174 612T169 564V425H476Q484 425 490 419T496 405V367H496Z"  />
<glyph unicode="G" horiz-adv-x="612" d="M534 30Q534 11 516 8Q479 2 434 -2T317 -7Q270 -7 224 9T141 62T81 158T58 304V438Q58 529 82 589T144 685T230 735T326 750Q396 750 441 746T516 736Q523 735 528 732T533 721V671Q533 661 520 661H516Q494 663 474 664T431 666T384 667T326 668Q291 668 259 658T203 621T164 550T149 438V304Q149 242 162 199T198 127T251 87T317 74Q363 74 394 76T443 80V366Q443 374 448 380T461 386H515Q523 386 528 380T534 366V30H534Z"  />
<glyph unicode="H" horiz-adv-x="680" d="M602 20Q602 12 596 6T582 0H531Q523 0 517 6T511 20V352H169V20Q169 12 163 6T149 0H98Q90 0 84 6T78 20V723Q78 731 84 737T98 743H149Q157 743 163 737T169 723V433H511V723Q511 731 517 737T531 743H582Q590 743 596 737T602 723V20H602Z"  />
<glyph unicode="I" horiz-adv-x="267" d="M179 20Q179 12 174 6T161 0H106Q98 0 93 6T88 20V724Q88 732 93 737T106 743H161Q169 743 174 738T179 724V20H179Z"  />
<glyph unicode="J" horiz-adv-x="257" d="M179 -37Q179 -109 143 -144T24 -180Q7 -180 -8 -177T-29 -172Q-35 -169 -35 -161V-124Q-35 -116 -29 -112T-15 -107H24Q64 -107 76 -91T88 -37V724Q88 732 93 737T107 743H160Q168 743 173 738T179 724V-37H179Z"  />
<glyph unicode="K" horiz-adv-x="607" d="M564 10Q564 0 551 0H473Q460 0 451 10L169 353V20Q169 12 164 6T151 0H96Q88 0 83 6T78 20V724Q78 732 83 737T97 743H150Q158 743 163 738T169 724V401L457 734Q462 739 465 741T477 743H549Q563 743 563 732Q563 726 559 722L258 382L559 22Q564 17 564 10Z"  />
<glyph unicode="L" d="M496 16Q496 11 494 7T486 2Q466 -1 414 -4T291 -7Q251 -7 213 -1T144 24T96 80T78 179V723Q78 731 84 737T98 743H149Q157 743 163 737T169 723V179Q169 150 173 131T191 99T228 81T292 75H485Q496 75 496 63V16H496Z"  />
<glyph unicode="M" horiz-adv-x="761" d="M684 20Q684 12 678 6T664 0H615Q607 0 601 6T595 20V613Q595 616 594 616Q593 616 592 614L449 318Q441 303 432 296T404 289H358Q339 289 330 296T313 318L170 614Q169 616 168 616Q167 616 167 613V20Q167 12 161 6T147 0H98Q90 0 84 6T78 20V714Q78 726 86 734T107 743H172Q186 743 192 740T204 726L369 383Q374 372 381 372Q388 372 393 383L558 726Q563 736 569 739T590 743H655Q667 743 675 735T684 714V20H684Z"  />
<glyph unicode="N" horiz-adv-x="680" d="M602 29Q602 17 594 9T573 0H511Q487 0 479 16L170 603Q168 606 167 606Q166 606 166 603V19Q166 11 161 6T148 0H96Q88 0 83 2T78 12V715Q78 727 86 735T107 743H162Q183 743 190 739T203 723L510 139L512 136Q513 136 513 139V724Q513 732 518 737T531 743H584Q592 743 597 738T602 724V29H602Z"  />
<glyph unicode="O" horiz-adv-x="661" d="M601 307Q601 224 581 165T525 67T440 11T331 -7Q272 -7 223 11T137 67T81 164T60 307V436Q60 519 80 578T137 676T222 732T331 750Q390 750 439 732T525 676T581 579T601 436V307ZM509 436Q509 499 497 543T461 615T405 655T331 668Q290 668 257 656T201 615T165 543T152 436V307Q152 244 164 200T200 128T256 88T331 75Q372 75 405 87T461 128T496 200T509 307V436Z"  />
<glyph unicode="P" horiz-adv-x="593" d="M548 520Q548 457 527 415T469 346T380 308T268 296Q244 296 216 297T168 301V20Q168 12 163 6T150 0H96Q88 0 83 6T78 20V717Q78 739 102 742Q134 746 179 748T268 750Q329 750 380 739T468 702T527 635T548 533V520ZM457 533Q457 609 411 641T268 673Q245 673 216 672T168 669V376Q177 376 190 375T217 374T244 373T268 372Q371 372 414 407T457 520V533Z"  />
<glyph unicode="Q" horiz-adv-x="661" d="M601 307Q601 232 585 176T538 82T466 22T374 -5V-48Q374 -67 376 -78T386 -96T405 -104T436 -106H495Q504 -106 510 -110T517 -122V-156Q517 -169 496 -174T436 -180Q399 -180 371 -175T324 -154T296 -114T286 -49V-4Q236 2 195 23T123 83T77 176T60 307V436Q60 519 80 578T137 676T222 732T331 750Q390 750 439 732T525 676T581 579T601 436V307ZM509 436Q509 499 497 543T461 615T405 655T331 668Q290 668 257 656T201 615T165 543T152 436V307Q152 244 164 200T200 128T256 88T331 75Q372 75 405 87T461 128T496 200T509 307V436Z"  />
<glyph unicode="R" horiz-adv-x="625" d="M586 13Q586 0 573 0H509Q500 0 495 1T483 13L304 311H295H278Q253 311 231 311T168 314V20Q168 12 163 6T150 0H96Q88 0 83 6T78 20V720Q78 731 83 735T102 742Q118 744 139 745T184 748T232 749T278 750Q337 750 388 739T477 703T536 637T558 535V528Q558 486 547 453T514 394T464 352T401 326L583 22Q586 17 586 13ZM468 535Q468 610 420 639T278 668Q266 668 251 668T221 668T191 667T168 665V391Q201 390 231 390T278 389Q324 389 359 395T419 418T455 460T468 528V535Z"  />
<glyph unicode="S" horiz-adv-x="550" d="M500 193Q500 157 489 121T451 57T375 11T253 -7Q200 -7 160 -3T87 7Q74 9 71 13T68 25V65Q68 73 73 77T85 81H88Q105 79 126 78T170 77T214 76T253 75Q298 75 327 83T374 107T398 145T405 193Q405 212 399 227T379 258T342 289T285 327L188 386Q119 428 85 470T50 573Q50 664 112 707T289 750Q311 750 335 749T383 747T428 743T463 738Q480 735 480 721V678Q480 662 463 662H461Q428 664 381 666T289 668Q211 668 177 648T142 573Q142 538 168 512T251 452L343 397Q386 371 416 347T465 299T492 249T500 193Z"  />
<glyph unicode="T" horiz-adv-x="590" d="M555 681Q555 665 536 665H341V20Q341 12 336 6T323 0H268Q260 0 255 6T250 20V665H55Q47 665 41 669T35 681V725Q35 733 41 738T55 743H536Q555 743 555 725V681H555Z"  />
<glyph unicode="U" horiz-adv-x="662" d="M587 270Q587 127 520 60T331 -7Q209 -7 142 60T75 270V724Q75 732 80 737T94 743H148Q156 743 161 738T167 724V270Q167 222 175 185T202 122T253 84T331 71Q377 71 408 84T459 122T487 184T495 270V724Q495 732 500 737T514 743H568Q576 743 581 738T587 724V270H587Z"  />
<glyph unicode="V" horiz-adv-x="643" d="M609 726Q609 722 608 720L424 69Q417 45 406 31T381 8T352 -4T322 -7Q308 -7 293 -4T264 7T239 30T220 69L35 720Q34 722 34 726Q34 734 39 738T52 743H110Q116 743 121 739T128 728L302 91Q308 70 322 70Q335 70 341 91L516 728Q518 734 522 738T533 743H592Q609 743 609 726Z"  />
<glyph unicode="W" horiz-adv-x="825" d="M791 723L680 47Q675 16 659 6T618 -4H575Q554 -4 539 9T518 46L420 416Q418 423 417 424T414 425H413H412Q410 425 409 424T406 416L307 46Q301 23 286 10T250 -4H208Q184 -4 168 6T146 47L35 723V726Q35 743 52 743H110Q124 743 127 726L224 89Q226 81 226 78T229 74Q233 74 236 89L334 459Q344 499 381 499H445Q482 499 492 459L590 89Q593 74 597 74Q600 74 600 77T602 89L699 726Q702 743 716 743H774Q791 743 791 726V723Z"  />
<glyph unicode="X" horiz-adv-x="646" d="M604 14Q604 9 600 5T588 0H525Q517 0 513 3T504 15L321 306L142 15Q132 0 121 0H62Q54 0 50 4T46 15Q46 20 49 25L271 378L51 719Q48 723 48 729Q48 743 63 743H128Q136 743 139 741T146 733L326 448L500 733Q505 740 509 741T519 743H578Q586 743 590 739T594 728Q594 723 591 719L376 376L601 25Q604 20 604 14Z"  />
<glyph unicode="Y" horiz-adv-x="583" d="M549 729Q549 724 546 718L391 370Q377 340 364 325T337 304V20Q337 12 332 6T319 0H264Q256 0 251 6T246 20V304Q232 309 219 324T192 370L38 718Q35 724 35 729Q35 743 52 743H113Q118 743 123 739T131 729L269 405Q277 388 282 384T292 379Q297 379 302 383T315 405L454 729Q456 734 460 738T471 743H532Q549 743 549 729Z"  />
<glyph unicode="Z" horiz-adv-x="597" d="M544 18Q544 10 538 5T524 0H139Q91 0 74 14T56 68Q56 81 59 98T71 126L429 647Q432 651 432 655Q432 662 422 662H90Q82 662 76 666T70 679V726Q70 734 76 738T90 743H446Q488 743 509 731T531 677Q531 663 527 646T515 618L158 97Q155 92 155 88Q155 82 165 82H524Q532 82 538 78T544 65V18H544Z"  />
<glyph unicode="[" horiz-adv-x="327" d="M303 -174Q303 -182 297 -188T283 -194H97Q89 -194 85 -189T80 -175V724Q80 732 84 737T97 743H283Q291 743 297 737T303 723V690Q303 682 297 676T283 670H169V-121H283Q291 -121 297 -127T303 -141V-174H303Z"  />
<glyph unicode="\" horiz-adv-x="355" d="M333 14Q333 9 330 5T319 0H268Q260 0 256 6T250 20L24 723Q23 725 23 729Q23 734 26 738T37 743H88Q96 743 99 737T105 723L332 20Q333 18 333 14Z"  />
<glyph unicode="]" horiz-adv-x="327" d="M247 -175Q247 -183 243 -188T230 -194H44Q36 -194 30 -188T24 -174V-141Q24 -133 30 -127T44 -121H158V670H44Q36 670 30 676T24 690V723Q24 731 30 737T44 743H230Q238 743 242 738T247 724V-175H247Z"  />
<glyph unicode="^" horiz-adv-x="605" d="M505 572Q505 563 494 563H434Q423 563 419 567T406 581L303 701L200 581Q192 572 188 568T172 563H112Q101 563 101 572Q101 578 105 583L220 732Q228 743 233 746T250 750H356Q367 750 372 747T386 732L501 583Q505 578 505 572Z"  />
<glyph unicode="_" horiz-adv-x="494" d="M525 -90Q525 -98 519 -102T505 -106H-10Q-18 -106 -24 -102T-30 -90V-65Q-30 -57 -24 -53T-10 -49H505Q513 -49 519 -53T525 -65V-90H525Z"  />
<glyph unicode="`" horiz-adv-x="372" d="M243 630Q243 623 234 623H180Q172 623 168 626T157 638L44 764Q40 768 40 772Q40 779 51 779H117Q126 779 130 776T142 764L239 640Q243 636 243 630Z"  />
<glyph unicode="a" horiz-adv-x="519" d="M451 20Q451 12 445 6T431 0H385Q377 0 371 6T365 20V42Q329 21 291 7T211 -7Q179 -7 150 0T98 27T62 77T48 155V167Q48 207 60 237T101 288T176 319T289 329H363V369Q363 432 339 457T256 482Q207 482 170 480T103 474H98Q91 474 86 477T80 490V525Q80 541 101 544Q132 549 168 553T256 557Q360 557 405 507T451 369V20ZM363 266H289Q244 266 214 261T167 244T143 214T136 168V156Q136 102 160 84T228 65Q263 65 295 75T363 105V266Z"  />
<glyph unicode="b" horiz-adv-x="541" d="M491 240Q491 184 478 138T438 60T370 11T273 -7Q228 -7 182 -3T89 10Q75 12 72 17T68 33V733Q68 741 73 746T86 752H137Q145 752 150 747T156 733V547Q185 552 217 554T273 557Q382 557 436 494T491 312V240ZM403 312Q403 392 375 436T273 480Q261 480 246 480T215 479T184 477T156 473V76Q182 74 214 72T273 70Q347 70 375 114T403 240V312Z"  />
<glyph unicode="c" horiz-adv-x="452" d="M408 26Q408 16 404 11T388 4Q363 -1 331 -4T263 -7Q212 -7 173 10T106 59T64 136T50 236V314Q50 369 64 414T105 490T172 539T263 557Q298 557 330 554T388 546Q400 544 404 540T408 524V488Q408 480 403 477T391 473H387Q354 477 327 478T263 480Q203 480 171 440T138 314V236Q138 151 170 111T263 70Q300 70 327 71T387 77H391Q398 77 403 74T408 62V26H408Z"  />
<glyph unicode="d" horiz-adv-x="541" d="M473 33Q473 23 470 18T452 10Q405 1 360 -3T268 -7Q212 -7 171 10T103 60T63 138T50 240V312Q50 430 104 493T268 557Q291 557 323 555T385 547V733Q385 741 390 746T404 752H455Q463 752 468 747T473 733V33ZM385 473Q360 478 326 479T268 480Q231 480 206 469T166 437T145 384T138 312V240Q138 158 166 114T268 70Q294 70 326 72T385 76V473Z"  />
<glyph unicode="e" horiz-adv-x="544" d="M492 269Q492 247 473 247H138V233Q138 144 173 107T277 70Q321 70 370 73T455 81H460Q466 81 471 78T476 67V33Q476 23 472 18T456 10Q413 2 371 -2T277 -7Q234 -7 193 4T121 43T70 117T50 233V323Q50 431 107 494T272 557Q327 557 368 541T436 494T478 420T492 323V269ZM403 323Q403 408 371 444T272 480Q207 480 173 442T138 323V314H403V323Z"  />
<glyph unicode="f" horiz-adv-x="381" d="M356 706Q356 691 338 691H290Q255 691 242 677T229 622V550H334Q342 550 347 545T353 532V493Q353 476 334 476H229V20Q229 12 224 6T210 0H161Q153 0 147 6T141 20V476L44 487Q25 489 25 505V532Q25 540 30 545T44 550H141V622Q141 662 150 689T178 732T222 754T281 761Q301 761 314 759T337 755Q356 750 356 739V706H356Z"  />
<glyph unicode="g" horiz-adv-x="559" d="M523 502Q523 492 518 489T505 483L469 476Q483 462 493 438T503 373V365Q503 282 450 238T281 194Q241 194 214 199T165 214Q140 202 140 180Q140 167 147 160T171 148L320 110Q357 101 391 90T453 63T496 22T512 -37V-45Q512 -117 460 -158T284 -200Q165 -200 110 -158T54 -41V-32Q54 10 73 43T117 95L110 98Q86 109 75 131T64 176V177Q64 197 74 217T105 249Q82 271 71 299T59 365V373Q59 406 69 438T105 495T173 535T281 550H500Q509 550 516 544T523 528V502ZM416 373Q416 395 410 415T389 449T348 471T281 480Q239 480 213 471T172 448T152 414T146 373V365Q146 348 151 330T170 297T211 273T281 263Q321 263 347 270T389 291T410 323T416 365V373ZM424 -37Q424 -8 397 8T302 41L189 70Q167 51 154 29T140 -32V-41Q140 -62 147 -79T170 -107T214 -125T284 -132Q327 -132 354 -126T396 -109T418 -82T424 -45V-37Z"  />
<glyph unicode="h" horiz-adv-x="557" d="M489 20Q489 12 483 6T469 0H421Q413 0 407 6T401 20V349Q401 424 372 452T294 480Q282 480 266 479T230 474T192 465T156 452V20Q156 12 150 6T136 0H87Q79 0 74 6T68 20V732Q68 740 73 746T87 752H137Q145 752 150 746T156 732V526Q192 542 234 549T309 557Q349 557 382 545T439 508T476 444T489 349V20H489Z"  />
<glyph unicode="i" horiz-adv-x="247" d="M169 658Q169 650 163 644T149 638H98Q90 638 84 644T78 658V738Q78 746 84 752T98 758H149Q157 758 163 752T169 738V658ZM167 20Q167 12 161 6T147 0H99Q91 0 85 6T79 20V530Q79 538 85 544T99 550H147Q155 550 161 544T167 530V20Z"  />
<glyph unicode="j" horiz-adv-x="247" d="M169 657Q169 649 163 644T149 638H98Q90 638 84 643T78 657V738Q78 746 84 752T98 758H149Q157 758 163 752T169 738V657ZM167 -64Q167 -103 159 -128T135 -169T96 -191T42 -197Q27 -197 15 -196T-12 -193Q-30 -190 -30 -177V-140Q-30 -126 -9 -126H32Q61 -126 70 -114T79 -64V530Q79 538 84 544T97 550H149Q157 550 162 544T167 530V-64Z"  />
<glyph unicode="k" horiz-adv-x="496" d="M461 13Q461 0 450 0H378Q370 0 366 2T355 13L156 259V20Q156 12 150 6T136 0H88Q80 0 74 6T68 20V732Q68 740 74 746T88 752H136Q144 752 150 746T156 732V316L356 541Q361 546 364 548T376 550H446Q461 550 461 539Q461 533 456 528L236 290L458 22Q461 19 461 13Z"  />
<glyph unicode="l" horiz-adv-x="244" d="M166 20Q166 12 161 6T148 0H96Q88 0 83 6T78 20V733Q78 741 83 746T96 752H148Q156 752 161 747T166 733V20H166Z"  />
<glyph unicode="m" horiz-adv-x="798" d="M730 20Q730 12 724 6T710 0H662Q654 0 648 6T642 20V374Q642 405 635 426T616 459T587 476T551 481Q524 481 494 473T434 454Q443 421 443 376V20Q443 12 438 6T425 0H372Q364 0 360 6T355 20V376Q355 409 351 429T336 461T312 477T278 481Q251 481 220 470T156 442V20Q156 12 151 6T138 0H85Q77 0 73 6T68 20V530Q68 538 73 544T87 550H137Q145 550 150 544T156 530V511Q186 530 223 544T302 558Q334 558 358 549T402 517Q444 537 486 547T568 558Q602 558 631 549T683 519T717 462T730 374V20H730Z"  />
<glyph unicode="n" horiz-adv-x="557" d="M489 20Q489 12 483 6T469 0H421Q413 0 407 6T401 20V349Q401 387 395 412T375 453T340 474T291 481Q259 481 225 470T156 442V20Q156 12 150 6T136 0H87Q79 0 74 6T68 20V530Q68 538 73 544T87 550H137Q145 550 150 544T156 530V511Q198 534 234 545T315 557Q406 557 447 503T489 349V20H489Z"  />
<glyph unicode="o" horiz-adv-x="545" d="M495 237Q495 182 481 137T439 60T369 11T272 -7Q217 -7 176 10T106 60T64 137T50 237V313Q50 368 64 413T106 490T175 539T272 557Q327 557 369 540T439 490T481 413T495 313V237ZM407 313Q407 390 375 435T272 480Q202 480 170 436T138 313V237Q138 160 169 115T272 70Q342 70 374 114T407 237V313Z"  />
<glyph unicode="p" horiz-adv-x="541" d="M491 238Q491 120 437 57T273 -7Q250 -7 218 -4T156 4V-177Q156 -185 151 -190T137 -196H86Q78 -196 73 -191T68 -177V511Q68 521 71 526T89 534Q129 544 178 550T273 557Q329 557 370 540T438 490T478 412T491 310V238ZM403 310Q403 349 397 381T375 435T335 470T273 483Q241 483 209 480T156 473V77Q181 72 215 70T273 67Q310 67 335 78T375 112T396 166T403 238V310Z"  />
<glyph unicode="q" horiz-adv-x="541" d="M473 -177Q473 -185 468 -190T455 -196H404Q396 -196 391 -191T385 -177V4Q356 -1 324 -4T268 -7Q159 -7 105 56T50 238V310Q50 366 63 411T103 489T171 539T268 557Q313 557 362 551T452 534Q466 531 469 527T473 511V-177ZM385 473Q365 477 333 480T268 483Q231 483 206 471T166 437T145 382T138 310V238Q138 198 144 166T166 112T206 79T268 67Q280 67 295 67T326 69T357 73T385 77V473Z"  />
<glyph unicode="r" horiz-adv-x="342" d="M315 498Q315 481 294 481Q259 481 227 472T156 439V20Q156 12 150 6T136 0H87Q79 0 74 6T68 20V530Q68 538 73 544T87 550H134Q142 550 147 544T153 530V509Q191 535 225 546T294 557Q315 557 315 539V498H315Z"  />
<glyph unicode="s" horiz-adv-x="466" d="M416 138Q416 100 403 73T365 28T306 2T229 -7Q215 -7 196 -7T155 -4T111 0T71 8Q50 13 50 28V63Q50 70 55 74T68 78H72Q90 76 111 74T155 71T196 68T229 67Q278 67 303 82T328 138Q328 161 312 178T253 221L152 281Q106 309 78 342T50 424Q50 463 64 488T102 529T159 551T231 557Q273 557 312 554T387 544Q406 541 406 524V491Q406 474 389 474H386Q360 476 317 479T231 482Q189 482 164 472T138 424Q138 401 155 385T207 348L306 289Q368 252 392 217T416 138Z"  />
<glyph unicode="t" horiz-adv-x="385" d="M360 15Q360 1 342 -2Q327 -4 309 -5T277 -7Q242 -7 217 -2T175 19T150 60T141 127V476L44 487Q25 489 25 505V532Q25 550 44 550H141V648Q141 665 159 668L211 676H214Q220 676 224 672T229 659V550H337Q345 550 351 544T357 530V496Q357 488 351 482T337 476H229V127Q229 86 241 75T283 64H339Q360 64 360 50V15H360Z"  />
<glyph unicode="u" horiz-adv-x="557" d="M489 20Q489 12 484 6T470 0H420Q412 0 407 6T401 20V39Q359 16 323 5T242 -7Q151 -7 110 47T68 201V530Q68 538 74 544T88 550H136Q144 550 150 544T156 530V201Q156 163 162 138T182 97T216 76T266 69Q298 69 332 80T401 108V530Q401 538 407 544T421 550H470Q478 550 483 544T489 530V20H489Z"  />
<glyph unicode="v" horiz-adv-x="530" d="M491 533Q491 529 490 526L355 50Q345 16 321 5T265 -7Q233 -7 209 4T175 50L40 526Q39 529 39 533Q39 550 55 550H110Q123 550 129 531L244 95Q249 77 253 72T265 66Q272 66 276 71T286 95L401 531Q407 550 420 550H475Q491 550 491 533Z"  />
<glyph unicode="w" horiz-adv-x="786" d="M748 526L651 62Q646 38 641 25T627 4T604 -5T567 -7Q547 -7 534 -5T512 5T497 27T485 65L398 405Q396 410 396 411T393 412Q391 412 391 411T388 405L301 65Q295 43 289 29T274 7T252 -4T219 -7Q196 -7 182 -5T159 4T145 25T135 62L38 526V530Q38 538 43 544T57 550H111Q118 550 122 545T128 534L211 78Q213 69 215 68T219 66Q224 66 227 78L325 462Q330 479 339 485T365 492H421Q437 492 446 486T461 462L559 78Q562 66 567 66Q569 66 571 67T575 78L658 534Q659 540 663 545T675 550H729Q737 550 742 544T748 530V526Z"  />
<glyph unicode="x" horiz-adv-x="547" d="M511 11Q511 0 498 0H429Q420 0 415 8L272 217L129 10Q124 3 122 2T112 0H52Q40 0 40 10Q40 17 45 23L225 280L55 525Q50 533 50 538Q50 550 65 550H130Q136 550 140 547T150 536L277 348L405 536Q412 546 415 548T426 550H484Q497 550 497 538Q497 533 492 525L324 286L507 23Q511 18 511 11Z"  />
<glyph unicode="y" horiz-adv-x="534" d="M495 533Q495 528 494 526L329 -50Q317 -91 304 -119T269 -164T219 -190T146 -198Q125 -198 102 -196T62 -189Q53 -187 47 -184T41 -173V-136Q41 -120 60 -120H63Q80 -122 107 -124T152 -126Q173 -126 189 -123T216 -110T236 -84T251 -41L261 0H247Q236 0 226 2T206 11T188 32T173 69L40 526Q39 528 39 533Q39 550 57 550H112Q118 550 122 545T129 534L247 100Q251 85 256 82T266 78H282L404 535Q406 541 411 545T423 550H479Q495 550 495 533Z"  />
<glyph unicode="z" horiz-adv-x="482" d="M432 20Q432 12 426 6T412 0H110Q78 0 64 17T49 55V74Q49 95 54 108T72 139L330 460Q334 466 334 469Q334 476 324 476H81Q73 476 67 482T61 496V530Q61 538 67 544T81 550H375Q406 550 418 537T431 501V477Q431 461 426 449T408 422L145 93Q140 88 140 82Q140 74 148 74H412Q420 74 426 68T432 54V20H432Z"  />
<glyph unicode="{" horiz-adv-x="331" d="M304 -174Q304 -182 298 -188T284 -194H233Q187 -194 158 -188T111 -165T87 -123T80 -56V120Q80 143 77 161T68 193T50 220T20 245V303Q38 315 49 327T67 354T77 386T80 427V605Q80 645 86 671T110 714T157 736T233 743H283Q291 743 297 737T303 723V690Q303 682 297 676T283 670H238Q216 670 203 668T182 658T172 638T169 605V427Q169 374 154 338T98 273Q138 245 153 209T169 120V-56Q169 -76 171 -88T181 -108T202 -118T238 -121H284Q292 -121 298 -127T304 -141V-174H304Z"  />
<glyph unicode="|" horiz-adv-x="249" d="M169 -175Q169 -183 164 -188T151 -194H99Q91 -194 86 -189T80 -175V724Q80 732 85 737T99 743H151Q159 743 164 738T169 724V-175H169Z"  />
<glyph unicode="}" horiz-adv-x="331" d="M311 245Q293 233 282 221T264 194T254 161T251 120V-56Q251 -96 244 -122T220 -165T174 -187T98 -194H47Q39 -194 33 -188T27 -174V-141Q27 -133 33 -127T47 -121H93Q115 -121 128 -119T149 -109T159 -89T162 -56V120Q162 173 177 209T233 273Q192 301 177 337T162 427V605Q162 625 160 637T150 657T129 667T93 670H48Q40 670 34 676T28 690V723Q28 731 34 737T48 743H98Q144 743 173 737T220 714T244 672T251 605V427Q251 404 254 386T263 354T281 328T311 303V245H311Z"  />
<glyph unicode="~" horiz-adv-x="605" d="M514 467Q514 404 490 372T405 339Q385 339 366 346T329 367L256 425Q234 442 224 449T203 456Q174 456 168 440T161 397V371Q161 363 155 357T141 351H112Q104 351 98 357T92 371V397Q92 462 120 494T203 527Q223 527 242 520T278 499L363 431Q372 423 384 417T405 411Q433 411 439 424T445 467V495Q445 503 451 509T465 515H494Q502 515 508 509T514 495V467H514Z"  />
<glyph unicode="&#xA0;" horiz-adv-x="247" />
<glyph unicode="&#xA1;" horiz-adv-x="217" d="M153 437Q153 429 148 424T134 418H86Q78 418 73 423T67 437V531Q67 550 86 550H134Q142 550 147 545T153 531V437ZM84 -203Q76 -203 71 -198T65 -184L72 336Q72 344 78 349T92 355H127Q135 355 141 350T147 336L155 -184Q155 -192 149 -197T135 -203H84Z"  />
<glyph unicode="&#xA2;" horiz-adv-x="605" d="M482 26Q482 16 478 11T462 4Q443 1 419 -1T368 -6V-96Q368 -104 362 -110T348 -116H307Q299 -116 293 -110T287 -96V-2Q208 14 166 76T124 236V314Q124 411 166 473T287 552V645Q287 653 293 659T307 665H348Q356 665 362 659T368 645V556Q394 554 418 552T462 546Q474 544 478 540T482 524V488Q482 480 477 477T465 473H461Q428 477 401 479T337 481Q277 481 245 440T212 314V236Q212 151 244 110T337 69Q374 69 401 71T461 77H465Q472 77 477 74T482 62V26H482Z"  />
<glyph unicode="&#xA3;" horiz-adv-x="605" d="M535 17Q535 9 529 5T515 0H116Q107 0 103 5T99 15V54Q99 62 102 67T109 77Q126 106 133 131T140 195V347H88Q80 347 75 352T70 365V407Q70 415 76 420T90 425H140V490Q140 552 150 599T186 678T254 726T361 742Q380 742 402 741T444 738T483 734T516 729Q528 727 531 724T535 712V671Q535 654 520 654H515Q482 658 439 661T361 665Q322 665 297 657T257 628T237 575T231 490V425H446Q454 425 459 420T465 407V365Q465 357 459 352T445 347H231V195Q231 157 220 128T196 76H515Q523 76 529 73T535 61V17H535Z"  />
<glyph unicode="&#xA4;" horiz-adv-x="605" d="M548 574Q548 566 541 559L459 477Q476 454 484 427T492 373Q492 345 484 318T458 267L540 185Q547 178 547 170Q547 163 542 158L515 131Q510 126 504 126Q496 126 489 133L405 217Q358 184 303 184Q276 184 249 192T199 217L117 135Q114 132 110 130T101 127Q96 127 91 132L64 160Q59 167 59 171Q59 179 66 186L147 267Q130 290 122 317T113 373Q113 400 120 426T145 476L64 557Q57 564 57 572Q57 580 62 584L90 611Q95 616 101 616Q108 616 116 608L196 528Q220 545 247 553T302 562Q360 562 408 528L490 610Q497 617 505 617Q511 617 516 612L543 585Q548 580 548 574ZM421 373Q421 398 412 419T386 457T348 482T301 492Q276 492 255 483T217 457T191 420T181 373Q181 348 190 327T216 289T254 263T301 253Q326 253 347 262T385 288T411 326T421 373Z"  />
<glyph unicode="&#xA5;" horiz-adv-x="605" d="M569 231Q569 223 563 217T549 211H349V20Q349 12 344 6T331 0H274Q266 0 262 6T257 20V211H56Q48 211 42 217T36 231V261Q36 269 42 275T56 281H257V302L202 412H56Q48 412 42 418T36 432V462Q36 470 42 476T56 482H167L48 718Q45 725 45 730Q45 743 61 743H124Q129 743 134 739T141 729L303 390L465 729Q467 734 471 738T482 743H544Q561 743 561 729Q561 724 558 718L439 482H549Q557 482 563 476T569 462V432Q569 424 563 418T549 412H404L349 302V281H549Q557 281 563 275T569 261V231H569Z"  />
<glyph unicode="&#xA6;" horiz-adv-x="249" d="M169 362Q169 354 164 348T151 342H98Q90 342 85 348T80 362V709Q80 717 85 722T98 728H151Q159 728 164 723T169 709V362ZM169 -191Q169 -199 164 -205T151 -211H98Q90 -211 85 -205T80 -191V156Q80 164 85 169T98 175H151Q159 175 164 170T169 156V-191Z"  />
<glyph unicode="&#xA7;" horiz-adv-x="547" d="M499 -17Q499 -55 488 -90T450 -154T374 -199T252 -216Q199 -216 158 -212T84 -202Q77 -200 71 -196T65 -183V-141Q65 -133 71 -129T85 -124H87Q128 -128 168 -131T249 -134H252Q297 -134 326 -126T372 -102T395 -65T402 -17Q402 3 398 18T381 48T348 78T294 113L182 180Q142 204 116 225T75 269T54 315T48 368Q48 400 58 425T82 473Q66 490 57 516T48 574Q48 615 60 648T101 703T175 738T287 750Q308 750 334 749T384 745T430 741T462 737Q470 735 475 731T480 718V675Q480 667 475 663T462 658H461Q417 660 374 663T287 667Q243 667 215 662T171 645T149 616T143 574Q143 557 147 543T163 516T194 489T244 457L353 393Q398 367 426 343T470 295T493 246T499 193Q499 164 493 136T470 84Q486 61 492 36T499 -17ZM407 193Q407 213 402 228T386 258T355 286T305 319L215 374Q198 385 179 397T143 421Q138 405 136 396T134 368Q134 333 156 307T223 254L333 190Q356 176 369 168T400 147Q403 155 404 160T406 169T407 179T407 193Z"  />
<glyph unicode="&#xA8;" horiz-adv-x="373" d="M314 660Q314 652 308 647T294 641H255Q247 641 241 646T235 660V741Q235 749 241 755T255 761H294Q302 761 308 755T314 741V660ZM139 660Q139 652 133 647T119 641H80Q72 641 66 646T60 660V741Q60 749 66 755T80 761H119Q127 761 133 755T139 741V660Z"  />
<glyph unicode="&#xA9;" horiz-adv-x="750" d="M700 374Q700 307 674 248T604 145T501 76T374 50Q307 50 248 75T145 145T76 248T50 374Q50 441 75 500T145 604T248 675T374 701Q441 701 500 675T604 605T674 501T700 374ZM656 374Q656 432 634 484T574 574T484 634T374 657Q315 657 264 635T175 574T115 484T93 374Q93 315 115 264T175 176T264 116T374 94Q432 94 483 116T573 175T634 264T656 374ZM476 183Q476 175 471 172T461 168Q450 166 428 164T370 161Q338 161 310 171T262 202T229 259T217 344V410Q217 460 229 495T261 552T310 584T370 594Q405 594 427 591T461 586Q466 585 471 583T476 572V544Q476 536 472 534T463 532H460Q444 534 421 535T370 537Q352 537 336 531T307 510T287 471T279 410V344Q279 308 286 284T306 245T335 224T370 218Q396 218 420 219T460 223H462Q467 223 471 221T476 210V183Z"  />
<glyph unicode="&#xAA;" horiz-adv-x="294" d="M264 450Q264 436 254 434Q231 427 206 424T156 421Q88 421 59 444T30 519V526Q30 574 64 596T172 618H204V631Q204 666 192 680T150 694Q123 694 103 693T66 689H64Q59 689 55 692T50 702V723Q50 730 54 733T65 737Q82 740 102 743T150 746Q210 746 237 717T264 631V450ZM205 576H182H173Q125 574 107 564T88 526V519Q88 493 101 481T156 468Q170 468 183 469T205 473V576Z"  />
<glyph unicode="&#xAB;" horiz-adv-x="614" d="M560 79Q560 70 549 70H491Q485 70 481 72T470 80L301 249Q296 254 293 262T290 277Q290 283 293 291T301 305L470 474Q476 480 480 482T491 484H549Q560 484 560 475Q560 468 554 462L376 277L554 92Q560 86 560 79ZM300 79Q300 70 289 70H231Q225 70 221 72T210 80L41 249Q36 254 33 262T30 277Q30 283 33 291T41 305L210 474Q216 480 220 482T231 484H289Q300 484 300 475Q300 468 294 462L116 277L294 92Q300 86 300 79Z"  />
<glyph unicode="&#xAC;" horiz-adv-x="605" d="M515 247Q515 239 509 233T495 227H463Q455 227 449 233T443 247V466H110Q102 466 96 470T90 482V522Q90 530 96 534T110 538H498Q515 538 515 521V247H515Z"  />
<glyph unicode="&#xAD;" horiz-adv-x="333" d="M285 273Q285 256 266 256H67Q48 256 48 273V312Q48 320 53 325T67 330H266Q285 330 285 312V273H285Z"  />
<glyph unicode="&#xAE;" horiz-adv-x="598" d="M569 484Q569 428 548 379T490 294T404 237T299 216Q243 216 194 237T109 294T51 379T30 484Q30 540 51 589T108 674T194 732T299 753Q355 753 404 732T490 675T548 589T569 484ZM528 484Q528 531 510 573T461 646T388 695T299 713Q252 713 211 695T138 646T90 573T72 484Q72 437 89 396T138 323T210 275T299 257Q346 257 388 274T461 323T510 395T528 484ZM425 331Q425 318 413 318H385Q377 318 373 326L292 454L280 457H240V333Q240 328 236 323T226 318H201Q195 318 192 323T188 333V635Q188 655 206 657Q212 658 221 658T241 659T263 660T282 660Q345 660 379 638T413 559V555Q413 517 396 496T346 465L423 340Q425 336 425 331ZM363 559Q363 589 345 601T285 613H253H239V501Q247 501 263 501T285 500Q327 500 345 512T363 555V559Z"  />
<glyph unicode="&#xAF;" horiz-adv-x="373" d="M351 692Q351 684 345 680T331 675H43Q35 675 29 679T23 692V726Q23 734 29 738T43 743H331Q339 743 345 739T351 726V692H351Z"  />
<glyph unicode="&#xB0;" horiz-adv-x="342" d="M314 608Q314 579 303 553T273 508T227 477T172 466Q143 466 117 477T72 507T41 553T29 608Q29 637 40 663T71 708T117 739T172 750Q201 750 227 739T272 709T303 663T314 608ZM260 608Q260 626 253 642T234 670T206 689T172 696Q154 696 138 689T110 670T91 642T84 608Q84 590 91 574T110 546T138 527T172 520Q190 520 206 527T234 546T253 574T260 608Z"  />
<glyph unicode="&#xB1;" horiz-adv-x="605" d="M530 371Q530 363 524 359T510 355H338V184Q338 176 334 170T322 164H282Q274 164 270 170T266 184V355H95Q87 355 81 359T75 371V411Q75 419 81 423T95 427H266V599Q266 607 270 613T282 619H322Q330 619 334 613T338 599V427H510Q518 427 524 423T530 411V371ZM530 16Q530 8 524 4T510 0H95Q87 0 81 4T75 16V49Q75 57 81 61T95 65H510Q518 65 524 61T530 49V16Z"  />
<glyph unicode="&#xB2;" horiz-adv-x="333" d="M294 642Q294 608 277 583T222 531Q209 523 196 514T170 496Q148 481 134 469T112 444T101 419T98 389V385H271Q278 385 283 381T289 368V345Q289 337 284 332T271 327H57Q50 327 45 332T39 345V389Q39 433 58 469T125 537L180 573H179Q194 584 204 592T220 607T228 623T231 642Q231 667 214 678T158 690Q138 690 112 688T61 681Q45 681 45 699V718Q45 731 60 736Q81 741 107 743T158 746Q294 746 294 642Z"  />
<glyph unicode="&#xB3;" horiz-adv-x="333" d="M292 446Q292 381 252 352T150 323Q125 323 101 326T57 334Q51 336 46 340T41 352V370Q41 388 60 388Q85 384 108 382T150 380Q190 380 208 395T226 446V457Q226 466 224 476T215 496T198 510T171 516H73Q56 516 56 532V552Q56 569 73 569H171Q188 569 198 574T215 588T223 606T226 626V633Q226 662 209 676T150 690Q130 690 112 688T70 682Q68 682 65 682T58 681Q41 681 41 699V717Q41 725 45 729T56 736Q75 740 98 743T150 746Q214 746 253 722T292 633V626Q292 570 249 542Q275 526 283 503T292 457V446H292Z"  />
<glyph unicode="&#xB4;" horiz-adv-x="373" d="M333 772Q333 768 329 764L216 638Q209 630 205 627T193 623H139Q130 623 130 630Q130 636 134 640L232 764Q239 772 243 775T256 779H322Q333 779 333 772Z"  />
<glyph unicode="&#xB5;" horiz-adv-x="557" d="M489 44Q489 27 470 21Q435 8 386 1T285 -7Q206 -7 156 22V-176Q156 -184 150 -190T136 -196H88Q80 -196 74 -190T68 -176V530Q68 538 73 544T87 550H137Q145 550 150 544T156 530V201Q156 131 187 100T285 68Q315 68 346 71T401 82V530Q401 538 407 544T421 550H470Q478 550 483 544T489 530V44H489Z"  />
<glyph unicode="&#xB6;" horiz-adv-x="622" d="M557 -176Q557 -184 553 -189T540 -195H517Q509 -195 505 -190T500 -176V689H442V-176Q442 -184 438 -189T425 -195H402Q394 -195 390 -190T385 -176V263H281Q229 263 186 277T112 320T63 390T45 486V520Q45 574 62 615T111 685T186 728T281 743H541Q557 743 557 724V-176H557Z"  />
<glyph unicode="&#xB7;" horiz-adv-x="214" d="M150 345Q150 337 145 331T131 325H83Q75 325 70 331T64 345V438Q64 446 69 451T83 457H131Q139 457 144 452T150 438V345H150Z"  />
<glyph unicode="&#xB8;" horiz-adv-x="366" d="M254 -39Q254 -43 250 -47L137 -173Q130 -181 126 -184T114 -188H60Q51 -188 51 -181Q51 -175 55 -171L152 -47Q159 -39 163 -36T177 -32H243Q254 -32 254 -39Z"  />
<glyph unicode="&#xB9;" horiz-adv-x="333" d="M71 645Q54 639 54 658V686Q54 696 64 699L144 737Q153 742 159 742T176 743H182Q195 743 197 738T199 724V346Q199 339 195 333T182 327H152Q144 327 140 332T135 346V672L71 645Z"  />
<glyph unicode="&#xBA;" horiz-adv-x="322" d="M291 566Q291 496 259 459T162 421Q98 421 65 458T32 566V601Q32 671 65 708T162 746Q226 746 258 709T291 601V566ZM230 601Q230 647 215 670T162 693Q125 693 109 670T92 601V566Q92 520 108 497T162 473Q199 473 214 496T230 566V601Z"  />
<glyph unicode="&#xBB;" horiz-adv-x="614" d="M584 277Q584 271 581 263T573 249L404 80Q394 70 383 70H325Q314 70 314 79Q314 86 320 92L498 277L320 462Q314 468 314 475Q314 484 325 484H383Q389 484 393 482T404 474L573 305Q578 300 581 292T584 277ZM324 277Q324 271 321 263T313 249L144 80Q134 70 123 70H65Q54 70 54 79Q54 86 60 92L238 277L60 462Q54 468 54 475Q54 484 65 484H123Q129 484 133 482T144 474L313 305Q318 300 321 292T324 277Z"  />
<glyph unicode="&#xBC;" horiz-adv-x="741" d="M580 737Q580 734 575 724L157 16Q151 5 147 1T135 -4H86Q76 -4 76 4Q76 11 80 16L498 724Q505 735 509 739T521 743H572Q580 743 580 737ZM57 645Q40 639 40 658V686Q40 696 50 699L130 737Q139 742 145 742T162 743H168Q181 743 183 738T185 724V346Q185 339 181 333T168 327H138Q130 327 126 332T121 346V672L57 645ZM701 124Q701 116 696 112T682 107H644V19Q644 12 639 6T626 0H595Q587 0 583 5T578 19V107H431Q414 107 407 112T400 135V155Q400 170 408 181L570 405Q572 410 576 413T590 416H621Q644 416 644 396V163H682Q690 163 695 159T701 146V124ZM579 325L466 163H579V325Z"  />
<glyph unicode="&#xBD;" horiz-adv-x="744" d="M580 737Q580 734 575 724L157 16Q151 5 147 1T135 -4H86Q76 -4 76 4Q76 11 80 16L498 724Q505 735 509 739T521 743H572Q580 743 580 737ZM57 645Q40 639 40 658V686Q40 696 50 699L130 737Q139 742 145 742T162 743H168Q181 743 183 738T185 724V346Q185 339 181 333T168 327H138Q130 327 126 332T121 346V672L57 645ZM704 315Q704 281 687 256T632 204Q619 196 606 187T580 169Q558 154 544 142T522 117T511 92T508 62V58H681Q688 58 693 54T699 41V18Q699 10 694 5T681 0H467Q460 0 455 5T449 18V62Q449 106 468 142T535 210L590 246H589Q604 257 614 265T630 280T638 296T641 315Q641 340 624 351T568 363Q548 363 522 361T471 354Q455 354 455 372V391Q455 404 470 409Q491 414 517 416T568 419Q704 419 704 315Z"  />
<glyph unicode="&#xBE;" horiz-adv-x="826" d="M664 737Q664 734 659 724L241 16Q235 5 231 1T219 -4H170Q160 -4 160 4Q160 11 164 16L582 724Q589 735 593 739T605 743H656Q664 743 664 737ZM786 124Q786 116 781 112T767 107H729V19Q729 12 724 6T711 0H680Q672 0 668 5T663 19V107H516Q499 107 492 112T485 135V155Q485 170 493 181L655 405Q657 410 661 413T675 416H706Q729 416 729 396V163H767Q775 163 780 159T786 146V124ZM664 325L551 163H664V325ZM291 446Q291 381 251 352T149 323Q124 323 100 326T56 334Q50 336 45 340T40 352V370Q40 388 59 388Q84 384 107 382T149 380Q189 380 207 395T225 446V457Q225 466 223 476T214 496T197 510T170 516H72Q55 516 55 532V552Q55 569 72 569H170Q187 569 197 574T214 588T222 606T225 626V633Q225 662 208 676T149 690Q129 690 111 688T69 682Q67 682 64 682T57 681Q40 681 40 699V717Q40 725 44 729T55 736Q74 740 97 743T149 746Q213 746 252 722T291 633V626Q291 570 248 542Q274 526 282 503T291 457V446Z"  />
<glyph unicode="&#xBF;" horiz-adv-x="446" d="M328 438Q328 430 322 424T308 418H260Q252 418 247 424T241 438V531Q241 550 260 550H308Q316 550 322 545T328 531V438ZM406 -165Q406 -174 404 -180T389 -188Q358 -194 323 -197T253 -201Q210 -201 174 -194T110 -169T68 -122T53 -50V-38Q53 -20 56 -3T70 33T98 77T144 133L189 184Q203 200 213 211T229 234T239 258T242 287V336Q242 344 248 349T262 355H306Q314 355 319 350T325 336V287Q325 263 322 245T312 209T291 175T259 136L213 85Q194 64 182 48T163 18T154 -9T151 -38V-50Q151 -90 176 -106T253 -122Q289 -122 321 -120T388 -113H391Q406 -113 406 -130V-165Z"  />
<glyph unicode="&#xC0;" horiz-adv-x="633" d="M604 16Q604 0 587 0H528Q521 0 517 4T511 15L446 245H187L123 15Q121 9 116 5T105 0H46Q29 0 29 16Q29 21 30 23L215 674Q221 697 232 711T258 734T287 746T317 750Q331 750 346 747T375 736T400 713T418 675L603 23Q604 21 604 16ZM336 653Q331 671 317 671Q302 671 297 653L206 324H427L336 653ZM385 801Q385 794 376 794H322Q314 794 310 797T299 809L186 935Q182 939 182 943Q182 950 193 950H259Q268 950 272 947T284 935L381 811Q385 807 385 801Z"  />
<glyph unicode="&#xC1;" horiz-adv-x="633" d="M604 16Q604 0 587 0H528Q521 0 517 4T511 15L446 245H187L123 15Q121 9 116 5T105 0H46Q29 0 29 16Q29 21 30 23L215 674Q221 697 232 711T258 734T287 746T317 750Q331 750 346 747T375 736T400 713T418 675L603 23Q604 21 604 16ZM336 653Q331 671 317 671Q302 671 297 653L206 324H427L336 653ZM469 943Q469 939 465 935L352 809Q345 801 341 798T329 794H275Q266 794 266 801Q266 807 270 811L368 935Q375 943 379 946T392 950H458Q469 950 469 943Z"  />
<glyph unicode="&#xC2;" horiz-adv-x="633" d="M604 16Q604 0 587 0H528Q521 0 517 4T511 15L446 245H187L123 15Q121 9 116 5T105 0H46Q29 0 29 16Q29 21 30 23L215 674Q221 697 232 711T258 734T287 746T317 750Q331 750 346 747T375 736T400 713T418 675L603 23Q604 21 604 16ZM336 653Q331 671 317 671Q302 671 297 653L206 324H427L336 653ZM488 801Q488 794 479 794H427Q419 794 415 797T404 809L322 906L239 809Q232 801 228 798T216 794H164Q155 794 155 801Q155 807 159 811L255 935Q262 943 266 946T279 950H364Q373 950 377 947T389 935L484 811Q488 807 488 801Z"  />
<glyph unicode="&#xC3;" horiz-adv-x="633" d="M604 16Q604 0 587 0H528Q521 0 517 4T511 15L446 245H187L123 15Q121 9 116 5T105 0H46Q29 0 29 16Q29 21 30 23L215 674Q221 697 232 711T258 734T287 746T317 750Q331 750 346 747T375 736T400 713T418 675L603 23Q604 21 604 16ZM336 653Q331 671 317 671Q302 671 297 653L206 324H427L336 653ZM497 894Q497 842 476 816T403 789Q386 789 370 794T339 810L278 859Q260 873 253 877T237 881Q219 881 213 870T206 835V814Q206 807 201 802T189 797H158Q151 797 147 802T142 814V835Q142 889 167 916T237 944Q254 944 268 938T297 920L368 864Q376 858 386 854T403 850Q418 850 425 859T433 894V917Q433 924 438 929T450 934H481Q488 934 492 929T497 917V894H497Z"  />
<glyph unicode="&#xC4;" horiz-adv-x="633" d="M604 16Q604 0 587 0H528Q521 0 517 4T511 15L446 245H187L123 15Q121 9 116 5T105 0H46Q29 0 29 16Q29 21 30 23L215 674Q221 697 232 711T258 734T287 746T317 750Q331 750 346 747T375 736T400 713T418 675L603 23Q604 21 604 16ZM336 653Q331 671 317 671Q302 671 297 653L206 324H427L336 653ZM450 827Q450 819 444 814T430 808H391Q383 808 377 813T371 827V908Q371 916 377 922T391 928H430Q438 928 444 922T450 908V827ZM275 827Q275 819 269 814T255 808H216Q208 808 202 813T196 827V908Q196 916 202 922T216 928H255Q263 928 269 922T275 908V827Z"  />
<glyph unicode="&#xC5;" horiz-adv-x="633" d="M604 16Q604 0 587 0H528Q521 0 517 4T511 15L446 245H187L123 15Q121 9 116 5T105 0H46Q29 0 29 16Q29 21 30 23L215 674Q221 697 232 711T258 734T287 746T317 750Q331 750 346 747T375 736T400 713T418 675L603 23Q604 21 604 16ZM336 653Q331 671 317 671Q302 671 297 653L206 324H427L336 653ZM417 878Q417 857 409 839T388 807T356 785T316 777Q295 777 277 785T244 806T222 838T214 878Q214 899 222 917T244 950T276 972T316 980Q337 980 355 972T387 950T409 918T417 878ZM369 879Q369 901 354 916T316 931Q294 931 279 916T264 879Q264 857 279 842T316 826Q338 826 353 841T369 879Z"  />
<glyph unicode="&#xC6;" horiz-adv-x="859" d="M804 14Q804 9 802 5T794 0Q783 -1 765 -2T723 -5T676 -6T629 -7Q523 -7 470 36T416 179V245H177L113 15Q111 9 106 5T95 0H36Q19 0 19 16Q19 21 20 23L205 668Q212 691 223 705T248 728T277 740T307 743H794Q799 743 801 739T804 729V676Q804 664 793 664H507V425H784Q792 425 798 419T804 405V367Q804 359 798 353T784 347H507V179Q507 150 511 131T529 99T566 81T630 75H793Q804 75 804 63V14ZM416 664H307Q292 664 287 647L196 324H416V664Z"  />
<glyph unicode="&#xC7;" horiz-adv-x="545" d="M510 26Q510 17 504 13T490 6Q474 3 458 1T423 -3T380 -6T324 -7Q278 -7 231 7T146 56T84 151T60 302V441Q60 533 84 592T146 687T231 736T324 750Q372 750 415 745T492 734Q508 732 508 721V670Q508 665 506 662T496 659H493Q479 660 460 661T418 664T371 667T325 668Q288 668 257 657T202 619T165 549T151 441V302Q151 239 164 196T201 126T256 87T325 75Q346 75 369 76T415 78T457 80T490 83H494Q510 83 510 67V26ZM381 -39Q381 -43 377 -47L264 -173Q257 -181 253 -184T241 -188H187Q178 -188 178 -181Q178 -177 182 -171L279 -47Q286 -39 291 -36T304 -32H370Q381 -32 381 -39Z"  />
<glyph unicode="&#xC8;" horiz-adv-x="551" d="M496 12Q496 7 494 3T486 -2Q472 -4 448 -4T397 -6T341 -7T291 -7Q185 -7 132 36T78 179V564Q78 664 131 707T291 750Q313 750 340 750T395 749T446 747T486 744Q491 743 493 739T496 730V680Q496 668 485 668H292Q252 668 228 663T191 645T174 612T169 564V425H476Q484 425 490 419T496 405V367Q496 359 490 353T476 347H169V179Q169 150 173 131T191 99T228 81T292 75H485Q496 75 496 63V12H496ZM360 800Q360 793 351 793H297Q289 793 285 796T274 808L161 934Q157 938 157 942Q157 949 168 949H234Q243 949 247 946T259 934L356 810Q360 806 360 800Z"  />
<glyph unicode="&#xC9;" horiz-adv-x="551" d="M496 12Q496 7 494 3T486 -2Q472 -4 448 -4T397 -6T341 -7T291 -7Q185 -7 132 36T78 179V564Q78 664 131 707T291 750Q313 750 340 750T395 749T446 747T486 744Q491 743 493 739T496 730V680Q496 668 485 668H292Q252 668 228 663T191 645T174 612T169 564V425H476Q484 425 490 419T496 405V367Q496 359 490 353T476 347H169V179Q169 150 173 131T191 99T228 81T292 75H485Q496 75 496 63V12H496ZM436 943Q436 939 432 935L319 809Q312 801 308 798T296 794H242Q233 794 233 801Q233 807 237 811L335 935Q342 943 346 946T359 950H425Q436 950 436 943Z"  />
<glyph unicode="&#xCA;" horiz-adv-x="551" d="M496 12Q496 7 494 3T486 -2Q472 -4 448 -4T397 -6T341 -7T291 -7Q185 -7 132 36T78 179V564Q78 664 131 707T291 750Q313 750 340 750T395 749T446 747T486 744Q491 743 493 739T496 730V680Q496 668 485 668H292Q252 668 228 663T191 645T174 612T169 564V425H476Q484 425 490 419T496 405V367Q496 359 490 353T476 347H169V179Q169 150 173 131T191 99T228 81T292 75H485Q496 75 496 63V12H496ZM456 801Q456 794 447 794H395Q387 794 383 797T372 809L290 906L207 809Q200 801 196 798T184 794H132Q123 794 123 801Q123 807 127 811L223 935Q230 943 234 946T247 950H332Q341 950 345 947T357 935L452 811Q456 807 456 801Z"  />
<glyph unicode="&#xCB;" horiz-adv-x="551" d="M496 12Q496 7 494 3T486 -2Q472 -4 448 -4T397 -6T341 -7T291 -7Q185 -7 132 36T78 179V564Q78 664 131 707T291 750Q313 750 340 750T395 749T446 747T486 744Q491 743 493 739T496 730V680Q496 668 485 668H292Q252 668 228 663T191 645T174 612T169 564V425H476Q484 425 490 419T496 405V367Q496 359 490 353T476 347H169V179Q169 150 173 131T191 99T228 81T292 75H485Q496 75 496 63V12H496ZM424 829Q424 821 418 816T404 810H365Q357 810 351 815T345 829V910Q345 918 351 924T365 930H404Q412 930 418 924T424 910V829ZM249 829Q249 821 243 816T229 810H190Q182 810 176 815T170 829V910Q170 918 176 924T190 930H229Q237 930 243 924T249 910V829Z"  />
<glyph unicode="&#xCC;" horiz-adv-x="267" d="M179 20Q179 12 174 6T161 0H106Q98 0 93 6T88 20V724Q88 732 93 737T106 743H161Q169 743 174 738T179 724V20H179ZM199 801Q199 794 190 794H136Q128 794 124 797T113 809L0 935Q-4 939 -4 943Q-4 950 7 950H73Q82 950 86 947T98 935L195 811Q199 807 199 801Z"  />
<glyph unicode="&#xCD;" horiz-adv-x="267" d="M179 20Q179 12 174 6T161 0H106Q98 0 93 6T88 20V724Q88 732 93 737T106 743H161Q169 743 174 738T179 724V20H179ZM273 943Q273 939 269 935L156 809Q149 801 145 798T133 794H79Q70 794 70 801Q70 807 74 811L172 935Q179 943 183 946T196 950H262Q273 950 273 943Z"  />
<glyph unicode="&#xCE;" horiz-adv-x="267" d="M179 20Q179 12 174 6T161 0H106Q98 0 93 6T88 20V724Q88 732 93 737T106 743H161Q169 743 174 738T179 724V20H179ZM297 801Q297 794 288 794H236Q228 794 224 797T213 809L131 906L48 809Q41 801 37 798T25 794H-27Q-36 794 -36 801Q-36 807 -32 811L64 935Q71 943 75 946T88 950H173Q182 950 186 947T198 935L293 811Q297 807 297 801Z"  />
<glyph unicode="&#xCF;" horiz-adv-x="267" d="M179 20Q179 12 174 6T161 0H106Q98 0 93 6T88 20V724Q88 732 93 737T106 743H161Q169 743 174 738T179 724V20H179ZM262 828Q262 820 256 815T242 809H203Q195 809 189 814T183 828V909Q183 917 189 923T203 929H242Q250 929 256 923T262 909V828ZM87 828Q87 820 81 815T67 809H28Q20 809 14 814T8 828V909Q8 917 14 923T28 929H67Q75 929 81 923T87 909V828Z"  />
<glyph unicode="&#xD0;" horiz-adv-x="641" d="M584 304Q584 224 563 165T502 68T406 12T281 -7Q252 -7 225 -6T173 -4T129 -1T99 3Q78 6 78 28V347H40Q32 347 26 353T20 367V405Q20 413 26 419T40 425H78V715Q78 737 99 740Q110 742 129 743T172 746T224 749T281 750Q350 750 406 732T501 676T562 579T584 439V304ZM493 439Q493 507 477 552T432 623T365 661T281 672Q246 672 221 672T170 669V425H273Q281 425 287 419T293 405V367Q293 359 287 353T273 347H170V73Q194 71 220 71T281 71Q326 71 364 82T431 120T476 191T493 304V439Z"  />
<glyph unicode="&#xD1;" horiz-adv-x="680" d="M602 29Q602 17 594 9T573 0H511Q487 0 479 16L170 603Q168 606 167 606Q166 606 166 603V19Q166 11 161 6T148 0H96Q88 0 83 2T78 12V715Q78 727 86 735T107 743H162Q183 743 190 739T203 723L510 139L512 136Q513 136 513 139V724Q513 732 518 737T531 743H584Q592 743 597 738T602 724V29H602ZM508 892Q508 840 487 814T414 787Q397 787 381 792T350 808L289 857Q271 871 264 875T248 879Q230 879 224 868T217 833V812Q217 805 212 800T200 795H169Q162 795 158 800T153 812V833Q153 887 178 914T248 942Q265 942 279 936T308 918L379 862Q387 856 397 852T414 848Q429 848 436 857T444 892V915Q444 922 449 927T461 932H492Q499 932 503 927T508 915V892H508Z"  />
<glyph unicode="&#xD2;" horiz-adv-x="661" d="M601 307Q601 224 581 165T525 67T440 11T331 -7Q272 -7 223 11T137 67T81 164T60 307V436Q60 519 80 578T137 676T222 732T331 750Q390 750 439 732T525 676T581 579T601 436V307ZM509 436Q509 499 497 543T461 615T405 655T331 668Q290 668 257 656T201 615T165 543T152 436V307Q152 244 164 200T200 128T256 88T331 75Q372 75 405 87T461 128T496 200T509 307V436ZM397 801Q397 794 388 794H334Q326 794 322 797T311 809L198 935Q194 939 194 943Q194 950 205 950H271Q280 950 284 947T296 935L393 811Q397 807 397 801Z"  />
<glyph unicode="&#xD3;" horiz-adv-x="661" d="M601 307Q601 224 581 165T525 67T440 11T331 -7Q272 -7 223 11T137 67T81 164T60 307V436Q60 519 80 578T137 676T222 732T331 750Q390 750 439 732T525 676T581 579T601 436V307ZM509 436Q509 499 497 543T461 615T405 655T331 668Q290 668 257 656T201 615T165 543T152 436V307Q152 244 164 200T200 128T256 88T331 75Q372 75 405 87T461 128T496 200T509 307V436ZM457 943Q457 939 453 935L340 809Q333 801 329 798T317 794H263Q254 794 254 801Q254 807 258 811L356 935Q363 943 367 946T380 950H446Q457 950 457 943Z"  />
<glyph unicode="&#xD4;" horiz-adv-x="661" d="M601 307Q601 224 581 165T525 67T440 11T331 -7Q272 -7 223 11T137 67T81 164T60 307V436Q60 519 80 578T137 676T222 732T331 750Q390 750 439 732T525 676T581 579T601 436V307ZM509 436Q509 499 497 543T461 615T405 655T331 668Q290 668 257 656T201 615T165 543T152 436V307Q152 244 164 200T200 128T256 88T331 75Q372 75 405 87T461 128T496 200T509 307V436ZM497 802Q497 795 488 795H436Q428 795 424 798T413 810L331 907L248 810Q241 802 237 799T225 795H173Q164 795 164 802Q164 808 168 812L264 936Q271 944 275 947T288 951H373Q382 951 386 948T398 936L493 812Q497 808 497 802Z"  />
<glyph unicode="&#xD5;" horiz-adv-x="661" d="M601 307Q601 224 581 165T525 67T440 11T331 -7Q272 -7 223 11T137 67T81 164T60 307V436Q60 519 80 578T137 676T222 732T331 750Q390 750 439 732T525 676T581 579T601 436V307ZM509 436Q509 499 497 543T461 615T405 655T331 668Q290 668 257 656T201 615T165 543T152 436V307Q152 244 164 200T200 128T256 88T331 75Q372 75 405 87T461 128T496 200T509 307V436ZM511 894Q511 842 490 816T417 789Q400 789 384 794T353 810L292 859Q274 873 267 877T251 881Q233 881 227 870T220 835V814Q220 807 215 802T203 797H172Q165 797 161 802T156 814V835Q156 889 181 916T251 944Q268 944 282 938T311 920L382 864Q390 858 400 854T417 850Q432 850 439 859T447 894V917Q447 924 452 929T464 934H495Q502 934 506 929T511 917V894H511Z"  />
<glyph unicode="&#xD6;" horiz-adv-x="661" d="M601 307Q601 224 581 165T525 67T440 11T331 -7Q272 -7 223 11T137 67T81 164T60 307V436Q60 519 80 578T137 676T222 732T331 750Q390 750 439 732T525 676T581 579T601 436V307ZM509 436Q509 499 497 543T461 615T405 655T331 668Q290 668 257 656T201 615T165 543T152 436V307Q152 244 164 200T200 128T256 88T331 75Q372 75 405 87T461 128T496 200T509 307V436ZM458 829Q458 821 452 816T438 810H399Q391 810 385 815T379 829V910Q379 918 385 924T399 930H438Q446 930 452 924T458 910V829ZM283 829Q283 821 277 816T263 810H224Q216 810 210 815T204 829V910Q204 918 210 924T224 930H263Q271 930 277 924T283 910V829Z"  />
<glyph unicode="&#xD7;" horiz-adv-x="605" d="M488 243Q488 238 483 233L455 205Q450 200 445 200Q437 200 429 208L297 340L166 209Q158 201 150 201Q145 201 140 206L112 234Q107 239 107 244Q107 252 115 260L246 391L115 523Q107 531 107 538Q107 543 112 548L140 576Q145 581 151 581Q159 581 166 574L297 442L429 574Q437 582 445 582Q450 582 455 577L483 549Q488 544 488 539Q488 531 480 523L348 391L480 259Q488 251 488 243Z"  />
<glyph unicode="&#xD8;" horiz-adv-x="661" d="M633 735Q633 731 630 727L559 629Q579 593 590 545T601 436V307Q601 224 581 165T525 67T440 11T331 -7Q277 -7 230 8T148 56L117 12Q112 6 106 0T92 -7H39Q28 -7 28 4Q28 7 31 12L103 112Q60 186 60 307V436Q60 519 80 578T137 676T222 732T331 750Q386 750 433 735T515 686L544 727Q549 733 555 739T570 746H622Q633 746 633 735ZM462 613Q417 668 331 668Q290 668 257 656T201 615T165 543T152 436V307Q152 275 155 249T165 199L462 613ZM509 436Q509 498 497 542L200 128Q223 100 256 88T331 75Q372 75 405 87T461 128T496 200T509 307V436Z"  />
<glyph unicode="&#xD9;" horiz-adv-x="662" d="M587 270Q587 127 520 60T331 -7Q209 -7 142 60T75 270V724Q75 732 80 737T94 743H148Q156 743 161 738T167 724V270Q167 222 175 185T202 122T253 84T331 71Q377 71 408 84T459 122T487 184T495 270V724Q495 732 500 737T514 743H568Q576 743 581 738T587 724V270H587ZM389 801Q389 794 380 794H326Q318 794 314 797T303 809L190 935Q186 939 186 943Q186 950 197 950H263Q272 950 276 947T288 935L385 811Q389 807 389 801Z"  />
<glyph unicode="&#xDA;" horiz-adv-x="662" d="M587 270Q587 127 520 60T331 -7Q209 -7 142 60T75 270V724Q75 732 80 737T94 743H148Q156 743 161 738T167 724V270Q167 222 175 185T202 122T253 84T331 71Q377 71 408 84T459 122T487 184T495 270V724Q495 732 500 737T514 743H568Q576 743 581 738T587 724V270H587ZM479 943Q479 939 475 935L362 809Q355 801 351 798T339 794H285Q276 794 276 801Q276 807 280 811L378 935Q385 943 389 946T402 950H468Q479 950 479 943Z"  />
<glyph unicode="&#xDB;" horiz-adv-x="662" d="M587 270Q587 127 520 60T331 -7Q209 -7 142 60T75 270V724Q75 732 80 737T94 743H148Q156 743 161 738T167 724V270Q167 222 175 185T202 122T253 84T331 71Q377 71 408 84T459 122T487 184T495 270V724Q495 732 500 737T514 743H568Q576 743 581 738T587 724V270H587ZM494 801Q494 794 485 794H433Q425 794 421 797T410 809L328 906L245 809Q238 801 234 798T222 794H170Q161 794 161 801Q161 807 165 811L261 935Q268 943 272 946T285 950H370Q379 950 383 947T395 935L490 811Q494 807 494 801Z"  />
<glyph unicode="&#xDC;" horiz-adv-x="662" d="M587 270Q587 127 520 60T331 -7Q209 -7 142 60T75 270V724Q75 732 80 737T94 743H148Q156 743 161 738T167 724V270Q167 222 175 185T202 122T253 84T331 71Q377 71 408 84T459 122T487 184T495 270V724Q495 732 500 737T514 743H568Q576 743 581 738T587 724V270H587ZM456 829Q456 821 450 816T436 810H397Q389 810 383 815T377 829V910Q377 918 383 924T397 930H436Q444 930 450 924T456 910V829ZM281 829Q281 821 275 816T261 810H222Q214 810 208 815T202 829V910Q202 918 208 924T222 930H261Q269 930 275 924T281 910V829Z"  />
<glyph unicode="&#xDD;" horiz-adv-x="583" d="M549 729Q549 724 546 718L391 370Q377 340 364 325T337 304V20Q337 12 332 6T319 0H264Q256 0 251 6T246 20V304Q232 309 219 324T192 370L38 718Q35 724 35 729Q35 743 52 743H113Q118 743 123 739T131 729L269 405Q277 388 282 384T292 379Q297 379 302 383T315 405L454 729Q456 734 460 738T471 743H532Q549 743 549 729ZM438 943Q438 939 434 935L321 809Q314 801 310 798T298 794H244Q235 794 235 801Q235 807 239 811L337 935Q344 943 348 946T361 950H427Q438 950 438 943Z"  />
<glyph unicode="&#xDE;" horiz-adv-x="593" d="M548 426Q548 362 527 319T469 250T380 212T267 200Q241 200 215 200T168 203V20Q168 12 164 6T152 0H96Q88 0 83 6T78 20V724Q78 732 83 737T96 743H151Q159 743 163 738T168 724V655Q188 656 215 657T265 658Q326 658 378 647T468 610T527 542T548 440V426ZM457 440Q457 518 409 548T267 579Q243 579 214 579T168 577V281Q177 281 189 281T216 280T243 279T267 278Q364 278 410 312T457 426V440Z"  />
<glyph unicode="&#xDF;" horiz-adv-x="581" d="M527 215Q527 156 508 114T456 45T380 6T290 -7Q279 -7 268 -7T242 -4Q234 -3 228 2T222 15V56Q222 67 233 67Q243 67 255 67T276 66Q312 66 342 73T393 97T426 142T438 215V229Q438 284 399 320T283 357H246Q238 357 232 363T226 377V406Q226 414 232 420T246 426H283Q321 426 347 436T391 463T415 502T423 548V560Q423 615 392 648T292 681Q222 681 188 642T154 514V21Q154 13 149 7T136 0H83Q75 0 70 6T65 21V514Q65 577 81 623T126 699T198 743T292 758Q340 758 380 747T449 711T494 650T511 560V548Q511 494 480 454T406 394Q459 375 493 332T527 229V215H527Z"  />
<glyph unicode="&#xE0;" horiz-adv-x="519" d="M451 20Q451 12 445 6T431 0H385Q377 0 371 6T365 20V42Q329 21 291 7T211 -7Q179 -7 150 0T98 27T62 77T48 155V167Q48 207 60 237T101 288T176 319T289 329H363V369Q363 432 339 457T256 482Q207 482 170 480T103 474H98Q91 474 86 477T80 490V525Q80 541 101 544Q132 549 168 553T256 557Q360 557 405 507T451 369V20ZM363 266H289Q244 266 214 261T167 244T143 214T136 168V156Q136 102 160 84T228 65Q263 65 295 75T363 105V266ZM324 630Q324 623 315 623H261Q253 623 249 626T238 638L125 764Q121 768 121 772Q121 779 132 779H198Q207 779 211 776T223 764L320 640Q324 636 324 630Z"  />
<glyph unicode="&#xE1;" horiz-adv-x="519" d="M451 20Q451 12 445 6T431 0H385Q377 0 371 6T365 20V42Q329 21 291 7T211 -7Q179 -7 150 0T98 27T62 77T48 155V167Q48 207 60 237T101 288T176 319T289 329H363V369Q363 432 339 457T256 482Q207 482 170 480T103 474H98Q91 474 86 477T80 490V525Q80 541 101 544Q132 549 168 553T256 557Q360 557 405 507T451 369V20ZM363 266H289Q244 266 214 261T167 244T143 214T136 168V156Q136 102 160 84T228 65Q263 65 295 75T363 105V266ZM412 772Q412 768 408 764L295 638Q288 630 284 627T272 623H218Q209 623 209 630Q209 636 213 640L311 764Q318 772 322 775T335 779H401Q412 779 412 772Z"  />
<glyph unicode="&#xE2;" horiz-adv-x="519" d="M451 20Q451 12 445 6T431 0H385Q377 0 371 6T365 20V42Q329 21 291 7T211 -7Q179 -7 150 0T98 27T62 77T48 155V167Q48 207 60 237T101 288T176 319T289 329H363V369Q363 432 339 457T256 482Q207 482 170 480T103 474H98Q91 474 86 477T80 490V525Q80 541 101 544Q132 549 168 553T256 557Q360 557 405 507T451 369V20ZM363 266H289Q244 266 214 261T167 244T143 214T136 168V156Q136 102 160 84T228 65Q263 65 295 75T363 105V266ZM425 630Q425 623 416 623H364Q356 623 352 626T341 638L259 735L176 638Q169 630 165 627T153 623H101Q92 623 92 630Q92 636 96 640L192 764Q199 772 203 775T216 779H301Q310 779 314 776T326 764L421 640Q425 636 425 630Z"  />
<glyph unicode="&#xE3;" horiz-adv-x="519" d="M451 20Q451 12 445 6T431 0H385Q377 0 371 6T365 20V42Q329 21 291 7T211 -7Q179 -7 150 0T98 27T62 77T48 155V167Q48 207 60 237T101 288T176 319T289 329H363V369Q363 432 339 457T256 482Q207 482 170 480T103 474H98Q91 474 86 477T80 490V525Q80 541 101 544Q132 549 168 553T256 557Q360 557 405 507T451 369V20ZM363 266H289Q244 266 214 261T167 244T143 214T136 168V156Q136 102 160 84T228 65Q263 65 295 75T363 105V266ZM446 731Q446 679 425 653T352 626Q335 626 319 631T288 647L227 696Q209 710 202 714T186 718Q168 718 162 707T155 672V651Q155 644 150 639T138 634H107Q100 634 96 639T91 651V672Q91 726 116 753T186 781Q203 781 217 775T246 757L317 701Q325 695 335 691T352 687Q367 687 374 696T382 731V754Q382 761 387 766T399 771H430Q437 771 441 766T446 754V731H446Z"  />
<glyph unicode="&#xE4;" horiz-adv-x="519" d="M451 20Q451 12 445 6T431 0H385Q377 0 371 6T365 20V42Q329 21 291 7T211 -7Q179 -7 150 0T98 27T62 77T48 155V167Q48 207 60 237T101 288T176 319T289 329H363V369Q363 432 339 457T256 482Q207 482 170 480T103 474H98Q91 474 86 477T80 490V525Q80 541 101 544Q132 549 168 553T256 557Q360 557 405 507T451 369V20ZM363 266H289Q244 266 214 261T167 244T143 214T136 168V156Q136 102 160 84T228 65Q263 65 295 75T363 105V266ZM388 660Q388 652 382 647T368 641H329Q321 641 315 646T309 660V741Q309 749 315 755T329 761H368Q376 761 382 755T388 741V660ZM213 660Q213 652 207 647T193 641H154Q146 641 140 646T134 660V741Q134 749 140 755T154 761H193Q201 761 207 755T213 741V660Z"  />
<glyph unicode="&#xE5;" horiz-adv-x="519" d="M451 20Q451 12 445 6T431 0H385Q377 0 371 6T365 20V42Q329 21 291 7T211 -7Q179 -7 150 0T98 27T62 77T48 155V167Q48 207 60 237T101 288T176 319T289 329H363V369Q363 432 339 457T256 482Q207 482 170 480T103 474H98Q91 474 86 477T80 490V525Q80 541 101 544Q132 549 168 553T256 557Q360 557 405 507T451 369V20ZM363 266H289Q244 266 214 261T167 244T143 214T136 168V156Q136 102 160 84T228 65Q263 65 295 75T363 105V266ZM358 703Q358 682 350 664T329 632T297 610T257 602Q236 602 218 610T185 631T163 663T155 703Q155 724 163 742T185 775T217 797T257 805Q278 805 296 797T328 775T350 743T358 703ZM310 704Q310 726 295 741T257 756Q235 756 220 741T205 704Q205 682 220 667T257 651Q279 651 294 666T310 704Z"  />
<glyph unicode="&#xE6;" horiz-adv-x="853" d="M803 269Q803 247 784 247H451V215Q451 138 486 103T597 67Q641 67 687 71T768 81H770H773Q789 81 789 67V33Q789 23 785 18T769 10Q726 2 685 -2T592 -7Q534 -7 493 5T419 52Q384 22 337 8T239 -7Q202 -7 168 2T107 32T64 83T48 158V167Q48 208 60 238T101 289T176 319T289 329H364V369Q364 432 340 457T256 482Q207 482 170 480T103 474H101H98Q90 474 85 477T80 490V525Q80 541 101 544Q132 549 168 553T256 557Q318 557 358 539T422 487Q450 520 490 538T585 557Q640 557 681 539T749 487T789 409T803 311V269ZM716 319Q716 482 585 482Q520 482 486 440T451 319V314H716V319ZM364 265H289Q244 265 215 260T168 243T144 213T137 167V158Q137 131 146 113T171 84T207 68T251 63Q282 63 312 70T364 94V265Z"  />
<glyph unicode="&#xE7;" horiz-adv-x="452" d="M408 26Q408 16 404 11T388 4Q363 -1 331 -4T263 -7Q212 -7 173 10T106 59T64 136T50 236V314Q50 369 64 414T105 490T172 539T263 557Q298 557 330 554T388 546Q400 544 404 540T408 524V488Q408 480 403 477T391 473H387Q354 477 327 478T263 480Q203 480 171 440T138 314V236Q138 151 170 111T263 70Q300 70 327 71T387 77H391Q398 77 403 74T408 62V26ZM322 -39Q322 -43 318 -47L205 -173Q198 -181 194 -184T182 -188H128Q119 -188 119 -181Q119 -175 123 -171L220 -47Q227 -39 231 -36T245 -32H311Q322 -32 322 -39Z"  />
<glyph unicode="&#xE8;" horiz-adv-x="544" d="M492 269Q492 247 473 247H138V233Q138 144 173 107T277 70Q321 70 370 73T455 81H460Q466 81 471 78T476 67V33Q476 23 472 18T456 10Q413 2 371 -2T277 -7Q234 -7 193 4T121 43T70 117T50 233V323Q50 431 107 494T272 557Q327 557 368 541T436 494T478 420T492 323V269ZM403 323Q403 408 371 444T272 480Q207 480 173 442T138 323V314H403V323ZM358 630Q358 623 349 623H295Q287 623 283 626T272 638L159 764Q155 768 155 772Q155 779 166 779H232Q241 779 245 776T257 764L354 640Q358 636 358 630Z"  />
<glyph unicode="&#xE9;" horiz-adv-x="544" d="M492 269Q492 247 473 247H138V233Q138 144 173 107T277 70Q321 70 370 73T455 81H460Q466 81 471 78T476 67V33Q476 23 472 18T456 10Q413 2 371 -2T277 -7Q234 -7 193 4T121 43T70 117T50 233V323Q50 431 107 494T272 557Q327 557 368 541T436 494T478 420T492 323V269ZM403 323Q403 408 371 444T272 480Q207 480 173 442T138 323V314H403V323ZM434 772Q434 768 430 764L317 638Q310 630 306 627T294 623H240Q231 623 231 630Q231 636 235 640L333 764Q340 772 344 775T357 779H423Q434 779 434 772Z"  />
<glyph unicode="&#xEA;" horiz-adv-x="544" d="M492 269Q492 247 473 247H138V233Q138 144 173 107T277 70Q321 70 370 73T455 81H460Q466 81 471 78T476 67V33Q476 23 472 18T456 10Q413 2 371 -2T277 -7Q234 -7 193 4T121 43T70 117T50 233V323Q50 431 107 494T272 557Q327 557 368 541T436 494T478 420T492 323V269ZM403 323Q403 408 371 444T272 480Q207 480 173 442T138 323V314H403V323ZM439 630Q439 623 430 623H378Q370 623 366 626T355 638L273 735L190 638Q183 630 179 627T167 623H115Q106 623 106 630Q106 636 110 640L206 764Q213 772 217 775T230 779H315Q324 779 328 776T340 764L435 640Q439 636 439 630Z"  />
<glyph unicode="&#xEB;" horiz-adv-x="544" d="M492 269Q492 247 473 247H138V233Q138 144 173 107T277 70Q321 70 370 73T455 81H460Q466 81 471 78T476 67V33Q476 23 472 18T456 10Q413 2 371 -2T277 -7Q234 -7 193 4T121 43T70 117T50 233V323Q50 431 107 494T272 557Q327 557 368 541T436 494T478 420T492 323V269ZM403 323Q403 408 371 444T272 480Q207 480 173 442T138 323V314H403V323ZM403 660Q403 652 397 647T383 641H344Q336 641 330 646T324 660V741Q324 749 330 755T344 761H383Q391 761 397 755T403 741V660ZM228 660Q228 652 222 647T208 641H169Q161 641 155 646T149 660V741Q149 749 155 755T169 761H208Q216 761 222 755T228 741V660Z"  />
<glyph unicode="&#xEC;" horiz-adv-x="247" d="M167 20Q167 12 161 6T147 0H99Q91 0 85 6T79 20V530Q79 538 85 544T99 550H147Q155 550 161 544T167 530V20H167ZM186 630Q186 623 177 623H123Q115 623 111 626T100 638L-13 764Q-17 768 -17 772Q-17 779 -6 779H60Q69 779 73 776T85 764L182 640Q186 636 186 630Z"  />
<glyph unicode="&#xED;" horiz-adv-x="247" d="M167 20Q167 12 161 6T147 0H99Q91 0 85 6T79 20V530Q79 538 85 544T99 550H147Q155 550 161 544T167 530V20H167ZM272 772Q272 768 268 764L155 638Q148 630 144 627T132 623H78Q69 623 69 630Q69 636 73 640L171 764Q178 772 182 775T195 779H261Q272 779 272 772Z"  />
<glyph unicode="&#xEE;" horiz-adv-x="247" d="M167 20Q167 12 161 6T147 0H99Q91 0 85 6T79 20V530Q79 538 85 544T99 550H147Q155 550 161 544T167 530V20H167ZM290 630Q290 623 281 623H229Q221 623 217 626T206 638L124 735L41 638Q34 630 30 627T18 623H-34Q-43 623 -43 630Q-43 636 -39 640L57 764Q64 772 68 775T81 779H166Q175 779 179 776T191 764L286 640Q290 636 290 630Z"  />
<glyph unicode="&#xEF;" horiz-adv-x="247" d="M167 20Q167 12 161 6T147 0H99Q91 0 85 6T79 20V530Q79 538 85 544T99 550H147Q155 550 161 544T167 530V20H167ZM251 660Q251 652 245 647T231 641H192Q184 641 178 646T172 660V741Q172 749 178 755T192 761H231Q239 761 245 755T251 741V660ZM76 660Q76 652 70 647T56 641H17Q9 641 3 646T-3 660V741Q-3 749 3 755T17 761H56Q64 761 70 755T76 741V660Z"  />
<glyph unicode="&#xF0;" horiz-adv-x="545" d="M495 243Q495 122 440 58T274 -7Q160 -7 105 60T50 243V298Q50 419 107 483T273 548Q306 548 335 540T385 512Q370 551 334 586T238 649L152 583Q144 577 139 577Q134 577 128 583L111 602Q108 605 108 609Q108 614 111 618T118 626L179 673Q161 679 142 684T100 695Q94 697 89 700T84 710Q84 713 85 715L97 749Q101 760 111 760Q116 760 119 759Q190 742 243 722L337 793Q342 797 350 797Q357 797 362 792L379 774Q383 770 383 766Q383 760 373 752L300 696Q357 663 395 625T455 539T486 432T495 298V243ZM407 298Q407 383 376 428T273 473Q201 473 170 428T139 298V243Q139 158 170 114T274 69Q346 69 376 113T407 243V298Z"  />
<glyph unicode="&#xF1;" horiz-adv-x="557" d="M489 20Q489 12 483 6T469 0H421Q413 0 407 6T401 20V349Q401 387 395 412T375 453T340 474T291 481Q259 481 225 470T156 442V20Q156 12 150 6T136 0H87Q79 0 74 6T68 20V530Q68 538 73 544T87 550H137Q145 550 150 544T156 530V511Q198 534 234 545T315 557Q406 557 447 503T489 349V20H489ZM460 731Q460 679 439 653T366 626Q349 626 333 631T302 647L241 696Q223 710 216 714T200 718Q182 718 176 707T169 672V651Q169 644 164 639T152 634H121Q114 634 110 639T105 651V672Q105 726 130 753T200 781Q217 781 231 775T260 757L331 701Q339 695 349 691T366 687Q381 687 388 696T396 731V754Q396 761 401 766T413 771H444Q451 771 455 766T460 754V731H460Z"  />
<glyph unicode="&#xF2;" horiz-adv-x="545" d="M495 237Q495 182 481 137T439 60T369 11T272 -7Q217 -7 176 10T106 60T64 137T50 237V313Q50 368 64 413T106 490T175 539T272 557Q327 557 369 540T439 490T481 413T495 313V237ZM407 313Q407 390 375 435T272 480Q202 480 170 436T138 313V237Q138 160 169 115T272 70Q342 70 374 114T407 237V313ZM330 630Q330 623 321 623H267Q259 623 255 626T244 638L131 764Q127 768 127 772Q127 779 138 779H204Q213 779 217 776T229 764L326 640Q330 636 330 630Z"  />
<glyph unicode="&#xF3;" horiz-adv-x="545" d="M495 237Q495 182 481 137T439 60T369 11T272 -7Q217 -7 176 10T106 60T64 137T50 237V313Q50 368 64 413T106 490T175 539T272 557Q327 557 369 540T439 490T481 413T495 313V237ZM407 313Q407 390 375 435T272 480Q202 480 170 436T138 313V237Q138 160 169 115T272 70Q342 70 374 114T407 237V313ZM426 772Q426 768 422 764L309 638Q302 630 298 627T286 623H232Q223 623 223 630Q223 636 227 640L325 764Q332 772 336 775T349 779H415Q426 779 426 772Z"  />
<glyph unicode="&#xF4;" horiz-adv-x="545" d="M495 237Q495 182 481 137T439 60T369 11T272 -7Q217 -7 176 10T106 60T64 137T50 237V313Q50 368 64 413T106 490T175 539T272 557Q327 557 369 540T439 490T481 413T495 313V237ZM407 313Q407 390 375 435T272 480Q202 480 170 436T138 313V237Q138 160 169 115T272 70Q342 70 374 114T407 237V313ZM440 630Q440 623 431 623H379Q371 623 367 626T356 638L274 735L191 638Q184 630 180 627T168 623H116Q107 623 107 630Q107 636 111 640L207 764Q214 772 218 775T231 779H316Q325 779 329 776T341 764L436 640Q440 636 440 630Z"  />
<glyph unicode="&#xF5;" horiz-adv-x="545" d="M495 237Q495 182 481 137T439 60T369 11T272 -7Q217 -7 176 10T106 60T64 137T50 237V313Q50 368 64 413T106 490T175 539T272 557Q327 557 369 540T439 490T481 413T495 313V237ZM407 313Q407 390 375 435T272 480Q202 480 170 436T138 313V237Q138 160 169 115T272 70Q342 70 374 114T407 237V313ZM456 731Q456 679 435 653T362 626Q345 626 329 631T298 647L237 696Q219 710 212 714T196 718Q178 718 172 707T165 672V651Q165 644 160 639T148 634H117Q110 634 106 639T101 651V672Q101 726 126 753T196 781Q213 781 227 775T256 757L327 701Q335 695 345 691T362 687Q377 687 384 696T392 731V754Q392 761 397 766T409 771H440Q447 771 451 766T456 754V731H456Z"  />
<glyph unicode="&#xF6;" horiz-adv-x="545" d="M495 237Q495 182 481 137T439 60T369 11T272 -7Q217 -7 176 10T106 60T64 137T50 237V313Q50 368 64 413T106 490T175 539T272 557Q327 557 369 540T439 490T481 413T495 313V237ZM407 313Q407 390 375 435T272 480Q202 480 170 436T138 313V237Q138 160 169 115T272 70Q342 70 374 114T407 237V313ZM398 660Q398 652 392 647T378 641H339Q331 641 325 646T319 660V741Q319 749 325 755T339 761H378Q386 761 392 755T398 741V660ZM223 660Q223 652 217 647T203 641H164Q156 641 150 646T144 660V741Q144 749 150 755T164 761H203Q211 761 217 755T223 741V660Z"  />
<glyph unicode="&#xF7;" horiz-adv-x="605" d="M345 527Q345 519 340 513T326 507H278Q270 507 264 513T258 527V615Q258 623 264 628T278 634H326Q334 634 339 629T345 615V527ZM515 371Q515 363 509 359T495 355H110Q102 355 96 359T90 371V411Q90 419 96 423T110 427H495Q503 427 509 423T515 411V371ZM345 162Q345 154 340 149T326 143H278Q270 143 264 148T258 162V251Q258 259 264 264T278 270H326Q334 270 339 265T345 251V162Z"  />
<glyph unicode="&#xF8;" horiz-adv-x="545" d="M528 575Q528 568 524 564L454 470Q495 408 495 313V237Q495 182 481 137T439 60T369 11T272 -7Q187 -7 133 35L89 -25Q84 -32 81 -33T73 -35H24Q16 -35 16 -27Q16 -20 20 -16L91 80Q50 142 50 237V313Q50 368 64 413T106 490T175 539T272 557Q358 557 412 515L454 573Q459 580 462 581T470 583H520Q528 583 528 575ZM362 449Q328 480 272 480Q201 480 170 436T138 313V237Q138 191 148 158L362 449ZM407 313Q407 355 396 391L182 101Q215 70 272 70Q343 70 375 114T407 237V313Z"  />
<glyph unicode="&#xF9;" horiz-adv-x="557" d="M489 20Q489 12 484 6T470 0H420Q412 0 407 6T401 20V39Q359 16 323 5T242 -7Q151 -7 110 47T68 201V530Q68 538 74 544T88 550H136Q144 550 150 544T156 530V201Q156 163 162 138T182 97T216 76T266 69Q298 69 332 80T401 108V530Q401 538 407 544T421 550H470Q478 550 483 544T489 530V20H489ZM336 630Q336 623 327 623H273Q265 623 261 626T250 638L137 764Q133 768 133 772Q133 779 144 779H210Q219 779 223 776T235 764L332 640Q336 636 336 630Z"  />
<glyph unicode="&#xFA;" horiz-adv-x="557" d="M489 20Q489 12 484 6T470 0H420Q412 0 407 6T401 20V39Q359 16 323 5T242 -7Q151 -7 110 47T68 201V530Q68 538 74 544T88 550H136Q144 550 150 544T156 530V201Q156 163 162 138T182 97T216 76T266 69Q298 69 332 80T401 108V530Q401 538 407 544T421 550H470Q478 550 483 544T489 530V20H489ZM434 772Q434 768 430 764L317 638Q310 630 306 627T294 623H240Q231 623 231 630Q231 636 235 640L333 764Q340 772 344 775T357 779H423Q434 779 434 772Z"  />
<glyph unicode="&#xFB;" horiz-adv-x="557" d="M489 20Q489 12 484 6T470 0H420Q412 0 407 6T401 20V39Q359 16 323 5T242 -7Q151 -7 110 47T68 201V530Q68 538 74 544T88 550H136Q144 550 150 544T156 530V201Q156 163 162 138T182 97T216 76T266 69Q298 69 332 80T401 108V530Q401 538 407 544T421 550H470Q478 550 483 544T489 530V20H489ZM446 630Q446 623 437 623H385Q377 623 373 626T362 638L280 735L197 638Q190 630 186 627T174 623H122Q113 623 113 630Q113 636 117 640L213 764Q220 772 224 775T237 779H322Q331 779 335 776T347 764L442 640Q446 636 446 630Z"  />
<glyph unicode="&#xFC;" horiz-adv-x="557" d="M489 20Q489 12 484 6T470 0H420Q412 0 407 6T401 20V39Q359 16 323 5T242 -7Q151 -7 110 47T68 201V530Q68 538 74 544T88 550H136Q144 550 150 544T156 530V201Q156 163 162 138T182 97T216 76T266 69Q298 69 332 80T401 108V530Q401 538 407 544T421 550H470Q478 550 483 544T489 530V20H489ZM405 660Q405 652 399 647T385 641H346Q338 641 332 646T326 660V741Q326 749 332 755T346 761H385Q393 761 399 755T405 741V660ZM230 660Q230 652 224 647T210 641H171Q163 641 157 646T151 660V741Q151 749 157 755T171 761H210Q218 761 224 755T230 741V660Z"  />
<glyph unicode="&#xFD;" horiz-adv-x="534" d="M495 533Q495 528 494 526L329 -50Q317 -91 304 -119T269 -164T219 -190T146 -198Q125 -198 102 -196T62 -189Q53 -187 47 -184T41 -173V-136Q41 -120 60 -120H63Q80 -122 107 -124T152 -126Q173 -126 189 -123T216 -110T236 -84T251 -41L261 0H247Q236 0 226 2T206 11T188 32T173 69L40 526Q39 528 39 533Q39 550 57 550H112Q118 550 122 545T129 534L247 100Q251 85 256 82T266 78H282L404 535Q406 541 411 545T423 550H479Q495 550 495 533ZM446 772Q446 768 442 764L329 638Q322 630 318 627T306 623H252Q243 623 243 630Q243 636 247 640L345 764Q352 772 356 775T369 779H435Q446 779 446 772Z"  />
<glyph unicode="&#xFE;" horiz-adv-x="541" d="M491 238Q491 120 437 57T273 -7Q250 -7 218 -4T156 4V-177Q156 -185 151 -190T137 -196H86Q78 -196 73 -191T68 -177V732Q68 740 74 746T88 752H136Q144 752 150 746T156 732V547Q185 552 215 554T273 557Q329 557 370 540T438 490T478 412T491 310V238ZM403 310Q403 349 397 381T375 435T335 470T273 483Q241 483 209 480T156 473V77Q181 72 215 70T273 67Q310 67 335 78T375 112T396 166T403 238V310Z"  />
<glyph unicode="&#xFF;" horiz-adv-x="534" d="M495 533Q495 528 494 526L329 -50Q317 -91 304 -119T269 -164T219 -190T146 -198Q125 -198 102 -196T62 -189Q53 -187 47 -184T41 -173V-136Q41 -120 60 -120H63Q80 -122 107 -124T152 -126Q173 -126 189 -123T216 -110T236 -84T251 -41L261 0H247Q236 0 226 2T206 11T188 32T173 69L40 526Q39 528 39 533Q39 550 57 550H112Q118 550 122 545T129 534L247 100Q251 85 256 82T266 78H282L404 535Q406 541 411 545T423 550H479Q495 550 495 533ZM404 660Q404 652 398 647T384 641H345Q337 641 331 646T325 660V741Q325 749 331 755T345 761H384Q392 761 398 755T404 741V660ZM229 660Q229 652 223 647T209 641H170Q162 641 156 646T150 660V741Q150 749 156 755T170 761H209Q217 761 223 755T229 741V660Z"  />
<glyph unicode="&#x131;" horiz-adv-x="247" d="M167 20Q167 12 161 6T147 0H99Q91 0 85 6T79 20V530Q79 538 85 544T99 550H147Q155 550 161 544T167 530V20H167Z"  />
<glyph unicode="&#x152;" horiz-adv-x="983" d="M928 15Q928 10 926 6T918 1Q898 -2 846 -5T723 -8Q651 -8 603 11T532 75Q496 33 445 13T331 -7Q272 -7 223 11T137 67T81 164T60 307V436Q60 519 80 578T137 676T222 732T331 750Q393 750 444 730T532 668Q555 711 603 730T723 750Q794 750 846 747T918 741Q923 740 925 736T928 727V680Q928 668 917 668H724Q684 668 660 663T623 645T606 612T601 564V425H908Q916 425 922 419T928 405V367Q928 359 922 353T908 347H601V178Q601 149 605 130T623 98T660 80T724 74H917Q928 74 928 62V15ZM510 440Q510 486 502 527T474 600T419 649T331 668Q290 668 257 656T200 615T165 543T152 436V307Q152 244 164 200T200 128T256 88T331 75Q384 75 418 94T473 144T502 218T510 306V440Z"  />
<glyph unicode="&#x153;" horiz-adv-x="899" d="M849 269Q849 247 830 247H495V237Q495 199 501 168T522 116T565 82T634 70Q678 70 727 73T812 81H817Q823 81 828 78T833 67V33Q833 23 829 18T813 10Q770 2 728 -2T634 -7Q580 -7 531 11T450 75Q422 36 378 15T272 -7Q217 -7 176 10T106 60T64 137T50 237V313Q50 368 64 413T106 490T175 539T272 557Q334 557 378 536T451 475Q478 514 522 535T629 557Q684 557 725 541T793 494T835 420T849 323V269ZM760 323Q760 408 728 444T629 480Q563 480 529 442T495 323V314H760V323ZM407 313Q407 390 375 435T272 480Q202 480 170 436T138 313V237Q138 160 169 115T272 70Q342 70 374 114T407 237V313Z"  />
<glyph unicode="&#x160;" horiz-adv-x="550" d="M500 193Q500 157 489 121T451 57T375 11T253 -7Q200 -7 160 -3T87 7Q74 9 71 13T68 25V65Q68 73 73 77T85 81H88Q105 79 126 78T170 77T214 76T253 75Q298 75 327 83T374 107T398 145T405 193Q405 212 399 227T379 258T342 289T285 327L188 386Q119 428 85 470T50 573Q50 664 112 707T289 750Q311 750 335 749T383 747T428 743T463 738Q480 735 480 721V678Q480 662 463 662H461Q428 664 381 666T289 668Q211 668 177 648T142 573Q142 538 168 512T251 452L343 397Q386 371 416 347T465 299T492 249T500 193ZM456 943Q456 937 452 933L355 809Q348 801 344 798T330 794H245Q236 794 232 797T221 809L123 933Q119 937 119 943Q119 950 128 950H182Q190 950 194 946T205 934L288 838L370 934Q377 942 381 946T393 950H447Q456 950 456 943Z"  />
<glyph unicode="&#x161;" horiz-adv-x="466" d="M416 138Q416 100 403 73T365 28T306 2T229 -7Q215 -7 196 -7T155 -4T111 0T71 8Q50 13 50 28V63Q50 70 55 74T68 78H72Q90 76 111 74T155 71T196 68T229 67Q278 67 303 82T328 138Q328 161 312 178T253 221L152 281Q106 309 78 342T50 424Q50 463 64 488T102 529T159 551T231 557Q273 557 312 554T387 544Q406 541 406 524V491Q406 474 389 474H386Q360 476 317 479T231 482Q189 482 164 472T138 424Q138 401 155 385T207 348L306 289Q368 252 392 217T416 138ZM396 772Q396 766 392 762L295 638Q288 630 284 627T270 623H185Q176 623 172 626T161 638L63 762Q59 766 59 772Q59 779 68 779H122Q130 779 134 775T145 763L228 667L310 763Q317 771 321 775T333 779H387Q396 779 396 772Z"  />
<glyph unicode="&#x178;" horiz-adv-x="583" d="M549 729Q549 724 546 718L391 370Q377 340 364 325T337 304V20Q337 12 332 6T319 0H264Q256 0 251 6T246 20V304Q232 309 219 324T192 370L38 718Q35 724 35 729Q35 743 52 743H113Q118 743 123 739T131 729L269 405Q277 388 282 384T292 379Q297 379 302 383T315 405L454 729Q456 734 460 738T471 743H532Q549 743 549 729ZM418 821Q418 813 412 808T398 802H359Q351 802 345 807T339 821V902Q339 910 345 916T359 922H398Q406 922 412 916T418 902V821ZM243 821Q243 813 237 808T223 802H184Q176 802 170 807T164 821V902Q164 910 170 916T184 922H223Q231 922 237 916T243 902V821Z"  />
<glyph unicode="&#x17D;" horiz-adv-x="597" d="M544 18Q544 10 538 5T524 0H139Q91 0 74 14T56 68Q56 81 59 98T71 126L429 647Q432 651 432 655Q432 662 422 662H90Q82 662 76 666T70 679V726Q70 734 76 738T90 743H446Q488 743 509 731T531 677Q531 663 527 646T515 618L158 97Q155 92 155 88Q155 82 165 82H524Q532 82 538 78T544 65V18H544ZM470 943Q470 937 466 933L369 809Q362 801 358 798T344 794H259Q250 794 246 797T235 809L137 933Q133 937 133 943Q133 950 142 950H196Q204 950 208 946T219 934L302 838L384 934Q391 942 395 946T407 950H461Q470 950 470 943Z"  />
<glyph unicode="&#x17E;" horiz-adv-x="482" d="M432 20Q432 12 426 6T412 0H110Q78 0 64 17T49 55V74Q49 95 54 108T72 139L330 460Q334 466 334 469Q334 476 324 476H81Q73 476 67 482T61 496V530Q61 538 67 544T81 550H375Q406 550 418 537T431 501V477Q431 461 426 449T408 422L145 93Q140 88 140 82Q140 74 148 74H412Q420 74 426 68T432 54V20H432ZM413 772Q413 766 409 762L312 638Q305 630 301 627T287 623H202Q193 623 189 626T178 638L80 762Q76 766 76 772Q76 779 85 779H139Q147 779 151 775T162 763L245 667L327 763Q334 771 338 775T350 779H404Q413 779 413 772Z"  />
<glyph unicode="&#x192;" horiz-adv-x="605" d="M548 739L544 707Q542 692 520 692H465Q429 692 413 678T391 624L364 428H507Q524 428 524 413V410L519 373Q518 365 512 360T497 355H354L304 -2Q298 -41 284 -67T250 -109T202 -132T144 -139Q118 -139 102 -138T75 -134Q58 -131 58 -120V-117L62 -85Q63 -70 86 -70H141Q177 -70 193 -56T215 -2L265 355H137Q129 355 124 359T119 371V373L124 410Q125 418 132 423T147 428H275L302 624Q313 702 356 731T462 761Q488 761 504 760T531 756Q548 753 548 742V739Z"  />
<glyph unicode="&#x2C6;" horiz-adv-x="373" d="M353 630Q353 623 344 623H292Q284 623 280 626T269 638L187 735L104 638Q97 630 93 627T81 623H29Q20 623 20 630Q20 636 24 640L120 764Q127 772 131 775T144 779H229Q238 779 242 776T254 764L349 640Q353 636 353 630Z"  />
<glyph unicode="&#x2DC;" horiz-adv-x="493" d="M419 731Q419 679 398 653T325 626Q308 626 292 631T261 647L200 696Q182 710 175 714T159 718Q141 718 135 707T128 672V651Q128 644 123 639T111 634H80Q73 634 69 639T64 651V672Q64 726 89 753T159 781Q176 781 190 775T219 757L290 701Q298 695 308 691T325 687Q340 687 347 696T355 731V754Q355 761 360 766T372 771H403Q410 771 414 766T419 754V731H419Z"  />
<glyph unicode="&#x2013;" horiz-adv-x="310" d="M325 263Q325 246 306 246H4Q-15 246 -15 263V302Q-15 310 -10 315T4 320H306Q314 320 319 315T325 302V263H325Z"  />
<glyph unicode="&#x2014;" horiz-adv-x="600" d="M615 263Q615 246 596 246H4Q-15 246 -15 263V302Q-15 310 -10 315T4 320H596Q604 320 609 315T615 302V263H615Z"  />
<glyph unicode="&#x2018;" horiz-adv-x="186" d="M157 742Q157 736 156 733L119 544Q115 525 99 525H40Q29 525 29 536Q29 541 30 544L91 733Q96 752 110 752H148Q157 752 157 742Z"  />
<glyph unicode="&#x2019;" horiz-adv-x="186" d="M157 741Q157 736 156 733L95 544Q90 525 76 525H38Q29 525 29 535Q29 541 30 544L67 733Q71 752 87 752H146Q157 752 157 741Z"  />
<glyph unicode="&#x201A;" horiz-adv-x="186" d="M169 118Q169 116 167 110L92 -79Q88 -89 85 -93T73 -98H32Q20 -98 20 -86Q20 -81 21 -79L78 110Q84 129 98 129H156Q169 129 169 118Z"  />
<glyph unicode="&#x201C;" horiz-adv-x="336" d="M307 742Q307 736 306 733L269 544Q265 525 249 525H190Q179 525 179 536Q179 541 180 544L241 733Q246 752 260 752H298Q307 752 307 742ZM157 742Q157 736 156 733L119 544Q115 525 99 525H40Q29 525 29 536Q29 541 30 544L91 733Q96 752 110 752H148Q157 752 157 742Z"  />
<glyph unicode="&#x201D;" horiz-adv-x="336" d="M307 741Q307 736 306 733L245 544Q240 525 226 525H188Q179 525 179 535Q179 541 180 544L217 733Q221 752 237 752H296Q307 752 307 741ZM157 741Q157 736 156 733L95 544Q90 525 76 525H38Q29 525 29 535Q29 541 30 544L67 733Q71 752 87 752H146Q157 752 157 741Z"  />
<glyph unicode="&#x201E;" horiz-adv-x="336" d="M349 118Q349 116 347 110L272 -79Q268 -89 265 -93T253 -98H212Q200 -98 200 -86Q200 -81 201 -79L258 110Q264 129 278 129H336Q349 129 349 118ZM169 118Q169 116 167 110L92 -79Q88 -89 85 -93T73 -98H32Q20 -98 20 -86Q20 -81 21 -79L78 110Q84 129 98 129H156Q169 129 169 118Z"  />
<glyph unicode="&#x2020;" horiz-adv-x="404" d="M367 495Q367 479 348 479H239V20Q239 12 235 6T223 0H166Q158 0 154 6T150 20V479H56Q37 479 37 495V540Q37 555 56 555H150V733Q150 741 154 746T167 752H223Q231 752 235 747T239 733V555H348Q367 555 367 540V495H367Z"  />
<glyph unicode="&#x2021;" horiz-adv-x="404" d="M367 285Q367 269 348 269H239V20Q239 12 235 6T223 0H166Q158 0 154 6T150 20V269H56Q37 269 37 285V330Q37 345 56 345H150V479H56Q37 479 37 495V540Q37 555 56 555H150V733Q150 741 154 746T167 752H223Q231 752 235 747T239 733V555H348Q367 555 367 540V495Q367 479 348 479H239V345H348Q367 345 367 330V285H367Z"  />
<glyph unicode="&#x2022;" horiz-adv-x="418" d="M368 367Q368 334 356 305T322 255T271 221T209 208Q176 208 147 220T97 254T63 305T50 367Q50 400 62 429T96 479T147 513T209 526Q242 526 271 514T321 480T355 429T368 367Z"  />
<glyph unicode="&#x2026;" horiz-adv-x="606" d="M548 19Q548 11 543 6T529 0H481Q473 0 467 5T461 19V113Q461 121 467 126T481 132H529Q537 132 542 127T548 113V19ZM347 19Q347 11 341 6T327 0H279Q271 0 266 5T260 19V113Q260 121 265 126T279 132H327Q335 132 341 127T347 113V19ZM145 19Q145 11 140 6T126 0H78Q70 0 64 5T58 19V113Q58 121 64 126T78 132H126Q134 132 139 127T145 113V19Z"  />
<glyph unicode="&#x2030;" horiz-adv-x="1134" d="M1089 155Q1089 73 1054 33T955 -7Q892 -7 856 33T820 155V248Q820 331 856 370T955 410Q1018 410 1053 371T1089 248V155ZM749 155Q749 73 714 33T615 -7Q552 -7 516 33T480 155V248Q480 331 516 370T615 410Q678 410 713 371T749 248V155ZM650 737Q650 734 645 724L227 16Q221 5 217 1T205 -4H153Q145 -4 145 2Q145 8 150 16L568 724Q575 735 579 739T591 743H642Q650 743 650 737ZM314 496Q314 414 279 374T180 334Q117 334 81 374T45 496V589Q45 672 81 711T180 750Q243 750 278 711T314 589V496ZM1027 248Q1027 305 1008 329T955 353Q921 353 902 329T882 248V155Q882 98 901 74T955 50Q989 50 1008 74T1027 155V248ZM687 248Q687 305 668 329T615 353Q581 353 562 329T542 248V155Q542 98 561 74T615 50Q649 50 668 74T687 155V248ZM252 589Q252 646 233 670T180 694Q146 694 127 670T107 589V496Q107 439 126 415T180 391Q214 391 233 415T252 496V589Z"  />
<glyph unicode="&#x2039;" horiz-adv-x="354" d="M300 79Q300 70 289 70H231Q225 70 221 72T210 80L41 249Q36 254 33 262T30 277Q30 283 33 291T41 305L210 474Q216 480 220 482T231 484H289Q300 484 300 475Q300 468 294 462L116 277L294 92Q300 86 300 79Z"  />
<glyph unicode="&#x203A;" horiz-adv-x="354" d="M324 277Q324 271 321 263T313 249L144 80Q134 70 123 70H65Q54 70 54 79Q54 86 60 92L238 277L60 462Q54 468 54 475Q54 484 65 484H123Q129 484 133 482T144 474L313 305Q318 300 321 292T324 277Z"  />
<glyph unicode="&#x20AC;" horiz-adv-x="605" d="M554 26Q554 17 548 13T534 6Q518 3 505 1T475 -3T438 -6T384 -7Q340 -7 293 6T206 50T138 133T105 265H72Q64 265 58 271T52 285V313Q52 321 58 327T72 333H104V414H72Q64 414 58 420T52 434V462Q52 470 58 476T72 482H105Q111 561 139 612T207 694T293 737T384 750Q432 750 467 745T536 734Q552 732 552 721V670Q552 665 550 662T540 659H537Q510 661 470 664T385 668Q351 668 320 659T263 628T220 570T197 482H487Q504 482 504 466Q504 465 504 464T503 462L496 434Q494 426 489 420T476 414H195V333H452Q467 333 467 318Q467 317 467 316T466 313L459 285Q457 277 452 271T439 265H196Q200 212 217 176T261 117T319 85T385 75Q429 75 468 78T534 83H538Q554 83 554 67V26H554Z"  />
<glyph unicode="&#x2122;" horiz-adv-x="790" d="M747 346Q747 336 737 336H696Q686 336 686 346V586Q686 616 683 635T670 667T638 684T581 689V346Q581 336 571 336H529Q519 336 519 346V689Q487 689 461 687T413 683V346Q413 336 404 336H363Q353 336 353 346V717Q353 735 368 736Q412 741 457 743T550 746Q602 746 639 740T700 717T735 668T747 586V346ZM317 703Q317 695 312 692T300 689H203V352Q203 346 199 341T187 336H155Q148 336 144 341T140 352V689H41Q35 689 30 692T25 703V728Q25 735 30 739T41 743H300Q306 743 311 739T317 728V703Z"  />

</font>
</defs>
</svg>
