<?xml  version="1.0" encoding="UTF-8"?>
<!DOCTYPE svg PUBLIC "-//W3C//DTD SVG 1.0//EN" "http://www.w3.org/TR/2001/REC-SVG-20010904/DTD/svg10.dtd" >
<svg xmlns="http://www.w3.org/2000/svg" >
<metadata>
<version>1.0</version>
<id><![CDATA[Neo Sans W01 Black]]></id>
<vendor>Monotype Imaging Inc.</vendor>
<credits>
<name>Fonts.com WebFonts</name>
<URL>http://webfonts.fonts.com</URL>
<role>Home of the Web fonts</role>
</credits>
<license>
<URL>http://webfonts.fonts.com/Legal</URL>
</license>
<copyright><![CDATA[Copyright 2004 Monotype Imaging Inc. All Rights Reserved. Neo Sans is designed by Sebastian Lester.]]></copyright>
<trademark><![CDATA[Neo Sans is a trademark of Monotype Imaging Inc. and may be registered in certain jurisdictions.]]></trademark>
<licensee>
<name></name>
</licensee>
</metadata>
<defs >
<font horiz-adv-x="577" id="30ec1a46-ee1b-4ded-a51c-5c4db7940e1b">
<font-face font-family="" panose-1="2 11 10 4 3 5 4 4 2 4" ascent="1025" descent="-216" units-per-em="1000" alphabetic="0">
</font-face>
<missing-glyph horiz-adv-x="0" />

<glyph unicode="&#xA;" />
<glyph unicode="&#xD;" horiz-adv-x="0" />
<glyph unicode=" " horiz-adv-x="252" />
<glyph unicode="!" horiz-adv-x="291" d="M245 753L220 262Q219 254 214 248T200 241H94Q86 241 80 247T72 262L47 753V754Q47 762 54 767T69 773H225Q233 773 239 768T245 754V753ZM239 20Q239 12 233 6T219 0H73Q65 0 59 6T53 20V159Q53 167 59 173T73 179H219Q227 179 233 173T239 159V20Z"  />
<glyph unicode="&quot;" horiz-adv-x="504" d="M485 762Q485 760 483 754L402 524Q398 514 395 510T383 505H260Q251 505 251 515Q251 517 251 519T252 524L309 754Q313 773 329 773H473Q485 773 485 762ZM247 762Q247 760 245 754L164 524Q160 514 157 510T145 505H22Q13 505 13 515Q13 517 13 519T14 524L71 754Q75 773 91 773H235Q247 773 247 762Z"  />
<glyph unicode="#" horiz-adv-x="715" d="M666 545L655 456Q653 443 637 443H559L545 298H624Q631 298 636 294T642 283V281L631 195Q630 189 625 185T613 180H535L521 19Q520 11 516 6T503 0H378Q370 0 366 5T362 17V19L375 180H279L265 19Q264 11 260 6T247 0H120Q113 0 109 5T104 17V19L118 180H41Q25 180 25 193V195L36 283Q37 289 41 293T53 298H129L142 443H65Q49 443 49 456V458L60 547Q62 561 78 561H152L166 724Q167 732 172 737T185 743H312Q319 743 323 738T327 726V724L312 561H409L424 724Q425 732 430 737T443 743H568Q576 743 579 738T583 726V724L568 561H649Q656 561 661 557T666 547V545ZM303 443L289 298H386L399 443H303Z"  />
<glyph unicode="$" horiz-adv-x="666" d="M598 220Q598 185 588 150T554 85T494 33T405 -1V-98Q405 -106 399 -112T385 -118H256Q248 -118 242 -112T236 -98V-5Q200 -2 170 3T113 17Q105 19 99 24T93 37V160Q93 168 98 174T112 180H114Q130 178 155 176T209 171T266 167T316 165Q353 165 366 178T379 216Q379 231 370 241T332 269L188 354Q153 375 130 398T94 446T75 498T69 554Q69 588 77 618T105 674T157 717T236 745V833Q236 841 242 847T256 853H385Q393 853 399 847T405 833V749Q451 745 493 740T557 728Q565 726 570 721T576 708V584Q576 576 571 571T558 565H556Q534 567 506 569T448 573T387 576T329 578Q302 578 291 570T280 544Q280 531 290 521T332 493L466 421Q539 382 568 333T598 220Z"  />
<glyph unicode="%" horiz-adv-x="867" d="M831 170Q831 80 792 37T679 -6Q605 -6 566 37T526 170V238Q526 328 565 371T679 414Q753 414 792 371T831 238V170ZM723 734Q723 731 719 723L304 22Q297 11 293 6T280 0H158Q145 0 145 13Q145 17 148 22L563 723Q570 734 575 738T589 743H712Q723 743 723 734ZM343 505Q343 415 304 372T190 329Q116 329 77 372T37 505V573Q37 663 76 705T190 748Q264 748 303 706T343 573V505ZM716 238Q716 262 714 277T706 301T695 312T679 315Q670 315 663 312T651 301T644 278T641 238V170Q641 146 643 131T651 107T663 96T679 93Q688 93 694 96T706 107T713 130T716 170V238ZM227 573Q227 597 225 612T217 636T206 647T190 650Q181 650 174 647T162 636T155 613T152 573V505Q152 481 154 466T162 442T174 430T190 427Q207 427 217 441T227 505V573Z"  />
<glyph unicode="&amp;" horiz-adv-x="746" d="M742 13Q742 0 728 0H557Q551 0 548 2T539 9L515 33Q478 13 433 2T334 -9Q270 -9 217 2T126 37T66 99T44 193V199Q44 236 53 264T80 316T121 359T174 396L165 406Q139 434 123 456T98 496T86 530T82 564V572Q82 609 95 641T138 699T214 738T328 753Q389 753 434 740T510 702T554 645T569 572V564Q569 530 561 505T537 460T500 422T452 387L416 362L520 252Q534 294 534 345V358Q534 366 539 372T553 378H666Q674 378 679 372T685 358V345Q685 288 671 236T629 139L736 26Q742 20 742 13ZM391 572Q391 594 376 608T328 622Q292 622 276 608T260 572V564Q260 544 267 527T301 483L308 476L332 492Q367 516 379 529T391 564V572ZM282 280Q256 263 248 243T240 199V193Q240 162 263 144T334 125Q379 125 414 140L282 280Z"  />
<glyph unicode="&apos;" horiz-adv-x="233" d="M247 762Q247 760 245 754L164 524Q160 514 157 510T145 505H22Q13 505 13 515Q13 517 13 519T14 524L71 754Q75 773 91 773H235Q247 773 247 762Z"  />
<glyph unicode="(" horiz-adv-x="389" d="M354 -185Q354 -195 342 -195H212Q201 -195 193 -192T178 -181Q146 -136 122 -89T81 13T56 129T47 264V283Q47 428 80 534T178 729Q184 737 192 740T212 743H342Q354 743 354 733Q354 727 349 717Q328 679 309 634T274 534T250 418T241 283V264Q241 192 250 130T274 14T308 -85T349 -169Q354 -179 354 -185Z"  />
<glyph unicode=")" horiz-adv-x="389" d="M343 264Q343 191 335 129T310 13T269 -88T212 -181Q206 -189 198 -192T178 -195H48Q36 -195 36 -185Q36 -179 41 -169Q62 -131 81 -86T116 13T140 129T149 264V283Q149 355 140 417T116 534T82 633T41 717Q36 727 36 733Q36 743 48 743H178Q189 743 197 740T212 729Q276 640 309 534T343 283V264H343Z"  />
<glyph unicode="*" horiz-adv-x="485" d="M456 561Q456 549 440 544L329 512L399 418Q405 410 405 403Q405 395 398 391L335 345Q330 342 325 342Q316 342 309 352L243 449L177 352Q170 342 161 342Q155 342 151 345L87 391Q80 395 80 403Q80 410 86 418L156 512L46 544Q39 546 34 550T29 561Q29 564 30 566L55 642Q58 652 68 652Q71 652 73 652T79 650L190 613L187 728V729Q187 737 191 743T203 749H283Q291 749 294 743T298 729V728L297 613L406 650Q409 651 411 651T417 652Q427 652 430 642L455 566Q456 564 456 561Z"  />
<glyph unicode="+" horiz-adv-x="666" d="M580 336Q580 328 574 324T560 320H404V165Q404 157 400 151T388 145H278Q270 145 266 151T262 165V320H107Q99 320 93 324T87 336V446Q87 454 93 458T107 462H262V618Q262 626 266 632T278 638H388Q396 638 400 632T404 618V462H560Q568 462 574 458T580 446V336H580Z"  />
<glyph unicode="&#x2c;" horiz-adv-x="291" d="M265 165Q265 161 264 159L160 -79Q156 -87 151 -93T137 -99H33Q25 -99 20 -95T14 -83Q14 -82 14 -81T15 -79L82 159Q84 167 89 173T103 179H250Q265 179 265 165Z"  />
<glyph unicode="-" horiz-adv-x="282" d="M258 250Q258 242 252 237T238 231H45Q37 231 31 236T25 250V352Q25 360 31 365T45 371H238Q246 371 252 366T258 352V250H258Z"  />
<glyph unicode="." horiz-adv-x="291" d="M239 20Q239 12 233 6T218 0H73Q65 0 59 6T52 20V159Q52 167 58 173T73 179H218Q226 179 232 173T239 159V20H239Z"  />
<glyph unicode="/" horiz-adv-x="425" d="M413 727Q413 726 413 725T412 723L207 22Q205 14 200 7T186 0H33Q25 0 18 5T11 18Q11 20 11 20T12 22L218 723Q220 731 226 737T240 743H393Q401 743 407 739T413 727Z"  />
<glyph unicode="0" horiz-adv-x="666" d="M611 323Q611 236 593 174T539 71T452 11T333 -9Q199 -9 127 70T55 323V420Q55 593 127 673T333 753Q466 753 538 673T611 420V323ZM407 420Q407 471 402 502T386 551T363 575T333 581Q317 581 304 575T280 552T265 503T259 420V323Q259 272 264 241T280 192T303 168T333 162Q349 162 362 168T386 191T401 240T407 323V420Z"  />
<glyph unicode="1" horiz-adv-x="666" d="M232 171V541L115 499Q107 496 103 496Q93 496 93 508V650Q93 662 105 667L277 739Q286 743 300 743H415Q434 743 434 724V171H553Q561 171 567 165T573 151V20Q573 12 567 6T553 0H112Q104 0 98 6T92 20V151Q92 159 98 165T112 171H232Z"  />
<glyph unicode="2" horiz-adv-x="666" d="M592 555Q592 496 565 451T487 372L406 318Q377 299 351 282T304 248T271 213T259 174V171H561Q569 171 575 165T581 151V20Q581 12 575 6T561 0H95Q87 0 81 6T75 20V126Q75 209 108 271T194 372L280 436Q320 466 342 483T376 510T389 528T392 547Q392 559 389 567T375 581T346 589T298 592Q250 592 200 588T103 580H101Q93 580 88 586T83 600V697Q83 705 88 709T102 716Q147 732 205 742T327 753Q399 753 449 741T531 704T577 642T592 555Z"  />
<glyph unicode="3" horiz-adv-x="666" d="M590 216Q590 157 571 115T517 45T431 4T317 -9Q286 -9 255 -6T194 1T139 12T96 25Q88 28 82 32T76 45V143Q76 151 81 156T94 162H96Q119 160 146 159T200 156T254 153T304 152Q350 152 369 169T389 216V232Q389 246 386 259T375 281T352 297T311 303H145Q137 303 131 309T125 323V430Q125 438 131 443T145 449H311Q335 449 350 455T373 472T385 496T389 523V539Q389 569 370 580T312 591Q260 591 205 588T101 580H99Q91 580 86 585T80 599V697Q80 705 86 709T101 717Q119 724 142 730T193 742T251 750T312 753Q375 753 426 743T513 709T568 647T588 552V538Q588 496 566 452T497 379Q539 357 564 320T590 232V216H590Z"  />
<glyph unicode="4" horiz-adv-x="666" d="M623 175Q623 167 617 161T603 155H545V20Q545 12 539 6T525 0H361Q353 0 348 6T342 20V155H63Q55 155 49 161T43 175V288Q43 304 54 318L378 734Q383 740 388 741T402 743H525Q533 743 539 737T545 723V309H603Q611 309 617 303T623 289V175ZM350 499Q350 503 348 503Q347 503 345 501L207 318Q204 313 204 312Q204 309 209 309H350V499Z"  />
<glyph unicode="5" horiz-adv-x="666" d="M587 238Q587 176 567 130T511 52T422 6T303 -9Q251 -9 199 -1T101 24Q93 27 87 31T80 45V144Q80 152 85 157T99 163H101Q119 161 143 159T192 156T237 153T268 152Q304 152 326 157T360 172T376 199T380 238V248Q380 285 358 301T274 317H99Q82 317 82 333V335L113 724Q114 732 119 737T133 743H547Q555 743 561 738T567 724V600Q567 592 561 587T547 581H275L265 471H306Q452 471 519 416T587 248V238H587Z"  />
<glyph unicode="6" horiz-adv-x="666" d="M606 248Q606 189 589 142T538 61T453 9T335 -9Q204 -9 133 62T61 270V476Q61 551 82 603T142 689T230 738T340 753Q410 753 461 745T549 727Q563 723 567 718T571 703V598Q571 577 553 577H548Q530 580 509 582T463 587T415 590T369 591Q336 591 315 586T281 568T265 533T260 476V470Q267 471 280 473T307 476T336 479T362 480Q423 480 469 469T545 433T591 365T606 259V248ZM407 259Q407 285 402 301T388 326T364 338T330 341Q312 341 293 339T260 335V270Q260 231 264 207T277 169T300 150T335 145Q351 145 364 149T386 164T401 196T407 248V259Z"  />
<glyph unicode="7" horiz-adv-x="666" d="M582 625Q582 613 578 602T568 580L312 20Q308 11 303 6T289 0H111Q101 0 99 7T100 22L357 566Q362 575 360 578T349 581H105Q97 581 91 586T84 600V724Q84 732 90 737T105 743H555Q566 743 574 736T582 717V625H582Z"  />
<glyph unicode="8" horiz-adv-x="666" d="M613 212Q613 162 596 122T544 52T458 7T339 -9H327Q260 -9 209 7T123 52T71 121T53 212V228Q53 277 74 317T133 385Q98 410 78 444T57 529V547Q57 646 124 699T327 753H339Q474 753 541 700T609 547V529Q609 479 589 445T533 385Q570 357 591 317T613 228V212ZM417 529Q417 558 400 581T339 605H327Q283 605 266 582T249 529V523Q249 490 268 471T322 452H344Q379 452 398 471T417 523V529ZM417 232Q417 265 400 289T344 314H322Q283 314 266 290T249 232V221Q249 185 269 162T327 139H339Q377 139 397 162T417 221V232Z"  />
<glyph unicode="9" horiz-adv-x="666" d="M606 268Q606 193 585 141T525 55T436 6T327 -9Q257 -9 206 -1T118 17Q104 21 100 26T96 41V146Q96 160 101 164T119 167Q156 162 204 158T298 153Q331 153 352 158T386 176T402 211T407 268V274Q400 272 387 271T360 268T331 265T305 264Q243 264 198 275T122 311T76 379T61 485V496Q61 554 78 601T129 683T214 735T332 753Q463 753 534 682T606 474V268ZM407 474Q407 513 403 537T390 575T367 594T332 599Q316 599 303 595T281 580T266 548T260 496V485Q260 459 265 443T279 418T303 406T337 403Q355 403 374 405T407 409V474Z"  />
<glyph unicode=":" horiz-adv-x="291" d="M239 391Q239 383 233 377T218 371H73Q65 371 59 377T52 391V530Q52 538 58 544T73 550H218Q226 550 232 544T239 530V391ZM239 20Q239 12 233 6T218 0H73Q65 0 59 6T52 20V159Q52 167 58 173T73 179H218Q226 179 232 173T239 159V20Z"  />
<glyph unicode=";" horiz-adv-x="291" d="M239 391Q239 383 233 377T218 371H72Q64 371 58 377T52 391V530Q52 538 58 544T72 550H218Q226 550 232 544T239 530V391ZM223 178Q231 178 234 172T234 158L131 -80Q127 -88 123 -94T111 -100H3Q-5 -100 -11 -96T-15 -80L52 158Q54 166 58 172T73 178H223Z"  />
<glyph unicode="&lt;" horiz-adv-x="666" d="M562 148Q562 136 550 136H382Q366 136 356 146L122 359Q104 375 104 391Q104 409 122 424L356 636Q362 641 368 644T382 647H550Q562 647 562 635Q562 629 556 623L299 391L556 160Q562 154 562 148Z"  />
<glyph unicode="=" horiz-adv-x="666" d="M569 471Q569 463 563 459T549 455H117Q109 455 103 459T97 471V581Q97 589 103 593T117 597H549Q557 597 563 593T569 581V471ZM569 201Q569 193 563 189T549 185H117Q109 185 103 189T97 201V311Q97 319 103 323T117 327H549Q557 327 563 323T569 311V201Z"  />
<glyph unicode="&gt;" horiz-adv-x="666" d="M562 391Q562 375 544 359L310 146Q300 136 284 136H116Q104 136 104 148Q104 154 110 160L368 391L110 623Q104 629 104 635Q104 647 116 647H284Q292 647 298 644T310 636L544 424Q562 409 562 391Z"  />
<glyph unicode="?" horiz-adv-x="492" d="M456 601Q456 537 405 464L299 311Q288 296 284 286T278 260Q277 254 272 250T262 246H123Q113 246 113 259V294Q113 330 119 353T142 407L223 545Q228 553 231 560T234 575Q234 590 224 596T189 602Q179 602 161 601T123 598T85 594T58 591Q38 588 38 611V728Q38 745 57 751Q90 762 133 769T223 776Q278 776 321 768T395 740T440 689T456 610V601ZM288 20Q288 12 282 6T267 0H121Q113 0 107 6T101 20V159Q101 167 107 173T121 179H267Q275 179 281 173T288 159V20Z"  />
<glyph unicode="@" horiz-adv-x="778" d="M749 358Q749 270 720 210T640 113T521 59T374 42Q336 42 303 50T245 75T206 118T192 182Q192 193 193 209T195 235L202 323Q206 370 223 403T267 456T330 486T408 496Q440 496 475 492T544 480Q558 477 565 471T571 446L543 153Q571 159 593 176T629 221T651 282T659 358Q659 402 646 443T605 516T532 567T424 586Q161 586 138 344L123 179Q122 170 122 161T122 144Q122 99 135 64T178 5T255 -31T369 -44Q407 -44 447 -42T522 -36Q529 -35 530 -37T532 -47V-92Q532 -103 522 -104Q489 -108 451 -111T369 -115Q297 -115 235 -100T128 -52T56 28T30 144Q30 152 30 161T31 179L48 350Q55 424 83 482T159 581T273 643T424 665Q507 665 568 639T669 571T729 473T749 358ZM433 383Q422 385 415 386T398 387Q365 387 351 374T333 319L322 209Q321 204 321 201T321 193Q321 167 335 159T383 150Q391 150 394 150T412 151L433 383Z"  />
<glyph unicode="A" horiz-adv-x="692" d="M483 0Q472 0 469 5T463 19L435 158H257L229 19Q227 11 224 6T209 0H36Q25 0 22 6T20 21L154 633Q162 670 180 693T223 730T279 747T346 752Q382 752 413 748T469 730T512 694T538 633L672 21Q674 12 671 6T657 0H483ZM357 572Q355 579 354 582T346 586Q339 586 338 583T335 572L286 318H406L357 572Z"  />
<glyph unicode="B" horiz-adv-x="689" d="M646 222Q646 150 618 105T543 34T439 0T320 -9Q301 -9 275 -9T223 -7T171 -3T128 3Q110 6 98 10T79 23T68 45T65 79V666Q65 706 78 721T127 741Q143 744 167 746T219 749T272 752T317 753Q391 753 451 743T553 709T619 644T642 539V522Q642 474 621 437T565 380Q599 360 622 322T646 235V222ZM446 524Q446 558 427 573T355 588Q348 588 334 588T306 588T280 587T265 587V445H362Q411 445 428 463T446 508V524ZM450 237Q450 267 431 288T362 309H265V156H347Q406 156 428 176T450 228V237Z"  />
<glyph unicode="C" horiz-adv-x="555" d="M517 31Q517 21 512 17T495 9Q475 2 439 -3T355 -9Q286 -9 229 10T132 69T69 172T47 320V423Q47 509 69 571T131 673T229 733T355 752Q403 752 439 747T495 734Q507 730 512 727T517 712V584Q517 573 513 568T496 565Q465 568 432 571T356 574Q336 574 317 569T284 547T262 501T253 423V320Q253 273 261 244T284 198T316 175T356 169Q399 169 431 171T496 178Q510 180 513 174T517 159V31H517Z"  />
<glyph unicode="D" horiz-adv-x="696" d="M651 317Q651 233 628 172T563 70T461 11T326 -9Q254 -9 195 -4T97 8Q80 11 73 19T65 47V697Q65 717 72 725T97 736Q136 743 195 748T326 753Q400 753 460 734T562 674T628 573T651 427V317ZM446 427Q446 472 439 501T416 548T379 572T326 579Q317 579 304 579T269 578V165Q272 165 279 165T295 164T312 164T326 164Q356 164 378 171T416 195T438 242T446 317V427Z"  />
<glyph unicode="E" horiz-adv-x="585" d="M532 23Q532 6 512 3Q483 -1 436 -5T315 -9Q267 -9 221 -2T139 30T81 98T59 215V529Q59 601 81 645T139 713T221 745T315 753Q388 753 435 749T512 741Q532 738 532 721V599Q532 591 526 585T512 579H310Q283 579 273 569T262 529V456H508Q516 456 522 450T528 436V318Q528 310 522 304T508 298H262V215Q262 186 272 176T310 165H512Q520 165 526 159T532 145V23H532Z"  />
<glyph unicode="F" horiz-adv-x="580" d="M527 598Q527 590 521 584T507 578H305Q278 578 268 568T257 528V456H503Q511 456 517 450T523 436V318Q523 310 517 304T503 298H257V20Q257 12 251 6T237 0H74Q66 0 60 6T54 20V528Q54 600 76 644T134 712T216 744T310 752Q383 752 430 748T507 740Q527 737 527 720V598H527Z"  />
<glyph unicode="G" horiz-adv-x="657" d="M599 38Q599 27 595 22T578 15Q535 6 478 -1T347 -9Q317 -9 283 -4T216 16T151 53T97 113T59 200T45 319V424Q45 527 75 591T151 691T253 740T361 753Q439 753 494 744T580 726Q591 723 595 720T599 707V581Q599 570 595 567T582 565Q553 567 499 570T389 574Q353 574 327 568T284 545T259 499T251 424V318Q251 268 260 238T284 191T315 170T347 165Q376 165 402 168V373Q402 381 407 387T421 393H579Q587 393 593 387T599 373V38H599Z"  />
<glyph unicode="H" horiz-adv-x="746" d="M681 20Q681 12 675 6T661 0H498Q490 0 484 6T478 20V292H269V20Q269 12 263 6T249 0H86Q78 0 72 6T65 20V724Q65 732 71 737T86 743H249Q257 743 263 738T269 724V468H478V724Q478 732 484 737T498 743H661Q669 743 675 738T681 724V20H681Z"  />
<glyph unicode="I" horiz-adv-x="334" d="M269 20Q269 12 263 6T249 0H85Q77 0 71 6T65 20V724Q65 732 71 737T85 743H249Q257 743 263 738T269 724V20H269Z"  />
<glyph unicode="J" horiz-adv-x="334" d="M269 2Q269 -56 256 -93T220 -153T164 -183T92 -192Q71 -192 48 -191T1 -185Q-11 -183 -15 -178T-19 -165V-56Q-19 -48 -13 -42T1 -36H38Q55 -36 60 -27T65 2V723Q65 731 71 737T86 743H249Q257 743 263 737T269 723V2H269Z"  />
<glyph unicode="K" horiz-adv-x="713" d="M689 11Q689 0 676 0H466Q457 0 453 5T445 17L269 336V20Q269 12 263 6T249 0H86Q78 0 72 6T65 20V724Q65 732 71 737T86 743H249Q257 743 263 738T269 724V407L461 727Q465 734 470 738T483 743H675Q689 743 689 732Q689 726 685 721L467 377L686 21Q689 16 689 11Z"  />
<glyph unicode="L" horiz-adv-x="522" d="M499 23Q499 6 479 3Q465 0 447 -2T407 -5T364 -8T322 -9Q274 -9 228 -2T146 30T87 98T65 215V723Q65 731 71 737T86 743H249Q257 743 263 737T269 723V215Q269 186 279 176T317 165H479Q487 165 493 159T499 145V23H499Z"  />
<glyph unicode="M" horiz-adv-x="841" d="M484 249Q472 230 455 230H386Q369 230 357 249L275 386Q270 393 269 395T264 397Q260 397 260 387V17Q260 11 256 6T246 0H81Q75 0 70 2T65 17V706Q65 721 76 732T102 743H213Q232 743 244 735T264 713L409 460Q416 448 420 448Q425 448 432 460L577 713Q585 727 597 735T628 743H739Q754 743 765 732T776 706V17Q776 9 771 5T759 0H595Q589 0 585 3T580 17V387Q580 397 576 397Q573 397 572 395T566 386L484 249Z"  />
<glyph unicode="N" horiz-adv-x="746" d="M681 37Q681 22 670 11T644 0H510Q484 0 468 27L271 362Q266 370 261 370Q256 370 256 361V20Q256 12 250 6T236 0H86Q78 0 72 6T65 20V706Q65 721 76 732T102 743H234Q248 743 257 736T274 714L477 369Q482 360 486 360Q488 360 489 361T491 369V723Q491 731 497 737T511 743H661Q669 743 675 737T681 723V37H681Z"  />
<glyph unicode="O" horiz-adv-x="708" d="M661 320Q661 228 637 166T570 64T472 8T354 -9Q292 -9 236 8T138 64T72 165T47 320V423Q47 514 71 577T138 679T236 735T354 753Q416 753 472 736T570 679T636 577T661 423V320ZM455 423Q455 504 431 539T354 574Q301 574 277 539T253 423V320Q253 239 277 205T354 170Q407 170 431 204T455 320V423Z"  />
<glyph unicode="P" horiz-adv-x="677" d="M646 494Q646 420 618 372T546 294T446 254T337 242Q320 242 303 243T266 245V20Q266 12 260 6T246 0H86Q78 0 72 5T65 18V674Q65 710 78 722T123 740Q142 743 167 745T220 749T278 752T334 753Q390 753 445 742T545 703T618 626T646 502V494ZM444 502Q444 546 416 564T337 583Q334 583 324 583T301 583T279 582T266 582V412Q268 412 278 412T301 411T324 411T337 411Q444 411 444 494V502Z"  />
<glyph unicode="Q" horiz-adv-x="707" d="M660 320Q660 248 644 194T600 100T534 37T450 2V-17Q450 -30 454 -33T468 -36H551Q562 -36 569 -40T576 -52V-154Q576 -171 552 -177Q526 -184 495 -188T428 -192Q395 -192 365 -184T311 -156T273 -103T259 -18V2Q213 13 175 36T108 98T63 192T47 320V423Q47 514 71 577T138 679T236 735T354 752Q416 752 471 735T569 679T635 577T660 423V320ZM455 423Q455 504 431 539T354 574Q301 574 277 539T252 423V320Q252 239 276 204T354 169Q407 169 431 204T455 320V423Z"  />
<glyph unicode="R" horiz-adv-x="708" d="M673 15Q673 0 656 0H472Q464 0 460 6T452 20L325 264Q314 264 303 264T268 265V20Q268 12 262 6T248 0H86Q78 0 72 6T65 20V674Q65 710 78 722T123 740Q138 742 163 744T217 749T276 752T334 753Q404 753 461 741T560 701T624 626T647 511V495Q647 455 637 423T610 367T571 325T525 298L670 26Q673 20 673 15ZM445 511Q445 582 345 582Q342 582 334 582T315 582T292 582T268 580V421Q270 421 280 421T304 420T328 420T341 420Q399 420 422 439T445 494V511Z"  />
<glyph unicode="S" horiz-adv-x="607" d="M568 220Q568 178 553 137T504 64T416 11T285 -9Q223 -9 173 -2T83 17Q75 19 69 24T62 37V160Q62 181 83 180Q99 178 125 176T181 171T238 167T286 165Q323 165 336 178T349 216Q349 231 340 241T302 269L158 354Q123 375 100 398T64 446T45 498T39 554Q39 595 51 631T94 694T174 737T301 753Q331 753 364 751T428 745T486 737T528 728Q535 726 540 722T546 709V584Q546 576 542 570T526 565Q511 566 484 568T424 572T359 576T299 578Q271 578 260 569T249 544Q249 530 259 520T301 493L436 421Q509 382 538 333T568 220Z"  />
<glyph unicode="T" horiz-adv-x="594" d="M570 596Q570 588 564 583T549 577H400V20Q400 12 394 6T380 0H217Q209 0 203 6T197 20V577H45Q37 577 31 582T25 596V724Q25 732 31 737T45 743H549Q557 743 563 738T570 724V596H570Z"  />
<glyph unicode="U" horiz-adv-x="731" d="M668 282Q668 191 643 135T575 46T479 3T365 -9Q306 -9 252 2T155 46T88 134T63 282V723Q63 731 69 737T84 743H246Q254 743 260 737T266 723V282Q266 214 289 188T365 162Q418 162 441 188T465 282V723Q465 731 471 737T485 743H647Q655 743 661 737T668 723V282H668Z"  />
<glyph unicode="V" horiz-adv-x="716" d="M669 743Q680 743 683 737T684 723L550 111Q542 74 525 51T482 14T426 -4T358 -9Q322 -9 291 -4T234 14T192 50T166 111L32 723Q30 731 33 737T48 743H221Q232 743 236 738T242 724L347 171Q349 164 350 161T358 157Q364 157 366 160T370 171L475 724Q477 732 482 737T495 743H669H669Z"  />
<glyph unicode="W" horiz-adv-x="917" d="M880 743Q897 743 896 730L808 85Q804 59 798 43T781 17T758 4T728 0H625Q592 0 575 17T544 77L470 329Q468 335 467 336T462 338Q458 338 457 337T453 329L379 77Q366 34 349 17T298 0H195Q178 0 165 3T142 16T126 42T115 85L27 730Q26 738 30 740T43 743H213Q221 743 224 738T228 724L277 281Q279 268 284 268Q289 268 292 281L350 483Q357 508 371 517T409 526H514Q537 526 551 517T573 483L631 281Q634 268 639 268Q644 268 646 281L695 724Q696 732 699 737T710 743H880H880Z"  />
<glyph unicode="X" horiz-adv-x="736" d="M705 11Q705 0 692 0H489Q480 0 475 5T464 18L356 196L260 20Q255 12 250 6T236 0H49Q43 0 40 3T36 12Q36 14 38 20L242 388L40 724Q38 728 38 731Q38 743 51 743H255Q263 743 268 737T279 724L382 554L470 724Q474 731 480 737T494 743H682Q695 743 695 731Q695 728 693 724L492 370L702 20Q705 15 705 11Z"  />
<glyph unicode="Y" horiz-adv-x="682" d="M662 730Q662 728 660 722L513 377Q497 340 480 320T442 291V20Q442 12 436 6T422 0H259Q251 0 246 6T240 20V291Q220 299 203 319T169 377L22 722Q20 728 20 730Q20 743 34 743H208Q223 743 227 738T235 724L331 459Q335 449 341 449Q347 449 351 459L447 724Q450 732 454 737T474 743H648Q662 743 662 730Z"  />
<glyph unicode="Z" horiz-adv-x="632" d="M577 20Q577 12 571 6T557 0H86Q73 0 64 6T55 26V131Q55 142 59 153T73 180L312 549Q316 556 316 561Q316 568 305 568H86Q78 568 72 574T66 588V724Q66 732 72 737T86 743H542Q552 743 560 740T568 727V601Q568 593 563 577T536 528L318 194Q314 189 314 183Q314 175 326 175H557Q565 175 571 170T577 156V20H577Z"  />
<glyph unicode="[" horiz-adv-x="394" d="M361 -176Q361 -194 342 -194H74Q66 -194 62 -189T57 -175V724Q57 732 61 737T74 743H341Q349 743 355 738T361 725V612Q361 604 355 599T341 594H251V-45H342Q361 -45 361 -63V-176H361Z"  />
<glyph unicode="\" horiz-adv-x="425" d="M414 15Q414 8 407 3T392 -2H239Q231 -2 226 4T219 19L12 723Q12 724 12 725T11 727Q11 734 17 738T32 743H185Q193 743 199 737T207 723L413 19Q413 18 413 18T414 15Z"  />
<glyph unicode="]" horiz-adv-x="394" d="M337 -175Q337 -183 333 -188T320 -194H52Q33 -194 33 -176V-63Q33 -45 52 -45H143V594H53Q45 594 39 599T33 612V725Q33 733 39 738T53 743H320Q328 743 332 738T337 724V-175H337Z"  />
<glyph unicode="^" horiz-adv-x="666" d="M607 576Q607 566 595 566H436Q422 566 417 569T404 580L333 657L262 580Q255 572 250 569T230 566H72Q60 566 60 576Q60 581 65 588L174 735Q182 746 188 749T210 753H456Q471 753 477 750T492 735L602 588Q607 581 607 576Z"  />
<glyph unicode="_" horiz-adv-x="561" d="M593 -108Q593 -116 587 -120T573 -124H-11Q-19 -124 -25 -120T-31 -108V-50Q-31 -42 -25 -38T-11 -34H573Q581 -34 587 -38T593 -50V-108H593Z"  />
<glyph unicode="`" horiz-adv-x="472" d="M314 640Q314 633 305 633H176Q165 633 162 636T152 644L26 764Q22 768 22 772Q22 779 33 779H191Q202 779 207 776T219 764L310 650Q314 646 314 640Z"  />
<glyph unicode="a" horiz-adv-x="575" d="M525 20Q525 12 519 6T505 0H366Q358 0 352 6T346 20V41Q317 20 281 6T203 -9Q173 -9 143 0T88 30T48 85T32 170V182Q32 272 98 308T290 345H333V374Q333 411 319 421T267 432Q246 432 220 431T170 429T124 427T93 425Q80 424 76 430T71 445V542Q71 553 76 558T91 566Q103 570 124 574T171 581T223 587T274 590Q328 590 374 580T453 544T506 477T525 374V20ZM339 241H290Q252 241 236 228T220 183V173Q220 147 235 138T271 129Q289 129 307 133T339 144V241Z"  />
<glyph unicode="b" horiz-adv-x="616" d="M578 252Q578 125 509 58T315 -9Q247 -9 189 -1T91 16Q68 21 62 28T55 48V753Q55 761 62 767T77 773H227Q235 773 241 767T247 753V584Q263 586 283 588T315 591Q381 591 430 573T513 520T562 438T578 330V252ZM386 330Q386 374 372 403T315 432Q297 432 280 431T247 428V154Q261 152 276 151T315 149Q357 149 371 178T386 252V330Z"  />
<glyph unicode="c" horiz-adv-x="474" d="M436 28Q436 18 431 14T416 7Q390 1 357 -4T279 -9Q164 -9 102 60T40 253V328Q40 451 102 521T279 591Q324 591 359 586T416 575Q426 573 431 569T436 554V441Q436 432 431 426T415 422Q389 424 363 426T300 429Q268 429 250 407T232 328V253Q232 197 250 175T300 153Q337 153 363 154T415 159Q436 162 436 140V28H436Z"  />
<glyph unicode="d" horiz-adv-x="616" d="M561 48Q561 35 555 28T526 16Q487 8 429 0T302 -9Q178 -9 109 57T39 252V330Q39 390 55 438T104 520T186 572T302 591Q314 591 334 589T370 584V753Q370 761 376 767T390 773H539Q547 773 554 767T561 753V48ZM370 428Q355 430 338 431T302 432Q260 432 245 404T230 330V252Q230 207 245 178T302 149Q324 149 340 150T370 154V428Z"  />
<glyph unicode="e" horiz-adv-x="602" d="M562 259Q562 249 556 243T541 237H230V235Q230 195 250 172T325 149Q345 149 371 150T425 152T476 154T515 157Q527 158 532 155T537 140V50Q537 38 533 32T517 22Q469 6 416 -1T300 -9Q249 -9 202 5T119 50T62 131T40 253V319Q40 451 111 521T306 591Q372 591 420 571T499 515T546 429T562 319V259ZM378 346Q378 391 360 416T304 442Q268 442 249 417T230 346V343H378V346Z"  />
<glyph unicode="f" horiz-adv-x="432" d="M399 460Q399 452 393 446T379 440H303V20Q303 12 297 6T283 0H131Q123 0 117 6T111 20V440L45 455Q37 457 31 462T24 476V560Q24 568 30 575T45 582H111V609Q111 665 123 700T159 756T213 783T284 791Q334 791 377 783Q386 781 392 776T398 763V668Q398 660 392 655T377 649H335Q316 649 310 641T303 609V582H379Q387 582 393 576T399 562V460H399Z"  />
<glyph unicode="g" horiz-adv-x="614" d="M598 487Q598 470 578 465L550 457Q558 443 563 424T568 391V380Q568 279 500 234T310 189Q280 189 254 192T212 201Q199 192 199 180Q199 172 203 167T222 158L334 135Q382 125 426 114T505 86T559 41T580 -29V-36Q580 -124 510 -164T301 -205Q173 -205 107 -160T41 -36V-29Q41 -7 54 24T97 78Q78 92 64 111T50 166Q50 201 64 220T97 257Q80 272 71 288T57 321T51 353T49 380V391Q49 485 113 533T310 582H575Q585 582 591 575T598 558V487ZM382 391Q382 417 367 433T310 450Q268 450 253 434T238 391V380Q238 368 241 358T251 339T273 327T310 322Q352 322 367 338T382 380V391ZM380 -29Q380 -22 378 -17T366 -6T340 5T294 17L234 30Q227 21 223 5T219 -29V-36Q219 -56 237 -68T301 -80Q326 -80 342 -77T366 -67T377 -53T380 -36V-29Z"  />
<glyph unicode="h" horiz-adv-x="632" d="M578 20Q578 12 572 6T558 0H406Q398 0 392 6T386 20V365Q386 405 370 418T323 431Q288 431 247 409V22Q247 14 242 7T227 0H77Q68 0 62 7T55 22V753Q55 761 61 767T75 773H227Q235 773 241 767T247 753V552Q279 575 314 582T395 590Q449 590 484 573T540 524T569 452T578 365V20H578Z"  />
<glyph unicode="i" horiz-adv-x="313" d="M258 657Q258 649 251 643T236 637H78Q70 637 63 643T55 657V755Q55 763 62 769T78 775H236Q244 775 251 769T258 755V657ZM253 22Q253 14 246 7T231 0H82Q74 0 67 7T60 22V561Q60 569 67 575T82 582H231Q239 582 246 576T253 561V22Z"  />
<glyph unicode="j" horiz-adv-x="312" d="M253 -21Q253 -75 241 -110T206 -167T153 -197T84 -206Q61 -206 39 -204T-10 -197Q-30 -194 -30 -176V-83Q-30 -75 -24 -69T-9 -63H34Q52 -63 56 -52T60 -21V561Q60 569 67 575T82 582H231Q239 582 246 576T253 561V-21ZM258 657Q258 649 251 643T236 637H78Q70 637 63 643T55 657V755Q55 763 62 769T78 775H236Q244 775 251 769T258 755V657Z"  />
<glyph unicode="k" horiz-adv-x="627" d="M603 14Q603 9 600 5T590 0H405Q386 0 374 22L247 250V22Q247 14 241 7T227 0H77Q69 0 62 7T55 22V753Q55 761 62 767T77 773H227Q235 773 241 767T247 753V335L384 564Q391 576 398 579T413 582H586Q600 582 600 570Q600 565 597 561L424 302L601 22Q603 19 603 14Z"  />
<glyph unicode="l" horiz-adv-x="303" d="M248 22Q248 14 242 7T228 0H77Q69 0 62 7T55 22V753Q55 761 62 767T77 773H228Q236 773 242 767T248 753V22H248Z"  />
<glyph unicode="m" horiz-adv-x="901" d="M846 22Q846 14 841 7T826 0H676Q667 0 661 7T654 22V363Q654 401 643 412T605 424Q594 424 578 422T544 412Q546 399 546 389T547 363V22Q547 14 541 7T526 0H376Q367 0 361 7T355 22V363Q355 401 344 412T307 424Q295 424 279 421T247 409V22Q247 14 242 7T227 0H77Q68 0 62 7T55 22V562Q55 570 61 576T75 582H214Q222 582 228 576T234 562V539Q272 568 308 579T388 590Q425 590 455 578T505 539Q544 571 583 580T669 590Q764 590 805 531T846 363V22H846Z"  />
<glyph unicode="n" horiz-adv-x="631" d="M576 22Q576 14 571 7T556 0H406Q397 0 391 7T384 22V361Q384 401 370 416T322 431Q305 431 285 425T247 410V22Q247 14 242 7T227 0H77Q68 0 62 7T55 22V562Q55 570 61 576T75 582H214Q222 582 228 576T234 562V539Q274 569 315 579T399 590Q458 590 493 571T546 520T570 447T576 361V22H576Z"  />
<glyph unicode="o" horiz-adv-x="605" d="M565 262Q565 129 497 60T303 -9Q177 -9 109 60T40 262V320Q40 453 108 522T303 591Q429 591 497 522T565 320V262ZM374 320Q374 380 356 405T303 430Q268 430 250 405T231 320V262Q231 202 249 177T303 151Q338 151 356 176T374 262V320Z"  />
<glyph unicode="p" horiz-adv-x="616" d="M578 252Q578 192 562 144T513 62T431 10T315 -9Q303 -9 283 -7T247 -3V-171Q247 -179 241 -185T227 -192H77Q69 -192 62 -186T55 -171V534Q55 547 61 554T91 566Q130 574 188 582T315 591Q439 591 508 525T578 330V252ZM386 330Q386 375 372 403T315 432Q293 432 277 431T247 428V154Q262 152 279 151T315 149Q357 149 371 178T386 252V330Z"  />
<glyph unicode="q" horiz-adv-x="616" d="M561 -171Q561 -179 554 -185T539 -192H390Q382 -192 376 -186T370 -171V-3Q354 -5 334 -7T302 -9Q236 -9 187 9T104 62T55 144T39 252V330Q39 457 108 524T302 591Q370 591 428 583T526 566Q549 561 555 554T561 534V-171ZM370 428Q356 430 341 431T302 432Q260 432 245 404T230 330V252Q230 208 245 179T302 149Q320 149 337 150T370 154V428Z"  />
<glyph unicode="r" horiz-adv-x="417" d="M393 448Q393 439 390 436T376 433H362Q330 433 300 428T247 410V22Q247 14 242 7T227 0H77Q68 0 62 7T55 22V562Q55 570 59 576T75 582H219Q239 582 239 562V538Q256 556 271 566T303 581T336 588T373 590Q386 590 389 586T393 570V448H393Z"  />
<glyph unicode="s" horiz-adv-x="517" d="M478 170Q478 132 465 100T423 43T351 5T246 -9Q192 -9 144 -2T61 15Q42 20 42 37V140Q42 151 47 157T67 161Q90 158 115 155T163 150T207 147T239 145Q269 145 277 152T286 173Q286 182 280 189T256 207L134 273Q39 324 39 431Q39 508 93 549T259 591Q316 591 361 584T443 566Q463 561 463 544V439Q463 429 460 423T443 419Q432 420 410 423T363 428T313 432T271 434Q234 434 234 414Q234 405 239 400T256 389L373 326Q434 293 456 253T478 170Z"  />
<glyph unicode="t" horiz-adv-x="432" d="M399 460Q399 452 393 446T379 440H303V171Q303 148 307 141T331 133H377Q386 133 392 128T398 114V20Q398 12 392 7T377 0Q352 -5 330 -7T288 -9Q248 -9 216 -2T160 26T124 81T111 173V440L45 455Q37 457 31 463T24 477V561Q24 569 30 575T45 582H111V663Q111 671 117 676T132 684L281 710Q295 712 299 706T303 691V582H379Q387 582 393 576T399 562V460H399Z"  />
<glyph unicode="u" horiz-adv-x="631" d="M576 20Q576 12 570 6T556 0H417Q409 0 403 6T397 20V43Q370 23 333 7T239 -9Q183 -9 148 10T92 61T63 134T55 221V560Q55 568 60 575T75 582H225Q234 582 240 575T247 560V221Q247 181 259 166T309 150Q326 150 346 156T384 172V560Q384 568 389 575T404 582H554Q563 582 569 575T576 560V20H576Z"  />
<glyph unicode="v" horiz-adv-x="620" d="M584 582Q607 582 601 560L475 106Q464 67 447 44T407 9T360 -6T310 -9Q285 -9 260 -6T214 9T175 44T146 106L21 560Q15 582 37 582H201Q212 582 216 576T223 561L298 196Q301 178 310 178Q320 178 323 196L398 561Q400 570 404 576T420 582H584Z"  />
<glyph unicode="w" horiz-adv-x="871" d="M831 582Q838 582 843 578T846 564L758 89Q749 40 728 20T673 0H582Q548 0 529 22T497 86L443 269Q442 276 436 276Q430 276 429 269L375 86Q363 45 344 23T290 0H199Q165 0 144 20T114 89L26 564Q24 574 29 578T41 582H201Q215 582 218 565L267 222Q268 214 274 214Q279 214 282 222L340 427Q345 445 356 456T396 468H476Q505 468 516 457T532 427L590 222Q593 214 598 214Q604 214 605 222L654 565Q657 582 671 582H831Z"  />
<glyph unicode="x" horiz-adv-x="647" d="M421 0Q412 0 407 5T393 22L308 156L230 21Q225 11 221 6T205 0H41Q29 0 29 13Q29 17 31 21L202 306L32 561Q28 567 30 574T43 582H228Q236 582 242 576T254 561L331 440L400 561Q411 582 425 582H587Q601 582 602 575T601 561L437 289L615 25Q621 15 618 8T605 0H421H421Z"  />
<glyph unicode="y" horiz-adv-x="621" d="M586 582Q593 582 600 578T603 560L433 -34Q422 -74 406 -105T364 -158T299 -191T200 -203Q185 -203 166 -202T128 -198T92 -192T65 -185Q57 -182 50 -178T42 -166V-69Q42 -61 45 -54T65 -48Q79 -49 96 -50T133 -53T170 -55T202 -56Q223 -56 237 -48T256 -18L264 15H251Q234 15 220 17T194 30T172 61T150 119L18 560Q12 582 39 582H202Q213 582 216 576T222 562L301 218Q305 201 312 201H320L399 563Q401 571 404 576T420 582H586H586Z"  />
<glyph unicode="z" horiz-adv-x="542" d="M495 20Q495 12 489 6T475 0H74Q63 0 55 8T47 27V111Q47 124 50 133T62 155L253 414Q257 419 257 423Q257 429 248 429H70Q54 429 54 445V562Q54 570 60 576T74 582H467Q478 582 485 574T493 555V464Q493 447 489 439T476 418L294 171Q290 165 290 162Q290 156 299 156H477Q485 156 490 152T495 140V20H495Z"  />
<glyph unicode="{" horiz-adv-x="417" d="M402 -179Q402 -187 396 -192T382 -197H320Q253 -197 210 -188T142 -155T108 -92T98 7V123Q98 155 83 178T43 217V329Q68 345 83 368T98 423V539Q98 598 107 637T142 700T210 733T320 743H382Q390 743 396 738T402 725V612Q402 604 396 599T382 594H330Q305 594 298 583T291 539V423Q291 372 271 334T203 273Q250 251 270 213T291 123V7Q291 -25 298 -36T330 -48H382Q390 -48 396 -53T402 -66V-179H402Z"  />
<glyph unicode="|" horiz-adv-x="308" d="M251 -172Q251 -180 245 -187T230 -194H79Q71 -194 64 -187T57 -172V723Q57 731 64 737T79 743H230Q238 743 244 737T251 723V-172H251Z"  />
<glyph unicode="}" horiz-adv-x="417" d="M374 217Q349 201 334 178T319 123V7Q319 -52 310 -91T275 -154T207 -187T97 -197H35Q27 -197 21 -192T15 -179V-66Q15 -58 21 -53T35 -48H87Q112 -48 119 -37T126 7V123Q126 174 146 212T214 273Q167 295 147 333T126 423V539Q126 571 119 582T87 594H35Q27 594 21 599T15 612V725Q15 733 21 738T35 743H97Q164 743 207 734T275 701T309 638T319 539V423Q319 391 334 368T374 329V217H374Z"  />
<glyph unicode="~" horiz-adv-x="666" d="M603 485Q603 396 561 360T438 323Q415 323 389 331T344 350L284 385Q268 394 257 396T238 399Q224 399 219 392T213 370V351Q213 330 193 330H85Q63 330 63 351V370Q63 416 74 448T108 499T160 527T229 536Q245 536 270 532T313 516L383 476Q399 467 410 464T430 460Q453 460 453 486V509Q453 530 474 530H581Q603 530 603 509V485H603Z"  />
<glyph unicode="&#xA0;" horiz-adv-x="252" />
<glyph unicode="&#xA1;" horiz-adv-x="291" d="M238 423Q238 415 232 409T218 403H72Q64 403 58 409T52 423V562Q52 570 58 576T72 582H218Q226 582 232 576T238 562V423ZM244 -172Q244 -180 237 -185T222 -191H66Q58 -191 52 -186T46 -172V-171L71 320Q72 328 77 334T91 341H197Q205 341 211 335T219 320L244 -171V-172Z"  />
<glyph unicode="&#xA2;" horiz-adv-x="666" d="M531 28Q531 18 526 14T511 7Q496 3 478 0T437 -6V-73Q437 -81 431 -87T417 -93H296Q288 -93 282 -87T276 -73V7Q207 33 171 96T135 253V328Q135 422 171 485T276 574V652Q276 660 282 666T296 672H417Q425 672 431 666T437 652V587Q460 585 479 582T511 575Q521 573 526 569T531 554V441Q531 433 526 428T512 422H510Q484 424 458 426T395 429Q363 429 345 407T327 328V253Q327 197 345 175T395 153Q432 153 458 155T510 159H512Q520 159 525 154T531 140V28H531Z"  />
<glyph unicode="&#xA3;" horiz-adv-x="666" d="M596 580Q596 562 579 562H576Q545 565 499 569T409 573Q367 573 351 560T335 503V453H487Q495 453 501 448T507 434V315Q507 307 502 301T488 295H335V221Q335 202 330 186T319 158H575Q583 158 589 153T595 139V20Q595 12 589 6T575 0H118Q108 0 103 7T98 22V112Q98 122 101 127T108 137Q113 143 118 152T128 173T136 197T139 221V295H90Q82 295 77 301T71 315V434Q71 442 77 447T91 453H139V501Q139 568 155 615T204 691T288 734T409 747Q433 747 457 745T504 740T546 734T576 729Q590 726 593 722T596 708V580H596Z"  />
<glyph unicode="&#xA4;" horiz-adv-x="666" d="M598 552Q598 544 591 537L505 451Q524 411 524 371Q524 326 503 286L587 201Q594 194 594 186Q594 180 589 175L524 109Q519 104 513 104Q505 104 498 111L411 198Q376 182 335 182Q291 182 254 201L168 115Q165 112 161 110T152 107Q147 107 142 112L77 178Q72 183 72 190Q72 198 79 205L165 290Q145 328 145 371Q145 410 162 447L75 534Q68 541 68 549Q68 555 73 560L139 625Q144 630 150 630Q158 630 165 623L249 539Q289 560 335 560Q379 560 416 541L501 627Q508 634 516 634Q522 634 527 629L593 563Q598 558 598 552ZM413 375Q413 407 392 428T338 450Q306 450 284 429T262 375Q262 343 284 321T338 298Q370 298 391 320T413 375Z"  />
<glyph unicode="&#xA5;" horiz-adv-x="666" d="M649 730Q649 728 647 722L540 501H620Q628 501 634 496T640 482V396Q640 377 621 377H480L438 291L435 282H620Q628 282 634 277T640 263V177Q640 158 621 158H435V20Q435 12 429 6T414 0H250Q242 0 237 6T231 20V158H46Q38 158 32 163T26 177V263Q26 271 32 276T46 282H231L228 291L188 377H46Q38 377 32 382T26 396V482Q26 490 32 495T46 501H127L19 722Q17 728 17 730Q17 743 32 743H213Q221 743 225 738T233 725L333 480L433 725Q436 733 440 738T453 743H634Q649 743 649 730Z"  />
<glyph unicode="&#xA6;" horiz-adv-x="308" d="M251 364Q251 356 245 349T231 342H79Q71 342 64 349T57 364V708Q57 716 64 722T79 728H231Q239 728 245 722T251 708V364ZM251 -189Q251 -197 245 -204T231 -211H79Q71 -211 64 -204T57 -189V155Q57 163 64 169T79 175H231Q239 175 245 169T251 155V-189Z"  />
<glyph unicode="&#xA7;" horiz-adv-x="607" d="M569 12Q569 -30 554 -70T506 -143T419 -196T287 -216Q225 -216 174 -209T82 -190Q74 -188 68 -183T61 -170V-45Q61 -37 67 -32T81 -26H83Q103 -28 127 -30T179 -35T233 -39T284 -41H287Q324 -41 338 -29T352 9Q352 24 342 35T303 62L161 142Q124 163 100 186T63 234T44 288T38 349Q38 372 45 400T64 450Q52 470 45 496T38 551Q38 592 50 628T93 693T173 737T300 753Q330 753 363 751T427 745T485 737T527 728Q535 726 541 721T547 708V583Q547 576 543 571T531 566H530Q483 570 420 573T300 577Q271 577 260 571T248 544Q248 531 259 521T302 493L437 421Q510 382 539 333T569 221Q569 194 562 166T544 116Q558 93 563 67T569 12ZM402 226Q402 241 399 252T386 275T360 297T317 323L251 359Q235 367 226 373T208 387Q192 371 192 340Q192 327 195 317T206 297T229 277T269 254L333 219Q353 208 368 198T392 179Q402 198 402 226Z"  />
<glyph unicode="&#xA8;" horiz-adv-x="472" d="M434 657Q434 649 427 643T411 637H295Q287 637 280 643T273 657V755Q273 763 280 769T295 775H411Q419 775 426 769T434 755V657ZM200 657Q200 649 193 643T178 637H62Q54 637 47 643T39 657V755Q39 763 46 769T62 775H178Q186 775 193 769T200 755V657Z"  />
<glyph unicode="&#xA9;" horiz-adv-x="750" d="M712 374Q712 304 686 243T613 137T506 65T374 39Q304 39 243 65T137 136T65 243T39 374Q39 444 65 505T136 613T243 686T374 713Q444 713 505 686T613 613T685 506T712 374ZM656 374Q656 432 634 483T573 573T484 634T374 657Q316 657 265 635T176 574T116 484T94 374Q94 316 116 265T176 176T265 116T374 94Q432 94 483 116T573 176T633 265T656 374ZM478 183Q478 177 475 175T465 170Q451 166 432 163T387 160Q300 160 255 207T210 351V403Q210 500 255 547T387 594Q413 594 433 591T465 584Q472 582 475 580T478 572V495Q478 484 467 484H465Q447 486 432 487T387 489Q376 489 366 486T348 473T335 447T330 403V351Q330 323 335 306T348 280T366 268T387 265Q413 265 430 266T465 270H467Q478 270 478 259V183Z"  />
<glyph unicode="&#xAA;" horiz-adv-x="379" d="M343 405Q343 399 342 396T336 390Q268 372 196 372Q115 372 75 400T34 489V496Q34 524 46 543T80 575T132 592T200 597H219V610Q219 633 209 640T181 648Q168 648 153 648T122 646T95 645T75 643H74Q61 643 61 657V719Q61 731 75 735Q90 739 121 745T181 752Q215 752 245 746T296 723T330 680T343 610V405ZM221 531H200Q178 531 166 524T153 496V489Q153 470 164 464T196 458Q204 458 210 459T221 461V531Z"  />
<glyph unicode="&#xAB;" horiz-adv-x="747" d="M718 71Q718 60 705 60H557Q547 60 540 62T528 71L370 263Q358 278 358 290Q358 303 370 318L528 509Q533 516 540 518T557 520H705Q718 520 718 510Q718 506 713 499L542 290L713 82Q718 75 718 71ZM396 71Q396 60 383 60H235Q225 60 218 62T206 71L48 263Q43 270 39 276T35 290Q35 297 39 304T48 318L206 509Q211 516 218 518T235 520H383Q396 520 396 510Q396 506 391 499L220 290L391 82Q396 75 396 71Z"  />
<glyph unicode="&#xAC;" horiz-adv-x="666" d="M569 193Q569 185 564 179T551 173H444Q436 173 432 179T427 193V456H117Q109 456 103 460T97 472V581Q97 589 103 593T117 597H549Q557 597 563 593T569 581V193H569Z"  />
<glyph unicode="&#xAD;" horiz-adv-x="282" d="M258 250Q258 242 252 237T238 231H45Q37 231 31 236T25 250V352Q25 360 31 365T45 371H238Q246 371 252 366T258 352V250H258Z"  />
<glyph unicode="&#xAE;" horiz-adv-x="598" d="M583 484Q583 425 561 374T500 284T409 223T299 201Q240 201 189 223T99 283T39 373T16 484Q16 542 38 594T99 684T188 744T299 767Q357 767 409 745T499 684T560 594T583 484ZM529 484Q529 531 511 573T462 646T388 695T299 713Q252 713 211 695T138 646T89 573T71 484Q71 437 89 395T138 322T210 273T299 255Q346 255 388 273T461 322T511 395T529 484ZM442 330Q442 321 433 321H351Q345 321 341 329Q333 343 323 362T304 399Q293 419 283 441H259V331Q259 321 249 321H175Q165 321 165 331V621Q165 640 170 646T193 655Q199 656 210 656T234 658T262 659T287 660Q354 660 392 636T430 550V541Q430 507 414 487T375 456L440 336Q442 332 442 330ZM340 550Q340 567 330 575T295 583H256V508H295Q319 508 329 517T340 541V550Z"  />
<glyph unicode="&#xAF;" horiz-adv-x="472" d="M426 664Q426 656 420 650T406 644H67Q59 644 53 650T47 664V752Q47 760 53 765T67 771H406Q414 771 420 766T426 752V664H426Z"  />
<glyph unicode="&#xB0;" horiz-adv-x="368" d="M343 594Q343 561 331 533T297 483T247 449T185 436Q152 436 124 448T73 482T39 532T26 594Q26 627 38 655T73 706T123 740T185 753Q218 753 246 741T296 706T330 656T343 594ZM251 594Q251 621 232 641T185 661Q158 661 139 641T119 594Q119 567 138 548T185 529Q212 529 231 548T251 594Z"  />
<glyph unicode="&#xB1;" horiz-adv-x="666" d="M572 336Q572 328 566 324T552 320H403V173Q403 165 399 159T387 153H277Q269 153 265 159T261 173V320H114Q106 320 100 324T94 336V446Q94 454 100 458T114 462H261V611Q261 619 265 625T277 631H387Q395 631 399 625T403 611V462H552Q560 462 566 458T572 446V336ZM572 -9Q572 -17 566 -21T552 -25H114Q106 -25 100 -21T94 -9V77Q94 85 100 89T114 93H552Q560 93 566 89T572 77V-9Z"  />
<glyph unicode="&#xB2;" horiz-adv-x="371" d="M331 640Q331 607 315 581T272 537L210 496Q186 480 169 468T150 437H309Q325 437 325 421V350Q325 334 309 334H56Q40 334 40 350V407Q40 453 59 487T107 545L162 586Q179 598 189 605T204 618T211 627T213 636Q213 646 204 650T166 655Q144 655 121 653T76 649Q67 648 56 649T45 664V717Q45 723 49 726T58 732Q82 740 114 746T182 752Q263 752 297 725T331 640Z"  />
<glyph unicode="&#xB3;" horiz-adv-x="365" d="M325 452Q325 389 284 359T171 328Q156 328 138 330T103 335T72 342T50 350Q40 354 40 362V418Q40 432 54 432H55Q64 431 77 430T104 429T133 428T159 427Q185 427 196 432T208 455V463Q208 480 199 487T166 495H81Q75 495 71 499T66 510V570Q66 576 70 580T81 585H166Q209 585 209 613V622Q209 636 200 642T160 648Q137 648 107 647T58 643H57Q43 643 43 657V715Q43 721 47 724T57 729Q82 737 111 742T173 747Q243 747 284 723T325 637V630Q325 598 312 577T280 542Q304 528 314 506T325 457V452H325Z"  />
<glyph unicode="&#xB4;" horiz-adv-x="472" d="M450 772Q450 768 446 764L320 644Q314 639 311 636T296 633H167Q158 633 158 640Q158 646 162 650L253 764Q260 772 265 775T281 779H439Q450 779 450 772Z"  />
<glyph unicode="&#xB5;" horiz-adv-x="632" d="M577 48Q577 36 571 29T542 15Q507 5 452 -2T319 -9Q281 -9 248 -3V-172Q248 -180 242 -186T228 -192H75Q67 -192 61 -186T55 -172V560Q55 568 61 575T76 582H226Q234 582 240 575T247 560V214Q247 179 264 163T318 147Q338 147 355 148T385 152V560Q385 568 391 575T405 582H555Q563 582 570 575T577 560V48H577Z"  />
<glyph unicode="&#xB6;" horiz-adv-x="674" d="M621 -176Q621 -184 617 -189T604 -195H552Q544 -195 540 -190T535 -176V658H471V-176Q471 -184 467 -189T454 -195H402Q394 -195 390 -190T385 -176V234H293Q241 234 196 248T118 291T65 361T45 457V520Q45 574 64 615T117 685T196 728T293 743H605Q621 743 621 724V-176H621Z"  />
<glyph unicode="&#xB7;" horiz-adv-x="291" d="M239 308Q239 300 233 294T218 288H73Q65 288 59 294T52 308V447Q52 455 58 461T73 467H218Q226 467 232 461T239 447V308H239Z"  />
<glyph unicode="&#xB8;" horiz-adv-x="451" d="M352 -43Q352 -47 348 -51L222 -171Q216 -176 212 -179T197 -182H69Q60 -182 60 -175Q60 -169 64 -165L155 -51Q162 -43 167 -40T183 -36H341Q352 -36 352 -43Z"  />
<glyph unicode="&#xB9;" horiz-adv-x="290" d="M128 744Q134 747 142 747H204Q220 747 220 731V350Q220 334 204 334H116Q100 334 100 350V625L49 604Q43 602 37 604T30 614V692Q30 701 39 706L128 744Z"  />
<glyph unicode="&#xBA;" horiz-adv-x="404" d="M370 546Q370 457 326 415T203 372Q124 372 80 414T35 546V577Q35 666 79 709T203 752Q282 752 326 709T370 577V546ZM244 577Q244 617 234 632T203 647Q182 647 171 632T160 577V546Q160 506 171 491T203 476Q224 476 234 491T244 546V577Z"  />
<glyph unicode="&#xBB;" horiz-adv-x="747" d="M717 290Q717 283 713 277T704 263L546 71Q541 64 535 62T518 60H370Q357 60 357 71Q357 75 362 82L533 290L362 499Q357 506 357 510Q357 520 370 520H518Q528 520 534 518T546 509L704 318Q709 311 713 304T717 290ZM395 290Q395 283 391 277T382 263L224 71Q219 64 212 62T195 60H47Q34 60 34 71Q34 75 39 82L210 290L39 499Q34 506 34 510Q34 520 47 520H195Q205 520 212 518T224 509L382 318Q387 311 391 304T395 290Z"  />
<glyph unicode="&#xBC;" horiz-adv-x="814" d="M675 733Q675 729 672 723L255 16Q249 6 246 3T234 0H111Q99 0 99 12Q99 17 102 22L519 728Q524 738 529 740T542 743H664Q675 743 675 733ZM138 744Q144 747 152 747H214Q230 747 230 731V350Q230 334 214 334H126Q110 334 110 350V625L59 604Q40 596 40 614V692Q40 701 49 706L138 744ZM774 100Q774 84 758 84H731V16Q731 9 727 5T716 0H627Q611 0 611 16V84H465Q449 84 449 100V161Q449 171 456 180L632 406Q639 413 648 413H716Q722 413 726 409T731 397V177H758Q774 177 774 162V100ZM616 266L549 177H616V266Z"  />
<glyph unicode="&#xBD;" horiz-adv-x="854" d="M675 733Q675 729 672 723L255 16Q249 6 246 3T234 0H111Q99 0 99 12Q99 17 102 22L519 728Q524 738 529 740T542 743H664Q675 743 675 733ZM138 744Q144 747 152 747H214Q230 747 230 731V350Q230 334 214 334H126Q110 334 110 350V625L59 604Q40 596 40 614V692Q40 701 49 706L138 744ZM814 306Q814 273 798 247T755 203L693 162Q669 146 652 134T633 103H792Q808 103 808 87V16Q808 0 792 0H539Q523 0 523 16V73Q523 119 542 153T590 211L645 252Q662 264 672 271T687 284T694 293T696 302Q696 312 687 316T649 321Q627 321 604 319T559 315Q550 314 539 315T528 330V383Q528 389 532 392T541 398Q565 406 597 412T665 418Q746 418 780 391T814 306Z"  />
<glyph unicode="&#xBE;" horiz-adv-x="877" d="M837 97Q837 91 832 87T821 82H796V16Q796 10 792 5T781 0H691Q685 0 681 5T677 16V82H535Q528 82 525 86T521 96V162Q521 174 527 181L697 402Q703 409 713 409H778Q785 409 790 404T796 391V176H821Q827 176 832 172T837 162V97ZM744 733Q744 729 741 723L324 16Q318 6 315 3T303 0H180Q168 0 168 12Q168 17 171 22L588 728Q593 738 598 740T611 743H733Q744 743 744 733ZM325 458Q325 395 284 365T171 334Q156 334 138 336T103 341T72 348T50 356Q40 360 40 368V424Q40 438 54 438H55Q64 437 77 436T104 435T133 434T159 433Q185 433 196 438T208 461V469Q208 486 199 493T166 501H81Q75 501 71 505T66 516V576Q66 582 70 586T81 591H166Q209 591 209 619V628Q209 642 200 648T160 654Q137 654 107 653T58 649H57Q43 649 43 663V721Q43 727 47 730T57 735Q82 743 111 748T173 753Q243 753 284 729T325 643V636Q325 604 312 583T280 548Q304 534 314 512T325 463V458ZM682 261Q682 268 680 268Q679 268 678 267L615 185Q612 180 612 178Q612 176 614 176H682V261Z"  />
<glyph unicode="&#xBF;" horiz-adv-x="492" d="M395 423Q395 415 389 409T375 403H229Q221 403 215 409T208 423V562Q208 570 214 576T229 582H375Q383 582 389 576T395 562V423ZM458 -146Q458 -163 439 -169Q406 -180 363 -187T273 -194Q217 -194 174 -186T101 -158T56 -107T40 -28V-19Q40 45 91 118L197 271Q208 286 212 296T218 322Q219 328 224 332T234 336H373Q383 336 383 323V288Q383 252 377 229T354 175L273 37Q268 29 265 22T262 7Q262 -8 272 -14T307 -20Q317 -20 335 -19T373 -16T411 -12T438 -9H441Q458 -9 458 -29V-146Z"  />
<glyph unicode="&#xC0;" horiz-adv-x="692" d="M483 0Q472 0 469 5T463 19L435 158H257L229 19Q227 11 224 6T209 0H36Q25 0 22 6T20 21L154 633Q162 670 180 693T223 730T279 747T346 752Q382 752 413 748T469 730T512 694T538 633L672 21Q674 12 671 6T657 0H483ZM357 572Q355 579 354 582T346 586Q339 586 338 583T335 572L286 318H406L357 572ZM473 802Q473 795 464 795H335Q324 795 321 798T311 806L185 926Q181 930 181 934Q181 941 192 941H350Q361 941 366 938T378 926L469 812Q473 808 473 802Z"  />
<glyph unicode="&#xC1;" horiz-adv-x="692" d="M483 0Q472 0 469 5T463 19L435 158H257L229 19Q227 11 224 6T209 0H36Q25 0 22 6T20 21L154 633Q162 670 180 693T223 730T279 747T346 752Q382 752 413 748T469 730T512 694T538 633L672 21Q674 12 671 6T657 0H483ZM357 572Q355 579 354 582T346 586Q339 586 338 583T335 572L286 318H406L357 572ZM543 934Q543 930 539 926L413 806Q407 801 404 798T389 795H260Q251 795 251 802Q251 808 255 812L346 926Q353 934 358 937T374 941H532Q543 941 543 934Z"  />
<glyph unicode="&#xC2;" horiz-adv-x="692" d="M483 0Q472 0 469 5T463 19L435 158H257L229 19Q227 11 224 6T209 0H36Q25 0 22 6T20 21L154 633Q162 670 180 693T223 730T279 747T346 752Q382 752 413 748T469 730T512 694T538 633L672 21Q674 12 671 6T657 0H483ZM357 572Q355 579 354 582T346 586Q339 586 338 583T335 572L286 318H406L357 572ZM559 802Q559 795 550 795H426Q415 795 412 797T402 806L346 865L290 806Q284 800 281 798T266 795H142Q133 795 133 802Q133 807 137 812L223 926Q230 934 235 937T251 941H441Q452 941 457 938T469 926L555 812Q559 807 559 802Z"  />
<glyph unicode="&#xC3;" horiz-adv-x="692" d="M483 0Q472 0 469 5T463 19L435 158H257L229 19Q227 11 224 6T209 0H36Q25 0 22 6T20 21L154 633Q162 670 180 693T223 730T279 747T346 752Q382 752 413 748T469 730T512 694T538 633L672 21Q674 12 671 6T657 0H483ZM357 572Q355 579 354 582T346 586Q339 586 338 583T335 572L286 318H406L357 572ZM559 915Q559 844 523 816T426 788Q412 788 391 793T353 809L313 833Q288 848 274 848Q266 848 261 844T255 828V811Q255 794 239 794H155Q138 794 138 811V828Q138 897 174 926T272 955Q286 955 306 950T344 935L385 911Q399 903 407 899T424 895Q434 895 438 899T442 916V933Q442 950 459 950H542Q559 950 559 933V915H559Z"  />
<glyph unicode="&#xC4;" horiz-adv-x="692" d="M483 0Q472 0 469 5T463 19L435 158H257L229 19Q227 11 224 6T209 0H36Q25 0 22 6T20 21L154 633Q162 670 180 693T223 730T279 747T346 752Q382 752 413 748T469 730T512 694T538 633L672 21Q674 12 671 6T657 0H483ZM357 572Q355 579 354 582T346 586Q339 586 338 583T335 572L286 318H406L357 572ZM543 818Q543 810 536 804T520 798H404Q396 798 389 804T382 818V916Q382 924 389 930T404 936H520Q528 936 535 930T543 916V818ZM309 818Q309 810 302 804T287 798H171Q163 798 156 804T148 818V916Q148 924 155 930T171 936H287Q295 936 302 930T309 916V818Z"  />
<glyph unicode="&#xC5;" horiz-adv-x="692" d="M483 0Q472 0 469 5T463 19L435 158H257L229 19Q227 11 224 6T209 0H36Q25 0 22 6T20 21L154 633Q162 670 180 693T223 730T279 747T346 752Q382 752 413 748T469 730T512 694T538 633L672 21Q674 12 671 6T657 0H483ZM357 572Q355 579 354 582T346 586Q339 586 338 583T335 572L286 318H406L357 572ZM469 903Q469 878 460 856T434 817T395 791T347 781Q322 781 300 790T262 816T237 855T228 903Q228 928 237 950T262 989T300 1015T347 1025Q372 1025 394 1016T433 990T459 951T469 903ZM389 904Q389 921 377 933T348 945Q331 945 320 933T308 904Q308 887 319 874T348 861Q365 861 377 874T389 904Z"  />
<glyph unicode="&#xC6;" horiz-adv-x="943" d="M890 23Q890 6 870 3Q856 1 841 -1T805 -5T758 -8T695 -9Q652 -9 611 -3T537 21T479 71T446 157H258L230 19Q228 11 223 6T210 0H36Q19 0 19 16Q19 18 19 18T20 21L154 628Q162 665 180 687T223 722T279 739T347 743H870Q890 743 890 723V594Q890 586 884 580T870 574H642V456H866Q874 456 880 450T886 436V318Q886 310 880 304T866 298H642V215Q642 186 653 176T691 165H870Q878 165 884 159T890 145V23ZM439 576H350Q342 576 340 572T335 558L287 318H439V576Z"  />
<glyph unicode="&#xC7;" horiz-adv-x="555" d="M517 31Q517 21 512 17T495 9Q475 2 439 -3T355 -9Q286 -9 229 10T132 69T69 172T47 320V423Q47 509 69 571T131 673T229 733T355 752Q403 752 439 747T495 734Q507 730 512 727T517 712V584Q517 565 499 565H496Q465 568 432 571T356 574Q336 574 317 569T284 547T262 501T253 423V320Q253 273 261 244T284 198T316 175T356 169Q399 169 432 172T496 178H499Q517 178 517 159V31ZM440 -43Q440 -47 436 -51L310 -171Q304 -176 300 -179T285 -182H157Q148 -182 148 -175Q148 -169 152 -165L243 -51Q250 -43 255 -40T271 -36H429Q440 -36 440 -43Z"  />
<glyph unicode="&#xC8;" horiz-adv-x="585" d="M532 23Q532 6 512 3Q483 -1 436 -5T315 -9Q267 -9 221 -2T139 30T81 98T59 215V529Q59 601 81 645T139 713T221 745T315 753Q388 753 435 749T512 741Q532 738 532 721V599Q532 591 526 585T512 579H310Q283 579 273 569T262 529V456H508Q516 456 522 450T528 436V318Q528 310 522 304T508 298H262V215Q262 186 272 176T310 165H512Q520 165 526 159T532 145V23H532ZM406 802Q406 795 397 795H268Q257 795 254 798T244 806L118 926Q114 930 114 934Q114 941 125 941H283Q294 941 299 938T311 926L402 812Q406 808 406 802Z"  />
<glyph unicode="&#xC9;" horiz-adv-x="585" d="M532 23Q532 6 512 3Q483 -1 436 -5T315 -9Q267 -9 221 -2T139 30T81 98T59 215V529Q59 601 81 645T139 713T221 745T315 753Q388 753 435 749T512 741Q532 738 532 721V599Q532 591 526 585T512 579H310Q283 579 273 569T262 529V456H508Q516 456 522 450T528 436V318Q528 310 522 304T508 298H262V215Q262 186 272 176T310 165H512Q520 165 526 159T532 145V23H532ZM487 934Q487 930 483 926L357 806Q351 801 348 798T333 795H204Q195 795 195 802Q195 808 199 812L290 926Q297 934 302 937T318 941H476Q487 941 487 934Z"  />
<glyph unicode="&#xCA;" horiz-adv-x="585" d="M532 23Q532 6 512 3Q483 -1 436 -5T315 -9Q267 -9 221 -2T139 30T81 98T59 215V529Q59 601 81 645T139 713T221 745T315 753Q388 753 435 749T512 741Q532 738 532 721V599Q532 591 526 585T512 579H310Q283 579 273 569T262 529V456H508Q516 456 522 450T528 436V318Q528 310 522 304T508 298H262V215Q262 186 272 176T310 165H512Q520 165 526 159T532 145V23H532ZM515 802Q515 795 506 795H382Q371 795 368 797T358 806L302 865L246 806Q240 800 237 798T222 795H98Q89 795 89 802Q89 807 93 812L179 926Q186 934 191 937T207 941H397Q408 941 413 938T425 926L511 812Q515 807 515 802Z"  />
<glyph unicode="&#xCB;" horiz-adv-x="585" d="M532 23Q532 6 512 3Q483 -1 436 -5T315 -9Q267 -9 221 -2T139 30T81 98T59 215V529Q59 601 81 645T139 713T221 745T315 753Q388 753 435 749T512 741Q532 738 532 721V599Q532 591 526 585T512 579H310Q283 579 273 569T262 529V456H508Q516 456 522 450T528 436V318Q528 310 522 304T508 298H262V215Q262 186 272 176T310 165H512Q520 165 526 159T532 145V23H532ZM494 818Q494 810 487 804T471 798H355Q347 798 340 804T333 818V916Q333 924 340 930T355 936H471Q479 936 486 930T494 916V818ZM260 818Q260 810 253 804T238 798H122Q114 798 107 804T99 818V916Q99 924 106 930T122 936H238Q246 936 253 930T260 916V818Z"  />
<glyph unicode="&#xCC;" horiz-adv-x="334" d="M269 20Q269 12 263 6T249 0H85Q77 0 71 6T65 20V724Q65 732 71 737T85 743H249Q257 743 263 738T269 724V20H269ZM280 802Q280 795 271 795H142Q131 795 128 798T118 806L-8 926Q-12 930 -12 934Q-12 941 -1 941H157Q168 941 173 938T185 926L276 812Q280 808 280 802Z"  />
<glyph unicode="&#xCD;" horiz-adv-x="334" d="M269 20Q269 12 263 6T249 0H85Q77 0 71 6T65 20V724Q65 732 71 737T85 743H249Q257 743 263 738T269 724V20H269ZM352 934Q352 930 348 926L222 806Q216 801 213 798T198 795H69Q60 795 60 802Q60 808 64 812L155 926Q162 934 167 937T183 941H341Q352 941 352 934Z"  />
<glyph unicode="&#xCE;" horiz-adv-x="334" d="M269 20Q269 12 263 6T249 0H85Q77 0 71 6T65 20V724Q65 732 71 737T85 743H249Q257 743 263 738T269 724V20H269ZM381 802Q381 795 372 795H248Q237 795 234 797T224 806L168 865L112 806Q106 800 103 798T88 795H-36Q-45 795 -45 802Q-45 807 -41 812L45 926Q52 934 57 937T73 941H263Q274 941 279 938T291 926L377 812Q381 807 381 802Z"  />
<glyph unicode="&#xCF;" horiz-adv-x="334" d="M269 20Q269 12 263 6T249 0H85Q77 0 71 6T65 20V724Q65 732 71 737T85 743H249Q257 743 263 738T269 724V20H269ZM365 818Q365 810 358 804T342 798H226Q218 798 211 804T204 818V916Q204 924 211 930T226 936H342Q350 936 357 930T365 916V818ZM131 818Q131 810 124 804T109 798H-7Q-15 798 -22 804T-30 818V916Q-30 924 -23 930T-7 936H109Q117 936 124 930T131 916V818Z"  />
<glyph unicode="&#xD0;" horiz-adv-x="696" d="M651 324Q651 235 628 172T561 69T459 10T326 -9Q248 -9 193 -5T95 8Q78 11 71 19T63 47V298H12Q4 298 -2 304T-8 318V437Q-8 445 -2 450T12 456H63V696Q63 716 70 724T95 735Q138 743 193 748T326 753Q398 753 458 735T561 676T627 573T651 420V324ZM445 420Q445 466 438 496T417 545T380 570T326 578Q309 578 291 578T267 577V456H320Q339 456 339 437V318Q339 310 334 304T320 298H267V167Q272 166 291 166T326 166Q357 166 379 173T416 198T438 246T445 324V420Z"  />
<glyph unicode="&#xD1;" horiz-adv-x="746" d="M681 37Q681 22 670 11T644 0H510Q484 0 468 27L271 362Q266 370 261 370Q256 370 256 361V20Q256 12 250 6T236 0H86Q78 0 72 6T65 20V706Q65 721 76 732T102 743H234Q248 743 257 736T274 714L477 369Q482 360 486 360Q488 360 489 361T491 369V723Q491 731 497 737T511 743H661Q669 743 675 737T681 723V37H681ZM577 915Q577 844 541 816T444 788Q430 788 409 793T371 809L331 833Q306 848 292 848Q284 848 279 844T273 828V811Q273 794 257 794H173Q156 794 156 811V828Q156 897 192 926T290 955Q304 955 324 950T362 935L403 911Q417 903 425 899T442 895Q452 895 456 899T460 916V933Q460 950 477 950H560Q577 950 577 933V915H577Z"  />
<glyph unicode="&#xD2;" horiz-adv-x="708" d="M661 320Q661 228 637 166T570 64T472 8T354 -9Q292 -9 236 8T138 64T72 165T47 320V423Q47 514 71 577T138 679T236 735T354 753Q416 753 472 736T570 679T636 577T661 423V320ZM455 423Q455 504 431 539T354 574Q301 574 277 539T253 423V320Q253 239 277 205T354 170Q407 170 431 204T455 320V423ZM450 802Q450 795 441 795H312Q301 795 298 798T288 806L162 926Q158 930 158 934Q158 941 169 941H327Q338 941 343 938T355 926L446 812Q450 808 450 802Z"  />
<glyph unicode="&#xD3;" horiz-adv-x="708" d="M661 320Q661 228 637 166T570 64T472 8T354 -9Q292 -9 236 8T138 64T72 165T47 320V423Q47 514 71 577T138 679T236 735T354 753Q416 753 472 736T570 679T636 577T661 423V320ZM455 423Q455 504 431 539T354 574Q301 574 277 539T253 423V320Q253 239 277 205T354 170Q407 170 431 204T455 320V423ZM542 934Q542 930 538 926L412 806Q406 801 403 798T388 795H259Q250 795 250 802Q250 808 254 812L345 926Q352 934 357 937T373 941H531Q542 941 542 934Z"  />
<glyph unicode="&#xD4;" horiz-adv-x="708" d="M661 320Q661 228 637 166T570 64T472 8T354 -9Q292 -9 236 8T138 64T72 165T47 320V423Q47 514 71 577T138 679T236 735T354 753Q416 753 472 736T570 679T636 577T661 423V320ZM455 423Q455 504 431 539T354 574Q301 574 277 539T253 423V320Q253 239 277 205T354 170Q407 170 431 204T455 320V423ZM564 802Q564 795 555 795H431Q420 795 417 797T407 806L351 865L295 806Q289 800 286 798T271 795H147Q138 795 138 802Q138 807 142 812L228 926Q235 934 240 937T256 941H446Q457 941 462 938T474 926L560 812Q564 807 564 802Z"  />
<glyph unicode="&#xD5;" horiz-adv-x="708" d="M661 320Q661 228 637 166T570 64T472 8T354 -9Q292 -9 236 8T138 64T72 165T47 320V423Q47 514 71 577T138 679T236 735T354 753Q416 753 472 736T570 679T636 577T661 423V320ZM455 423Q455 504 431 539T354 574Q301 574 277 539T253 423V320Q253 239 277 205T354 170Q407 170 431 204T455 320V423ZM572 916Q572 845 536 817T439 789Q425 789 404 794T366 810L326 834Q301 849 287 849Q279 849 274 845T268 829V812Q268 795 252 795H168Q151 795 151 812V829Q151 898 187 927T285 956Q299 956 319 951T357 936L398 912Q412 904 420 900T437 896Q447 896 451 900T455 917V934Q455 951 472 951H555Q572 951 572 934V916H572Z"  />
<glyph unicode="&#xD6;" horiz-adv-x="708" d="M661 320Q661 228 637 166T570 64T472 8T354 -9Q292 -9 236 8T138 64T72 165T47 320V423Q47 514 71 577T138 679T236 735T354 753Q416 753 472 736T570 679T636 577T661 423V320ZM455 423Q455 504 431 539T354 574Q301 574 277 539T253 423V320Q253 239 277 205T354 170Q407 170 431 204T455 320V423ZM548 818Q548 810 541 804T525 798H409Q401 798 394 804T387 818V916Q387 924 394 930T409 936H525Q533 936 540 930T548 916V818ZM314 818Q314 810 307 804T292 798H176Q168 798 161 804T153 818V916Q153 924 160 930T176 936H292Q300 936 307 930T314 916V818Z"  />
<glyph unicode="&#xD7;" horiz-adv-x="666" d="M552 516Q552 508 544 500L434 390L543 280Q551 272 551 265Q551 260 546 255L469 177Q464 172 459 172Q451 172 443 180L333 290L223 180Q215 172 208 172Q203 172 198 177L120 255Q115 260 115 265Q115 272 123 280L233 390L123 500Q115 508 115 516Q115 521 120 526L198 604Q203 609 208 609Q215 609 223 601L333 490L443 601Q451 609 459 609Q464 609 469 604L547 526Q552 521 552 516Z"  />
<glyph unicode="&#xD8;" horiz-adv-x="708" d="M693 742Q693 738 690 734L612 627Q635 589 648 539T661 423V320Q661 228 637 166T570 64T472 8T354 -9Q307 -9 264 0T184 31L170 10Q165 4 159 -2T144 -9H26Q15 -9 15 2Q15 5 18 10L95 118Q72 156 60 205T47 320V423Q47 514 71 577T138 679T236 735T354 753Q401 753 443 744T523 713L538 734Q543 740 549 746T564 753H682Q693 753 693 742ZM412 559Q401 567 386 570T354 574Q301 574 277 539T253 423V338L412 559ZM455 407L296 186Q318 170 354 170Q407 170 431 204T455 320V407Z"  />
<glyph unicode="&#xD9;" horiz-adv-x="731" d="M668 282Q668 191 643 135T575 46T479 3T365 -9Q306 -9 252 2T155 46T88 134T63 282V723Q63 731 69 737T84 743H246Q254 743 260 737T266 723V282Q266 214 289 188T365 162Q418 162 441 188T465 282V723Q465 731 471 737T485 743H647Q655 743 661 737T668 723V282H668ZM476 801Q476 794 467 794H338Q327 794 324 797T314 805L188 925Q184 929 184 933Q184 940 195 940H353Q364 940 369 937T381 925L472 811Q476 807 476 801Z"  />
<glyph unicode="&#xDA;" horiz-adv-x="731" d="M668 282Q668 191 643 135T575 46T479 3T365 -9Q306 -9 252 2T155 46T88 134T63 282V723Q63 731 69 737T84 743H246Q254 743 260 737T266 723V282Q266 214 289 188T365 162Q418 162 441 188T465 282V723Q465 731 471 737T485 743H647Q655 743 661 737T668 723V282H668ZM558 934Q558 930 554 926L428 806Q422 801 419 798T404 795H275Q266 795 266 802Q266 808 270 812L361 926Q368 934 373 937T389 941H547Q558 941 558 934Z"  />
<glyph unicode="&#xDB;" horiz-adv-x="731" d="M668 282Q668 191 643 135T575 46T479 3T365 -9Q306 -9 252 2T155 46T88 134T63 282V723Q63 731 69 737T84 743H246Q254 743 260 737T266 723V282Q266 214 289 188T365 162Q418 162 441 188T465 282V723Q465 731 471 737T485 743H647Q655 743 661 737T668 723V282H668ZM580 802Q580 795 571 795H447Q436 795 433 797T423 806L367 865L311 806Q305 800 302 798T287 795H163Q154 795 154 802Q154 807 158 812L244 926Q251 934 256 937T272 941H462Q473 941 478 938T490 926L576 812Q580 807 580 802Z"  />
<glyph unicode="&#xDC;" horiz-adv-x="731" d="M668 282Q668 191 643 135T575 46T479 3T365 -9Q306 -9 252 2T155 46T88 134T63 282V723Q63 731 69 737T84 743H246Q254 743 260 737T266 723V282Q266 214 289 188T365 162Q418 162 441 188T465 282V723Q465 731 471 737T485 743H647Q655 743 661 737T668 723V282H668ZM563 818Q563 810 556 804T540 798H424Q416 798 409 804T402 818V916Q402 924 409 930T424 936H540Q548 936 555 930T563 916V818ZM329 818Q329 810 322 804T307 798H191Q183 798 176 804T168 818V916Q168 924 175 930T191 936H307Q315 936 322 930T329 916V818Z"  />
<glyph unicode="&#xDD;" horiz-adv-x="682" d="M662 730Q662 728 660 722L513 377Q497 340 480 320T442 291V20Q442 12 436 6T422 0H259Q251 0 246 6T240 20V291Q220 299 203 319T169 377L22 722Q20 728 20 730Q20 743 34 743H208Q223 743 227 738T235 724L331 459Q335 449 341 449Q347 449 351 459L447 724Q450 732 454 737T474 743H648Q662 743 662 730ZM539 933Q539 929 535 925L409 805Q403 800 400 797T385 794H256Q247 794 247 801Q247 807 251 811L342 925Q349 933 354 936T370 940H528Q539 940 539 933Z"  />
<glyph unicode="&#xDE;" horiz-adv-x="677" d="M646 410Q646 335 618 287T545 209T445 169T335 157Q318 157 302 157T265 159V20Q265 12 260 6T246 0H84Q76 0 71 6T65 20V724Q65 743 84 743H246Q265 743 265 724V669Q267 669 274 669T292 670T312 670T331 670Q387 670 443 659T545 620T618 543T646 419V410ZM444 419Q444 463 415 481T335 499H284H265V328Q267 328 277 328T300 327T322 327T335 327Q386 327 415 347T444 410V419Z"  />
<glyph unicode="&#xDF;" horiz-adv-x="680" d="M627 229Q627 169 607 125T553 51T475 6T382 -9Q368 -9 350 -8T315 -3Q307 -1 301 4T295 17V136Q295 141 296 145T303 150H344Q363 150 379 152T408 163T427 186T434 225V242Q434 287 413 306T345 325H318Q310 325 304 331T298 345V441Q298 449 304 455T318 461H345Q392 461 409 480T427 526V551Q427 577 409 596T345 616Q291 616 269 592T247 516V21Q247 13 242 7T228 0H74Q66 0 60 6T54 21V516Q54 653 126 717T345 781Q417 781 469 765T554 718T604 648T620 559V534Q620 488 596 452T539 399Q581 377 604 340T627 254V229H627Z"  />
<glyph unicode="&#xE0;" horiz-adv-x="575" d="M525 20Q525 12 519 6T505 0H366Q358 0 352 6T346 20V41Q317 20 281 6T203 -9Q173 -9 143 0T88 30T48 85T32 170V182Q32 272 98 308T290 345H333V374Q333 411 319 421T267 432Q246 432 220 431T170 429T124 427T93 425Q80 424 76 430T71 445V542Q71 553 76 558T91 566Q103 570 124 574T171 581T223 587T274 590Q328 590 374 580T453 544T506 477T525 374V20ZM339 241H290Q252 241 236 228T220 183V173Q220 147 235 138T271 129Q289 129 307 133T339 144V241ZM383 640Q383 633 374 633H245Q234 633 231 636T221 644L95 764Q91 768 91 772Q91 779 102 779H260Q271 779 276 776T288 764L379 650Q383 646 383 640Z"  />
<glyph unicode="&#xE1;" horiz-adv-x="575" d="M525 20Q525 12 519 6T505 0H366Q358 0 352 6T346 20V41Q317 20 281 6T203 -9Q173 -9 143 0T88 30T48 85T32 170V182Q32 272 98 308T290 345H333V374Q333 411 319 421T267 432Q246 432 220 431T170 429T124 427T93 425Q80 424 76 430T71 445V542Q71 553 76 558T91 566Q103 570 124 574T171 581T223 587T274 590Q328 590 374 580T453 544T506 477T525 374V20ZM339 241H290Q252 241 236 228T220 183V173Q220 147 235 138T271 129Q289 129 307 133T339 144V241ZM492 772Q492 768 488 764L362 644Q356 639 353 636T338 633H209Q200 633 200 640Q200 646 204 650L295 764Q302 772 307 775T323 779H481Q492 779 492 772Z"  />
<glyph unicode="&#xE2;" horiz-adv-x="575" d="M525 20Q525 12 519 6T505 0H366Q358 0 352 6T346 20V41Q317 20 281 6T203 -9Q173 -9 143 0T88 30T48 85T32 170V182Q32 272 98 308T290 345H333V374Q333 411 319 421T267 432Q246 432 220 431T170 429T124 427T93 425Q80 424 76 430T71 445V542Q71 553 76 558T91 566Q103 570 124 574T171 581T223 587T274 590Q328 590 374 580T453 544T506 477T525 374V20ZM339 241H290Q252 241 236 228T220 183V173Q220 147 235 138T271 129Q289 129 307 133T339 144V241ZM509 640Q509 633 500 633H376Q365 633 362 635T352 644L296 703L240 644Q234 638 231 636T216 633H92Q83 633 83 640Q83 645 87 650L173 764Q180 772 185 775T201 779H391Q402 779 407 776T419 764L505 650Q509 645 509 640Z"  />
<glyph unicode="&#xE3;" horiz-adv-x="575" d="M525 20Q525 12 519 6T505 0H366Q358 0 352 6T346 20V41Q317 20 281 6T203 -9Q173 -9 143 0T88 30T48 85T32 170V182Q32 272 98 308T290 345H333V374Q333 411 319 421T267 432Q246 432 220 431T170 429T124 427T93 425Q80 424 76 430T71 445V542Q71 553 76 558T91 566Q103 570 124 574T171 581T223 587T274 590Q328 590 374 580T453 544T506 477T525 374V20ZM339 241H290Q252 241 236 228T220 183V173Q220 147 235 138T271 129Q289 129 307 133T339 144V241ZM513 753Q513 682 477 654T380 626Q366 626 345 631T307 647L267 671Q242 686 228 686Q220 686 215 682T209 666V649Q209 632 193 632H109Q92 632 92 649V666Q92 735 128 764T226 793Q240 793 260 788T298 773L339 749Q353 741 361 737T378 733Q388 733 392 737T396 754V771Q396 788 413 788H496Q513 788 513 771V753H513Z"  />
<glyph unicode="&#xE4;" horiz-adv-x="575" d="M525 20Q525 12 519 6T505 0H366Q358 0 352 6T346 20V41Q317 20 281 6T203 -9Q173 -9 143 0T88 30T48 85T32 170V182Q32 272 98 308T290 345H333V374Q333 411 319 421T267 432Q246 432 220 431T170 429T124 427T93 425Q80 424 76 430T71 445V542Q71 553 76 558T91 566Q103 570 124 574T171 581T223 587T274 590Q328 590 374 580T453 544T506 477T525 374V20ZM339 241H290Q252 241 236 228T220 183V173Q220 147 235 138T271 129Q289 129 307 133T339 144V241ZM496 658Q496 650 489 644T473 638H357Q349 638 342 644T335 658V756Q335 764 342 770T357 776H473Q481 776 488 770T496 756V658ZM262 658Q262 650 255 644T240 638H124Q116 638 109 644T101 658V756Q101 764 108 770T124 776H240Q248 776 255 770T262 756V658Z"  />
<glyph unicode="&#xE5;" horiz-adv-x="575" d="M525 20Q525 12 519 6T505 0H366Q358 0 352 6T346 20V41Q317 20 281 6T203 -9Q173 -9 143 0T88 30T48 85T32 170V182Q32 272 98 308T290 345H333V374Q333 411 319 421T267 432Q246 432 220 431T170 429T124 427T93 425Q80 424 76 430T71 445V542Q71 553 76 558T91 566Q103 570 124 574T171 581T223 587T274 590Q328 590 374 580T453 544T506 477T525 374V20ZM339 241H290Q252 241 236 228T220 183V173Q220 147 235 138T271 129Q289 129 307 133T339 144V241ZM413 752Q413 727 404 705T378 666T339 640T291 630Q266 630 244 639T206 665T181 704T172 752Q172 777 181 799T206 838T244 864T291 874Q316 874 338 865T377 839T403 800T413 752ZM333 753Q333 770 321 782T292 794Q275 794 264 782T252 753Q252 736 263 723T292 710Q309 710 321 723T333 753Z"  />
<glyph unicode="&#xE6;" horiz-adv-x="892" d="M852 262Q852 254 845 248T830 241H524V207Q524 175 550 163T625 150Q640 150 665 150T717 152T768 154T806 157H810Q827 157 827 140V52Q827 40 823 35T808 24Q763 7 707 -1T595 -9Q558 -9 526 1T468 29Q425 11 383 1T294 -9Q39 -9 39 176V187Q39 232 58 262T111 311T194 338T301 346H334V361Q334 404 317 418T270 432Q246 432 221 432T172 430T130 428T101 425H99Q91 425 86 431T81 445V541Q81 559 101 566Q113 570 132 574T175 582T222 588T270 591Q377 591 442 538Q474 564 511 577T598 591Q664 591 712 572T791 517T837 433T852 324V262ZM668 355Q668 395 652 419T596 444Q559 444 542 420T524 355V341H668V355ZM340 246H301Q264 246 242 233T220 187V176Q220 144 240 134T294 124Q308 124 317 125T340 131V246Z"  />
<glyph unicode="&#xE7;" horiz-adv-x="474" d="M436 28Q436 18 431 14T416 7Q390 1 357 -4T279 -9Q164 -9 102 60T40 253V328Q40 451 102 521T279 591Q324 591 359 586T416 575Q426 573 431 569T436 554V441Q436 433 431 428T417 422H415Q389 424 363 426T300 429Q268 429 250 407T232 328V253Q232 197 250 175T300 153Q337 153 363 155T415 159H417Q425 159 430 154T436 140V28ZM353 -43Q353 -47 349 -51L223 -171Q217 -176 213 -179T198 -182H70Q61 -182 61 -175Q61 -169 65 -165L156 -51Q163 -43 168 -40T184 -36H342Q353 -36 353 -43Z"  />
<glyph unicode="&#xE8;" horiz-adv-x="602" d="M562 259Q562 249 556 243T541 237H230V235Q230 195 250 172T325 149Q345 149 371 150T425 152T476 154T515 157Q527 158 532 155T537 140V50Q537 38 533 32T517 22Q469 6 416 -1T300 -9Q249 -9 202 5T119 50T62 131T40 253V319Q40 451 111 521T306 591Q372 591 420 571T499 515T546 429T562 319V259ZM378 346Q378 391 360 416T304 442Q268 442 249 417T230 346V343H378V346ZM384 640Q384 633 375 633H246Q235 633 232 636T222 644L96 764Q92 768 92 772Q92 779 103 779H261Q272 779 277 776T289 764L380 650Q384 646 384 640Z"  />
<glyph unicode="&#xE9;" horiz-adv-x="602" d="M562 259Q562 249 556 243T541 237H230V235Q230 195 250 172T325 149Q345 149 371 150T425 152T476 154T515 157Q527 158 532 155T537 140V50Q537 38 533 32T517 22Q469 6 416 -1T300 -9Q249 -9 202 5T119 50T62 131T40 253V319Q40 451 111 521T306 591Q372 591 420 571T499 515T546 429T562 319V259ZM378 346Q378 391 360 416T304 442Q268 442 249 417T230 346V343H378V346ZM504 772Q504 768 500 764L374 644Q368 639 365 636T350 633H221Q212 633 212 640Q212 646 216 650L307 764Q314 772 319 775T335 779H493Q504 779 504 772Z"  />
<glyph unicode="&#xEA;" horiz-adv-x="602" d="M562 259Q562 249 556 243T541 237H230V235Q230 195 250 172T325 149Q345 149 371 150T425 152T476 154T515 157Q527 158 532 155T537 140V50Q537 38 533 32T517 22Q469 6 416 -1T300 -9Q249 -9 202 5T119 50T62 131T40 253V319Q40 451 111 521T306 591Q372 591 420 571T499 515T546 429T562 319V259ZM378 346Q378 391 360 416T304 442Q268 442 249 417T230 346V343H378V346ZM516 640Q516 633 507 633H383Q372 633 369 635T359 644L303 703L247 644Q241 638 238 636T223 633H99Q90 633 90 640Q90 645 94 650L180 764Q187 772 192 775T208 779H398Q409 779 414 776T426 764L512 650Q516 645 516 640Z"  />
<glyph unicode="&#xEB;" horiz-adv-x="602" d="M562 259Q562 249 556 243T541 237H230V235Q230 195 250 172T325 149Q345 149 371 150T425 152T476 154T515 157Q527 158 532 155T537 140V50Q537 38 533 32T517 22Q469 6 416 -1T300 -9Q249 -9 202 5T119 50T62 131T40 253V319Q40 451 111 521T306 591Q372 591 420 571T499 515T546 429T562 319V259ZM378 346Q378 391 360 416T304 442Q268 442 249 417T230 346V343H378V346ZM498 657Q498 649 491 643T475 637H359Q351 637 344 643T337 657V755Q337 763 344 769T359 775H475Q483 775 490 769T498 755V657ZM264 657Q264 649 257 643T242 637H126Q118 637 111 643T103 657V755Q103 763 110 769T126 775H242Q250 775 257 769T264 755V657Z"  />
<glyph unicode="&#xEC;" horiz-adv-x="313" d="M253 22Q253 14 246 7T231 0H82Q74 0 67 7T60 22V561Q60 569 67 575T82 582H231Q239 582 246 576T253 561V22H253ZM249 640Q249 633 240 633H111Q100 633 97 636T87 644L-39 764Q-43 768 -43 772Q-43 779 -32 779H126Q137 779 142 776T154 764L245 650Q249 646 249 640Z"  />
<glyph unicode="&#xED;" horiz-adv-x="313" d="M253 22Q253 14 246 7T231 0H82Q74 0 67 7T60 22V561Q60 569 67 575T82 582H231Q239 582 246 576T253 561V22H253ZM353 772Q353 768 349 764L223 644Q217 639 214 636T199 633H70Q61 633 61 640Q61 646 65 650L156 764Q163 772 168 775T184 779H342Q353 779 353 772Z"  />
<glyph unicode="&#xEE;" horiz-adv-x="313" d="M253 22Q253 14 246 7T231 0H82Q74 0 67 7T60 22V561Q60 569 67 575T82 582H231Q239 582 246 576T253 561V22H253ZM370 640Q370 633 361 633H237Q226 633 223 635T213 644L157 703L101 644Q95 638 92 636T77 633H-47Q-56 633 -56 640Q-56 645 -52 650L34 764Q41 772 46 775T62 779H252Q263 779 268 776T280 764L366 650Q370 645 370 640Z"  />
<glyph unicode="&#xEF;" horiz-adv-x="313" d="M253 22Q253 14 246 7T231 0H82Q74 0 67 7T60 22V561Q60 569 67 575T82 582H231Q239 582 246 576T253 561V22H253ZM355 657Q355 649 348 643T332 637H216Q208 637 201 643T194 657V755Q194 763 201 769T216 775H332Q340 775 347 769T355 755V657ZM121 657Q121 649 114 643T99 637H-17Q-25 637 -32 643T-40 657V755Q-40 763 -33 769T-17 775H99Q107 775 114 769T121 755V657Z"  />
<glyph unicode="&#xF0;" horiz-adv-x="605" d="M565 266Q565 126 497 59T303 -9Q175 -9 108 60T40 266V287Q40 427 109 494T303 561Q309 561 316 561T330 557Q294 593 231 623L164 572Q156 566 151 566Q146 566 140 572L115 600Q112 603 112 608Q112 617 122 624L159 652L113 667Q107 669 102 672T97 682Q97 685 98 687L126 765Q130 776 140 776Q146 776 149 775Q211 759 268 736L341 791Q348 796 355 796Q362 796 366 791L391 763Q395 757 395 755Q395 749 385 741L338 704Q454 641 509 540T565 287V266ZM373 287Q373 351 356 376T303 402Q267 402 250 377T232 287V266Q232 202 249 177T303 151Q339 151 356 176T373 266V287Z"  />
<glyph unicode="&#xF1;" horiz-adv-x="631" d="M576 22Q576 14 571 7T556 0H406Q397 0 391 7T384 22V361Q384 401 370 416T322 431Q305 431 285 425T247 410V22Q247 14 242 7T227 0H77Q68 0 62 7T55 22V562Q55 570 61 576T75 582H214Q222 582 228 576T234 562V539Q274 569 315 579T399 590Q458 590 493 571T546 520T570 447T576 361V22H576ZM524 753Q524 682 488 654T391 626Q377 626 356 631T318 647L278 671Q253 686 239 686Q231 686 226 682T220 666V649Q220 632 204 632H120Q103 632 103 649V666Q103 735 139 764T237 793Q251 793 271 788T309 773L350 749Q364 741 372 737T389 733Q399 733 403 737T407 754V771Q407 788 424 788H507Q524 788 524 771V753H524Z"  />
<glyph unicode="&#xF2;" horiz-adv-x="605" d="M565 262Q565 129 497 60T303 -9Q177 -9 109 60T40 262V320Q40 453 108 522T303 591Q429 591 497 522T565 320V262ZM374 320Q374 380 356 405T303 430Q268 430 250 405T231 320V262Q231 202 249 177T303 151Q338 151 356 176T374 262V320ZM405 640Q405 633 396 633H267Q256 633 253 636T243 644L117 764Q113 768 113 772Q113 779 124 779H282Q293 779 298 776T310 764L401 650Q405 646 405 640Z"  />
<glyph unicode="&#xF3;" horiz-adv-x="605" d="M565 262Q565 129 497 60T303 -9Q177 -9 109 60T40 262V320Q40 453 108 522T303 591Q429 591 497 522T565 320V262ZM374 320Q374 380 356 405T303 430Q268 430 250 405T231 320V262Q231 202 249 177T303 151Q338 151 356 176T374 262V320ZM489 772Q489 768 485 764L359 644Q353 639 350 636T335 633H206Q197 633 197 640Q197 646 201 650L292 764Q299 772 304 775T320 779H478Q489 779 489 772Z"  />
<glyph unicode="&#xF4;" horiz-adv-x="605" d="M565 262Q565 129 497 60T303 -9Q177 -9 109 60T40 262V320Q40 453 108 522T303 591Q429 591 497 522T565 320V262ZM374 320Q374 380 356 405T303 430Q268 430 250 405T231 320V262Q231 202 249 177T303 151Q338 151 356 176T374 262V320ZM515 640Q515 633 506 633H382Q371 633 368 635T358 644L302 703L246 644Q240 638 237 636T222 633H98Q89 633 89 640Q89 645 93 650L179 764Q186 772 191 775T207 779H397Q408 779 413 776T425 764L511 650Q515 645 515 640Z"  />
<glyph unicode="&#xF5;" horiz-adv-x="605" d="M565 262Q565 129 497 60T303 -9Q177 -9 109 60T40 262V320Q40 453 108 522T303 591Q429 591 497 522T565 320V262ZM374 320Q374 380 356 405T303 430Q268 430 250 405T231 320V262Q231 202 249 177T303 151Q338 151 356 176T374 262V320ZM512 753Q512 682 476 654T379 626Q365 626 344 631T306 647L266 671Q241 686 227 686Q219 686 214 682T208 666V649Q208 632 192 632H108Q91 632 91 649V666Q91 735 127 764T225 793Q239 793 259 788T297 773L338 749Q352 741 360 737T377 733Q387 733 391 737T395 754V771Q395 788 412 788H495Q512 788 512 771V753H512Z"  />
<glyph unicode="&#xF6;" horiz-adv-x="605" d="M565 262Q565 129 497 60T303 -9Q177 -9 109 60T40 262V320Q40 453 108 522T303 591Q429 591 497 522T565 320V262ZM374 320Q374 380 356 405T303 430Q268 430 250 405T231 320V262Q231 202 249 177T303 151Q338 151 356 176T374 262V320ZM499 657Q499 649 492 643T476 637H360Q352 637 345 643T338 657V755Q338 763 345 769T360 775H476Q484 775 491 769T499 755V657ZM265 657Q265 649 258 643T243 637H127Q119 637 112 643T104 657V755Q104 763 111 769T127 775H243Q251 775 258 769T265 755V657Z"  />
<glyph unicode="&#xF7;" horiz-adv-x="666" d="M426 562Q426 554 420 548T405 542H259Q251 542 245 548T239 562V684Q239 692 245 698T259 704H405Q413 704 419 698T426 684V562ZM569 336Q569 328 563 324T549 320H117Q109 320 103 324T97 336V446Q97 454 103 458T117 462H549Q557 462 563 458T569 446V336ZM426 81Q426 73 420 67T405 61H259Q251 61 245 67T239 81V203Q239 211 245 217T259 223H405Q413 223 419 217T426 203V81Z"  />
<glyph unicode="&#xF8;" horiz-adv-x="605" d="M575 608Q575 602 571 597L507 510Q565 441 565 320V262Q565 129 497 60T303 -9Q214 -9 151 28L112 -25Q107 -32 104 -33T96 -35H38Q30 -35 30 -27Q30 -21 34 -16L99 72Q70 106 55 153T40 262V320Q40 453 108 522T303 591Q393 591 455 554L493 606Q498 613 501 614T509 616H567Q575 616 575 608ZM350 412Q332 430 303 430Q268 430 250 405T231 320V262V255V251L350 412ZM374 330L255 170Q273 151 303 151Q338 151 356 176T374 262V320V327V330Z"  />
<glyph unicode="&#xF9;" horiz-adv-x="631" d="M576 20Q576 12 570 6T556 0H417Q409 0 403 6T397 20V43Q370 23 333 7T239 -9Q183 -9 148 10T92 61T63 134T55 221V560Q55 568 60 575T75 582H225Q234 582 240 575T247 560V221Q247 181 259 166T309 150Q326 150 346 156T384 172V560Q384 568 389 575T404 582H554Q563 582 569 575T576 560V20H576ZM416 640Q416 633 407 633H278Q267 633 264 636T254 644L128 764Q124 768 124 772Q124 779 135 779H293Q304 779 309 776T321 764L412 650Q416 646 416 640Z"  />
<glyph unicode="&#xFA;" horiz-adv-x="631" d="M576 20Q576 12 570 6T556 0H417Q409 0 403 6T397 20V43Q370 23 333 7T239 -9Q183 -9 148 10T92 61T63 134T55 221V560Q55 568 60 575T75 582H225Q234 582 240 575T247 560V221Q247 181 259 166T309 150Q326 150 346 156T384 172V560Q384 568 389 575T404 582H554Q563 582 569 575T576 560V20H576ZM517 772Q517 768 513 764L387 644Q381 639 378 636T363 633H234Q225 633 225 640Q225 646 229 650L320 764Q327 772 332 775T348 779H506Q517 779 517 772Z"  />
<glyph unicode="&#xFB;" horiz-adv-x="631" d="M576 20Q576 12 570 6T556 0H417Q409 0 403 6T397 20V43Q370 23 333 7T239 -9Q183 -9 148 10T92 61T63 134T55 221V560Q55 568 60 575T75 582H225Q234 582 240 575T247 560V221Q247 181 259 166T309 150Q326 150 346 156T384 172V560Q384 568 389 575T404 582H554Q563 582 569 575T576 560V20H576ZM528 640Q528 633 519 633H395Q384 633 381 635T371 644L315 703L259 644Q253 638 250 636T235 633H111Q102 633 102 640Q102 645 106 650L192 764Q199 772 204 775T220 779H410Q421 779 426 776T438 764L524 650Q528 645 528 640Z"  />
<glyph unicode="&#xFC;" horiz-adv-x="631" d="M576 20Q576 12 570 6T556 0H417Q409 0 403 6T397 20V43Q370 23 333 7T239 -9Q183 -9 148 10T92 61T63 134T55 221V560Q55 568 60 575T75 582H225Q234 582 240 575T247 560V221Q247 181 259 166T309 150Q326 150 346 156T384 172V560Q384 568 389 575T404 582H554Q563 582 569 575T576 560V20H576ZM515 657Q515 649 508 643T492 637H376Q368 637 361 643T354 657V755Q354 763 361 769T376 775H492Q500 775 507 769T515 755V657ZM281 657Q281 649 274 643T259 637H143Q135 637 128 643T120 657V755Q120 763 127 769T143 775H259Q267 775 274 769T281 755V657Z"  />
<glyph unicode="&#xFD;" horiz-adv-x="621" d="M586 582Q593 582 600 578T603 560L433 -34Q422 -74 406 -105T364 -158T299 -191T200 -203Q185 -203 166 -202T128 -198T92 -192T65 -185Q57 -182 50 -178T42 -166V-69Q42 -61 45 -54T65 -48Q79 -49 96 -50T133 -53T170 -55T202 -56Q223 -56 237 -48T256 -18L264 15H251Q234 15 220 17T194 30T172 61T150 119L18 560Q12 582 39 582H202Q213 582 216 576T222 562L301 218Q305 201 312 201H320L399 563Q401 571 404 576T420 582H586H586ZM518 772Q518 768 514 764L388 644Q382 639 379 636T364 633H235Q226 633 226 640Q226 646 230 650L321 764Q328 772 333 775T349 779H507Q518 779 518 772Z"  />
<glyph unicode="&#xFE;" horiz-adv-x="616" d="M578 253Q578 133 513 62T315 -9Q303 -9 282 -7T247 -1V-169Q247 -177 241 -183T227 -190H77Q69 -190 62 -184T55 -169V753Q55 761 60 767T74 773H227Q235 773 241 767T247 753V588Q278 591 315 591Q436 591 507 524T578 329V253ZM386 329Q386 376 371 403T315 431Q293 431 279 430T247 426V155Q262 153 278 152T315 151Q354 151 370 179T386 253V329Z"  />
<glyph unicode="&#xFF;" horiz-adv-x="621" d="M586 582Q593 582 600 578T603 560L433 -34Q422 -74 406 -105T364 -158T299 -191T200 -203Q185 -203 166 -202T128 -198T92 -192T65 -185Q57 -182 50 -178T42 -166V-69Q42 -61 45 -54T65 -48Q79 -49 96 -50T133 -53T170 -55T202 -56Q223 -56 237 -48T256 -18L264 15H251Q234 15 220 17T194 30T172 61T150 119L18 560Q12 582 39 582H202Q213 582 216 576T222 562L301 218Q305 201 312 201H320L399 563Q401 571 404 576T420 582H586H586ZM515 657Q515 649 508 643T492 637H376Q368 637 361 643T354 657V755Q354 763 361 769T376 775H492Q500 775 507 769T515 755V657ZM281 657Q281 649 274 643T259 637H143Q135 637 128 643T120 657V755Q120 763 127 769T143 775H259Q267 775 274 769T281 755V657Z"  />
<glyph unicode="&#x131;" horiz-adv-x="313" d="M253 22Q253 14 246 7T231 0H82Q74 0 67 7T60 22V561Q60 569 67 575T82 582H231Q239 582 246 576T253 561V22H253Z"  />
<glyph unicode="&#x152;" horiz-adv-x="984" d="M931 23Q931 6 911 3Q882 -1 834 -5T713 -9Q662 -9 615 0T531 36Q493 13 448 2T354 -9Q292 -9 236 8T138 64T72 165T47 320V423Q47 514 71 577T138 679T236 735T354 753Q404 753 448 742T531 707Q567 734 615 743T714 752Q787 752 834 748T911 740Q931 737 931 720V598Q931 590 925 584T911 578H709Q686 578 675 570T662 538Q660 537 660 522T660 497V492V491Q660 489 660 484T660 473T661 462T661 456H907Q915 456 921 450T927 436V318Q927 310 921 304T907 298H661Q661 293 661 285T660 271V215Q660 186 671 176T709 165H911Q919 165 925 159T931 145V23ZM455 423Q455 504 431 539T354 574Q301 574 277 539T253 423V320Q253 239 277 205T354 170Q407 170 431 204T455 320V423Z"  />
<glyph unicode="&#x153;" horiz-adv-x="938" d="M898 259Q898 249 892 243T877 237H566V233V230Q567 192 587 171T661 149Q681 149 708 149T762 151T813 154T851 157H855Q873 157 873 140V50Q873 38 869 32T853 22Q805 6 752 -1T636 -9Q591 -9 548 4T471 48Q438 20 397 6T303 -9Q177 -9 109 60T40 262V320Q40 453 108 522T303 591Q356 591 398 576T473 532Q541 591 642 591Q708 591 756 571T835 515T882 429T898 319V259ZM713 346Q713 391 696 416T640 442Q605 442 586 417T566 348V347V343H714L713 346ZM374 320Q374 380 356 405T303 430Q268 430 250 405T232 320V262Q232 202 250 177T303 151Q338 151 356 176T374 262V320Z"  />
<glyph unicode="&#x160;" horiz-adv-x="607" d="M568 220Q568 178 553 137T504 64T416 11T285 -9Q223 -9 173 -2T83 17Q75 19 69 24T62 37V160Q62 181 83 180Q99 178 125 176T181 171T238 167T286 165Q323 165 336 178T349 216Q349 231 340 241T302 269L158 354Q123 375 100 398T64 446T45 498T39 554Q39 595 51 631T94 694T174 737T301 753Q331 753 364 751T428 745T486 737T528 728Q535 726 540 722T546 709V584Q546 576 542 570T526 565Q511 566 484 568T424 572T359 576T299 578Q271 578 260 569T249 544Q249 530 259 520T301 493L436 421Q509 382 538 333T568 220ZM507 934Q507 929 503 924L414 810Q407 802 402 799T386 795H196Q185 795 180 798T168 810L79 924Q75 929 75 934Q75 941 84 941H211Q222 941 225 939T235 930L291 873L347 930Q353 936 356 938T371 941H498Q507 941 507 934Z"  />
<glyph unicode="&#x161;" horiz-adv-x="517" d="M478 170Q478 132 465 100T423 43T351 5T246 -9Q192 -9 144 -2T61 15Q42 20 42 37V140Q42 151 47 157T67 161Q90 158 115 155T163 150T207 147T239 145Q269 145 277 152T286 173Q286 182 280 189T256 207L134 273Q39 324 39 431Q39 508 93 549T259 591Q316 591 361 584T443 566Q463 561 463 544V439Q463 429 460 423T443 419Q432 420 410 423T363 428T313 432T271 434Q234 434 234 414Q234 405 239 400T256 389L373 326Q434 293 456 253T478 170ZM477 772Q477 767 473 762L384 648Q377 640 372 637T356 633H166Q155 633 150 636T138 648L49 762Q45 767 45 772Q45 779 54 779H181Q192 779 195 777T205 768L261 711L317 768Q323 774 326 776T341 779H468Q477 779 477 772Z"  />
<glyph unicode="&#x178;" horiz-adv-x="682" d="M662 730Q662 728 660 722L513 377Q497 340 480 320T442 291V20Q442 12 436 6T422 0H259Q251 0 246 6T240 20V291Q220 299 203 319T169 377L22 722Q20 728 20 730Q20 743 34 743H208Q223 743 227 738T235 724L331 459Q335 449 341 449Q347 449 351 459L447 724Q450 732 454 737T474 743H648Q662 743 662 730ZM546 816Q546 808 539 802T523 796H407Q399 796 392 802T385 816V914Q385 922 392 928T407 934H523Q531 934 538 928T546 914V816ZM312 816Q312 808 305 802T290 796H174Q166 796 159 802T151 816V914Q151 922 158 928T174 934H290Q298 934 305 928T312 914V816Z"  />
<glyph unicode="&#x17D;" horiz-adv-x="632" d="M577 20Q577 12 571 6T557 0H86Q73 0 64 6T55 26V131Q55 142 59 153T73 180L312 549Q316 556 316 561Q316 568 305 568H86Q78 568 72 574T66 588V724Q66 732 72 737T86 743H542Q552 743 560 740T568 727V601Q568 593 563 577T536 528L318 194Q314 189 314 183Q314 175 326 175H557Q565 175 571 170T577 156V20H577ZM537 934Q537 929 533 924L444 810Q437 802 432 799T416 795H226Q215 795 210 798T198 810L109 924Q105 929 105 934Q105 941 114 941H241Q252 941 255 939T265 930L321 873L377 930Q383 936 386 938T401 941H528Q537 941 537 934Z"  />
<glyph unicode="&#x17E;" horiz-adv-x="542" d="M495 20Q495 12 489 6T475 0H74Q63 0 55 8T47 27V111Q47 124 50 133T62 155L253 414Q257 419 257 423Q257 429 248 429H70Q54 429 54 445V562Q54 570 60 576T74 582H467Q478 582 485 574T493 555V464Q493 447 489 439T476 418L294 171Q290 165 290 162Q290 156 299 156H477Q485 156 490 152T495 140V20H495ZM494 772Q494 767 490 762L401 648Q394 640 389 637T373 633H183Q172 633 167 636T155 648L66 762Q62 767 62 772Q62 779 71 779H198Q209 779 212 777T222 768L278 711L334 768Q340 774 343 776T358 779H485Q494 779 494 772Z"  />
<glyph unicode="&#x192;" horiz-adv-x="666" d="M640 762L627 670Q625 662 619 656T603 650H535Q516 650 505 648T487 642T477 629T472 609L452 465H582Q600 465 600 448V445L586 342Q584 334 578 328T562 321H432L388 8Q380 -46 359 -81T307 -138T237 -167T156 -175Q124 -175 93 -172T45 -165Q34 -163 31 -159T27 -149V-145L39 -53Q40 -45 47 -40T63 -34H132Q151 -34 162 -32T179 -25T189 -12T194 8L238 321H113Q105 321 100 326T95 339V342L109 445Q111 453 117 459T133 465H259L279 609Q286 663 307 698T360 755T429 784T510 792Q542 792 574 789T622 782Q633 780 636 776T640 766V762Z"  />
<glyph unicode="&#x2C6;" horiz-adv-x="472" d="M449 640Q449 633 440 633H316Q305 633 302 635T292 644L236 703L180 644Q174 638 171 636T156 633H32Q23 633 23 640Q23 645 27 650L113 764Q120 772 125 775T141 779H331Q342 779 347 776T359 764L445 650Q449 645 449 640Z"  />
<glyph unicode="&#x2DC;" horiz-adv-x="498" d="M456 753Q456 682 420 654T323 626Q309 626 288 631T250 647L210 671Q185 686 171 686Q163 686 158 682T152 666V649Q152 632 136 632H52Q35 632 35 649V666Q35 735 71 764T169 793Q183 793 203 788T241 773L282 749Q296 741 304 737T321 733Q331 733 335 737T339 754V771Q339 788 356 788H439Q456 788 456 771V753H456Z"  />
<glyph unicode="&#x2013;" horiz-adv-x="309" d="M324 249Q324 241 318 236T304 230H4Q-15 230 -15 249V339Q-15 347 -10 353T4 359H304Q312 359 318 353T324 339V249H324Z"  />
<glyph unicode="&#x2014;" horiz-adv-x="599" d="M614 249Q614 241 608 236T594 230H4Q-15 230 -15 249V339Q-15 347 -10 353T4 359H594Q602 359 608 353T614 339V249H614Z"  />
<glyph unicode="&#x2018;" horiz-adv-x="277" d="M256 763Q256 761 256 759T255 754L197 524Q192 505 177 505H33Q21 505 21 516Q21 518 23 524L105 754Q109 764 112 768T124 773H247Q256 773 256 763Z"  />
<glyph unicode="&#x2019;" horiz-adv-x="277" d="M256 762Q256 760 254 754L172 524Q168 514 165 510T153 505H30Q21 505 21 515Q21 517 21 519T22 524L80 754Q85 773 100 773H244Q256 773 256 762Z"  />
<glyph unicode="&#x201A;" horiz-adv-x="277" d="M274 165Q274 161 273 159L169 -79Q165 -87 160 -93T146 -99H42Q34 -99 29 -95T23 -83Q23 -82 23 -81T24 -79L91 159Q93 167 98 173T112 179H259Q274 179 274 165Z"  />
<glyph unicode="&#x201C;" horiz-adv-x="515" d="M494 763Q494 761 494 759T493 754L435 524Q430 505 415 505H271Q259 505 259 516Q259 518 261 524L342 754Q346 764 349 768T361 773H485Q494 773 494 763ZM255 763Q255 761 255 759T254 754L197 524Q193 505 177 505H33Q21 505 21 516Q21 518 23 524L104 754Q108 764 111 768T123 773H246Q255 773 255 763Z"  />
<glyph unicode="&#x201D;" horiz-adv-x="515" d="M494 762Q494 760 492 754L410 524Q406 514 403 510T391 505H268Q259 505 259 515Q259 517 259 519T260 524L318 754Q323 773 338 773H482Q494 773 494 762ZM255 762Q255 760 253 754L172 524Q168 514 165 510T153 505H30Q21 505 21 515Q21 517 21 519T22 524L80 754Q85 773 100 773H243Q255 773 255 762Z"  />
<glyph unicode="&#x201E;" horiz-adv-x="515" d="M510 165Q510 161 509 159L405 -79Q401 -87 396 -93T382 -99H278Q270 -99 265 -95T259 -83Q259 -82 259 -81T260 -79L327 159Q329 167 334 173T348 179H495Q510 179 510 165ZM265 165Q265 161 264 159L160 -79Q156 -87 151 -93T137 -99H33Q25 -99 20 -95T14 -83Q14 -82 14 -81T15 -79L82 159Q84 167 89 173T103 179H250Q265 179 265 165Z"  />
<glyph unicode="&#x2020;" horiz-adv-x="455" d="M428 454Q428 438 409 438H323V14Q323 6 319 0T307 -6H145Q137 -6 133 0T129 14V438H47Q28 438 28 454V581Q28 596 47 596H129V754Q129 762 133 767T146 773H307Q315 773 319 768T323 754V596H409Q428 596 428 581V454H428Z"  />
<glyph unicode="&#x2021;" horiz-adv-x="455" d="M428 218Q428 202 409 202H323V14Q323 6 319 0T307 -6H145Q137 -6 133 0T129 14V202H47Q28 202 28 218V345Q28 360 47 360H129V438H47Q28 438 28 454V581Q28 596 47 596H129V754Q129 762 133 767T146 773H307Q315 773 319 768T323 754V596H409Q428 596 428 581V454Q428 438 409 438H323V360H409Q428 360 428 345V218H428Z"  />
<glyph unicode="&#x2022;" horiz-adv-x="418" d="M380 367Q380 332 367 301T330 247T275 211T209 197Q174 197 143 210T89 247T53 301T39 367Q39 402 52 433T89 487T143 524T209 538Q244 538 275 525T329 488T366 433T380 367Z"  />
<glyph unicode="&#x2026;" horiz-adv-x="833" d="M785 20Q785 12 779 6T765 0H619Q611 0 605 6T598 20V159Q598 167 604 173T619 179H765Q773 179 779 173T785 159V20ZM510 20Q510 12 504 6T490 0H344Q336 0 330 6T323 20V159Q323 167 329 173T344 179H490Q498 179 504 173T510 159V20ZM235 20Q235 12 229 6T215 0H69Q61 0 55 6T48 20V159Q48 167 54 173T69 179H215Q223 179 229 173T235 159V20Z"  />
<glyph unicode="&#x2030;" horiz-adv-x="1225" d="M1188 170Q1188 80 1149 37T1035 -6Q961 -6 922 37T882 170V238Q882 328 921 371T1035 414Q1109 414 1148 371T1188 238V170ZM831 170Q831 80 792 37T679 -6Q605 -6 566 37T526 170V238Q526 328 565 371T679 414Q753 414 792 371T831 238V170ZM723 734Q723 731 719 723L304 22Q297 11 293 6T280 0H158Q145 0 145 13Q145 17 148 22L563 723Q570 734 575 738T589 743H712Q723 743 723 734ZM343 505Q343 415 304 372T190 329Q116 329 77 372T37 505V573Q37 663 76 705T190 748Q264 748 303 706T343 573V505ZM1072 238Q1072 262 1070 277T1062 301T1051 312T1035 315Q1026 315 1019 312T1007 301T1000 278T997 238V170Q997 146 999 131T1007 107T1019 96T1035 93Q1044 93 1050 96T1062 107T1069 130T1072 170V238ZM716 238Q716 262 714 277T706 301T695 312T679 315Q670 315 663 312T651 301T644 278T641 238V170Q641 146 643 131T651 107T663 96T679 93Q688 93 694 96T706 107T713 130T716 170V238ZM227 573Q227 597 225 612T217 636T206 647T190 650Q181 650 174 647T162 636T155 613T152 573V505Q152 481 154 466T162 442T174 430T190 427Q207 427 217 441T227 505V573Z"  />
<glyph unicode="&#x2039;" horiz-adv-x="424" d="M391 71Q391 60 378 60H230Q220 60 213 62T201 71L43 263Q38 270 34 276T30 290Q30 297 34 304T43 318L201 509Q206 516 213 518T230 520H378Q391 520 391 510Q391 506 386 499L215 290L386 82Q391 75 391 71Z"  />
<glyph unicode="&#x203A;" horiz-adv-x="424" d="M395 290Q395 283 391 277T382 263L224 71Q219 64 212 62T195 60H47Q34 60 34 71Q34 75 39 82L210 290L39 499Q34 506 34 510Q34 520 47 520H195Q205 520 212 518T224 509L382 318Q387 311 391 304T395 290Z"  />
<glyph unicode="&#x20AC;" horiz-adv-x="666" d="M590 31Q590 21 585 17T568 9Q548 2 515 -3T433 -9Q371 -9 318 6T224 55T157 138T123 259H97Q89 259 83 265T77 279V325Q77 333 83 339T97 345H120V401H97Q89 401 83 407T77 421V467Q77 475 83 481T97 487H123Q131 557 157 607T223 690T317 737T433 753Q480 753 514 748T568 735Q580 731 585 728T590 713V592Q590 573 572 573H569Q538 576 507 578T439 581Q420 581 403 577T371 562T346 533T332 487H520Q535 487 535 477V475L521 413Q519 405 515 403T505 401H326V345H484Q500 345 500 331V327L487 274Q485 268 481 264T470 259H331Q335 231 345 213T370 183T402 168T439 163Q476 163 507 165T569 171H572Q590 171 590 152V31H590Z"  />
<glyph unicode="&#x2122;" horiz-adv-x="847" d="M807 351Q807 341 796 341H703Q692 341 692 351V589Q692 607 690 618T683 635T666 643T637 645V351Q637 341 626 341H532Q522 341 522 351V645Q507 645 494 644T467 642V351Q467 341 456 341H363Q352 341 352 351V699Q352 721 359 729T385 739Q435 744 486 746T579 748Q636 748 679 743T750 722T793 674T807 589V351ZM322 661Q322 649 310 649H234V352Q234 341 222 341H127Q115 341 115 352V649H37Q25 649 25 661V731Q25 736 28 739T37 743H310Q315 743 318 740T322 731V661Z"  />

</font>
</defs>
</svg>
