<?xml  version="1.0" encoding="UTF-8"?>
<!DOCTYPE svg PUBLIC "-//W3C//DTD SVG 1.0//EN" "http://www.w3.org/TR/2001/REC-SVG-20010904/DTD/svg10.dtd" >
<svg xmlns="http://www.w3.org/2000/svg" >
<metadata>
<version>1.0</version>
<id><![CDATA[Neo Sans W01 Ultra]]></id>
<vendor>Monotype Imaging Inc.</vendor>
<credits>
<name>Fonts.com WebFonts</name>
<URL>http://webfonts.fonts.com</URL>
<role>Home of the Web fonts</role>
</credits>
<license>
<URL>http://webfonts.fonts.com/Legal</URL>
</license>
<copyright><![CDATA[Copyright 2004 Monotype Imaging Inc. All Rights Reserved. Neo Sans is designed by Sebastian Lester.]]></copyright>
<trademark><![CDATA[Neo Sans is a trademark of Monotype Imaging Inc. and may be registered in certain jurisdictions.]]></trademark>
<licensee>
<name></name>
</licensee>
</metadata>
<defs >
<font horiz-adv-x="592" id="364edb7f-b735-435e-8ae5-6bcfc04f6f41">
<font-face font-family="" panose-1="2 11 11 4 3 5 4 4 2 4" ascent="1037" descent="-217" units-per-em="1000" alphabetic="0">
</font-face>
<missing-glyph horiz-adv-x="0" />

<glyph unicode="&#xA;" />
<glyph unicode="&#xD;" horiz-adv-x="0" />
<glyph unicode=" " horiz-adv-x="242" />
<glyph unicode="!" horiz-adv-x="309" d="M269 758L239 276Q238 267 233 261T219 254H92Q83 254 77 260T70 276L40 758V759Q40 767 47 773T62 779H249Q257 779 263 773T269 759V758ZM262 20Q262 12 256 6T242 0H67Q59 0 53 6T47 20V172Q47 180 53 186T67 192H242Q250 192 256 186T262 172V20Z"  />
<glyph unicode="&quot;" horiz-adv-x="497" d="M524 768Q524 766 522 760L434 518Q430 508 427 504T415 499H270Q261 499 261 509Q261 515 262 518L323 760Q328 779 343 779H512Q524 779 524 768ZM267 768Q267 766 265 760L177 518Q173 508 170 504T158 499H13Q4 499 4 509Q4 515 5 518L66 760Q71 779 86 779H255Q267 779 267 768Z"  />
<glyph unicode="#" horiz-adv-x="715" d="M688 552L677 451Q676 443 671 439T657 435H585L573 306H646Q653 306 658 302T664 291V289L653 188Q652 180 647 176T633 172H561L548 19Q547 11 543 6T530 0H381Q373 0 369 5T365 17V19L378 172H298L285 19Q284 11 280 6T267 0H117Q110 0 106 5T101 17V19L114 172H45Q38 172 33 175T27 186V188L38 289Q39 297 44 301T58 306H126L138 435H69Q62 435 57 438T51 449V451L62 552Q63 560 68 564T82 569H149L163 724Q164 732 169 737T182 743H332Q339 743 343 738T347 726V724L333 569H413L427 724Q428 732 433 737T446 743H595Q603 743 606 738T610 726V724L596 569H670Q677 569 682 565T688 554V552ZM322 435L310 306H390L402 435H322Z"  />
<glyph unicode="$" horiz-adv-x="670" d="M612 229Q612 192 601 156T565 89T503 35T412 -1V-102Q412 -110 406 -116T392 -122H244Q236 -122 230 -116T224 -102V-5Q189 -1 160 5T104 20Q96 22 90 27T83 40V189Q83 197 88 203T102 209H104Q120 207 146 204T202 199T263 194T319 192Q341 192 348 200T356 223Q356 231 351 237T328 254L178 341Q142 362 119 386T83 436T64 491T58 550Q58 583 66 614T93 670T144 715T224 744V835Q224 843 230 849T244 855H392Q400 855 406 849T412 835V749Q460 745 503 739T569 725Q577 723 583 718T589 705V556Q589 548 584 542T571 536H569Q549 538 519 540T456 545T388 549T326 551Q313 551 309 546T305 535Q305 528 311 522T342 503L484 428Q552 392 582 343T612 229Z"  />
<glyph unicode="%" horiz-adv-x="896" d="M861 174Q861 82 821 38T703 -6Q626 -6 586 38T545 174V234Q545 326 585 370T703 414Q780 414 820 370T861 234V174ZM747 732Q747 726 744 722L330 22Q323 11 319 6T305 0H163Q150 0 150 13Q150 19 152 22L566 722Q573 733 578 738T593 743H735Q747 743 747 732ZM351 508Q351 416 311 372T193 328Q116 328 76 372T35 508V568Q35 660 75 704T193 748Q270 748 310 704T351 568V508ZM730 234Q730 257 728 270T723 291T714 301T703 303Q697 303 692 301T683 292T677 271T675 234V174Q675 151 677 138T682 117T691 107T703 104Q709 104 714 106T722 116T728 137T730 174V234ZM220 568Q220 591 218 604T213 625T204 635T193 637Q187 637 182 635T173 626T167 605T165 568V508Q165 485 167 472T172 451T181 441T193 438Q199 438 204 440T212 450T218 471T220 508V568Z"  />
<glyph unicode="&amp;" horiz-adv-x="761" d="M770 15Q770 8 766 4T755 0H553Q546 0 543 2T535 9L518 26Q481 9 437 0T341 -10Q272 -10 217 0T122 35T61 98T39 194V212Q39 246 48 274T75 325T114 366T164 402L155 413Q134 438 120 457T96 493T82 525T78 559V567Q78 603 91 637T133 696T212 737T333 753Q403 753 451 740T530 703T574 643T588 565V557Q588 528 582 505T563 463T531 426T487 392L444 362L525 278Q529 293 530 310T532 345V358Q532 366 538 372T552 378H686Q694 378 700 372T706 358V345Q706 291 693 241T652 146L763 29Q770 22 770 15ZM379 565Q379 580 369 592T333 604Q304 604 296 592T287 565V557Q287 540 292 527T313 499L319 493L339 506Q365 523 372 533T379 557V565ZM291 267Q274 255 270 239T265 207V199Q265 176 282 160T341 143Q371 143 400 151L291 267Z"  />
<glyph unicode="&apos;" horiz-adv-x="240" d="M267 768Q267 766 265 760L177 518Q173 508 170 504T158 499H13Q4 499 4 509Q4 515 5 518L66 760Q71 779 86 779H255Q267 779 267 768Z"  />
<glyph unicode="(" horiz-adv-x="402" d="M377 -185Q377 -195 365 -195H205Q194 -195 186 -192T171 -181Q139 -136 115 -89T74 13T49 129T40 264V283Q40 428 73 534T171 729Q177 737 185 740T205 743H365Q377 743 377 733Q377 725 372 717Q351 679 332 634T297 534T273 418T264 283V264Q264 192 273 130T297 14T331 -85T372 -169Q377 -177 377 -185Z"  />
<glyph unicode=")" horiz-adv-x="402" d="M362 264Q362 191 354 129T329 13T288 -88T231 -181Q225 -189 217 -192T197 -195H37Q25 -195 25 -185Q25 -177 30 -169Q51 -131 70 -86T105 13T129 129T138 264V283Q138 355 129 417T105 534T71 633T30 717Q25 725 25 733Q25 743 37 743H197Q208 743 216 740T231 729Q295 640 328 534T362 283V264H362Z"  />
<glyph unicode="*" horiz-adv-x="480" d="M461 549Q461 537 445 532L338 502L406 412Q412 404 412 397Q412 388 405 384L330 330Q325 327 320 327Q310 327 303 337L240 431L177 337Q170 327 160 327Q154 327 150 330L75 384Q68 388 68 397Q68 404 74 412L142 502L36 532Q19 537 19 550Q19 553 20 555L49 644Q53 655 64 655Q66 655 74 653L180 616L177 727V728Q177 737 181 743T193 749H287Q296 749 299 743T303 728V727L301 616L406 653Q414 655 416 655Q427 655 431 644L460 555Q461 553 461 549Z"  />
<glyph unicode="+" horiz-adv-x="670" d="M578 326Q578 318 572 314T558 310H416V169Q416 161 412 155T400 149H270Q262 149 258 155T254 169V310H113Q105 310 99 314T93 326V456Q93 464 99 468T113 472H254V614Q254 622 258 628T270 634H400Q408 634 412 628T416 614V472H558Q566 472 572 468T578 456V326H578Z"  />
<glyph unicode="&#x2c;" horiz-adv-x="296" d="M265 178Q265 174 264 172L152 -80Q149 -88 145 -94T132 -100H5Q-3 -100 -9 -96T-15 -83V-80L55 172Q57 180 62 186T76 192H249Q256 192 260 188T265 178Z"  />
<glyph unicode="-" horiz-adv-x="262" d="M247 238Q247 230 241 224T227 218H35Q27 218 21 224T15 238V356Q15 364 21 370T35 376H227Q235 376 241 370T247 356V238H247Z"  />
<glyph unicode="." horiz-adv-x="296" d="M256 20Q256 12 250 6T235 0H61Q53 0 47 6T40 20V172Q40 180 46 186T61 192H235Q243 192 249 186T256 172V20H256Z"  />
<glyph unicode="/" horiz-adv-x="445" d="M435 726Q435 724 435 724T434 722L234 22Q232 14 227 7T213 0H33Q25 0 18 5T10 19V22L210 722Q212 730 218 736T233 743H413Q421 743 428 738T435 726Z"  />
<glyph unicode="0" horiz-adv-x="670" d="M622 317Q622 150 548 70T335 -10Q195 -10 122 70T48 317V426Q48 592 121 672T335 753Q474 753 548 673T622 426V317ZM385 426Q385 468 382 492T372 530T356 548T335 552Q324 552 315 548T299 531T289 493T285 426V317Q285 275 288 251T298 213T314 195T335 191Q346 191 355 195T371 212T381 250T385 317V426Z"  />
<glyph unicode="1" horiz-adv-x="670" d="M227 199V510L107 471Q99 468 95 468Q85 468 85 480V649Q85 663 99 669L280 738Q286 740 290 741T302 743H442Q450 743 456 737T462 723V199H583Q591 199 597 193T604 179V20Q604 12 598 6T583 0H106Q98 0 92 6T85 20V179Q85 187 91 193T106 199H227Z"  />
<glyph unicode="2" horiz-adv-x="670" d="M605 548Q605 507 591 474T554 413T499 362T434 319Q380 287 340 259T285 199H572Q580 199 586 193T593 179V20Q593 12 587 6T572 0H86Q78 0 72 6T65 20V130Q65 188 80 233T120 314T179 378T248 431Q290 459 314 474T350 499T366 516T370 536Q370 543 368 549T357 558T332 564T287 566Q238 566 190 563T94 556H93Q85 556 80 562T74 576V691Q74 699 80 703T94 711Q142 729 202 741T331 753Q407 753 459 740T543 701T590 637T605 548Z"  />
<glyph unicode="3" horiz-adv-x="670" d="M604 211Q604 91 532 41T324 -10Q292 -10 257 -7T190 3T131 16T88 31Q80 35 74 39T67 51V167Q67 175 73 181T87 187H88Q108 185 134 184T190 181T249 178T304 177Q347 177 361 193T376 233Q376 255 363 272T317 289H144Q136 289 130 295T124 309V438Q124 446 130 452T144 458H305Q342 458 358 475T375 515Q375 539 358 552T304 566Q279 566 251 565T194 563T141 559T95 556H94Q86 556 80 562T74 576V692Q74 700 80 704T95 712Q111 719 136 726T193 740T258 749T324 753Q391 753 443 743T531 708T585 643T604 542Q604 510 597 485T577 440T547 405T511 377Q604 330 604 211Z"  />
<glyph unicode="4" horiz-adv-x="670" d="M632 162Q632 154 626 148T612 142H562V20Q562 12 556 6T542 0H347Q339 0 333 6T327 20V142H59Q51 142 45 148T39 162V292Q39 307 49 320L381 738Q386 743 394 743H403H542Q550 743 556 737T562 723V319H612Q620 319 626 313T632 299V162ZM338 481L210 319H338V481Z"  />
<glyph unicode="5" horiz-adv-x="670" d="M599 235Q599 170 577 124T516 48T422 4T302 -10Q246 -10 193 0T94 27Q86 30 80 34T73 47V167Q73 175 78 181T92 187H94Q105 186 128 184T177 181T222 178T249 177Q285 177 307 180T340 190T354 208T358 235V247Q358 259 356 268T346 284T324 294T287 298H93Q85 298 79 303T72 317V318L103 723Q104 731 109 737T123 743H562Q570 743 576 737T582 723V576Q582 568 576 562T562 556H290L283 475H336Q416 475 467 457T547 409T588 337T599 247V235H599Z"  />
<glyph unicode="6" horiz-adv-x="670" d="M614 254Q614 194 597 145T545 62T458 9T336 -10Q266 -10 214 8T126 61T74 144T56 254V482Q56 555 80 607T143 691T232 738T336 753Q408 753 462 744T558 722Q572 717 575 711T579 696V572Q579 552 561 552H556Q538 554 517 556T472 561T426 564T380 566Q356 566 338 563T309 551T293 526T287 482V477Q292 478 301 479T322 481T344 483T361 484Q415 484 461 473T541 436T594 366T614 260V254ZM384 260Q384 303 372 316T336 330Q320 330 308 329T287 327V254Q287 199 301 181T336 163Q357 163 370 181T384 254V260Z"  />
<glyph unicode="7" horiz-adv-x="670" d="M600 612Q600 598 596 587T588 568L319 20Q315 12 311 6T299 0H86Q70 0 70 10Q70 14 73 20L343 556H93Q85 556 79 562T72 576V723Q72 731 78 737T93 743H580Q588 743 594 737T600 723V612H600Z"  />
<glyph unicode="8" horiz-adv-x="670" d="M625 210Q625 165 609 125T559 55T470 8T341 -10H329Q254 -10 200 7T112 55T61 125T45 210V230Q45 278 65 317T120 384Q91 407 71 438T50 521V547Q50 592 65 630T114 695T201 738T329 753H341Q416 753 469 738T555 696T604 630T620 547V521Q620 470 600 439T550 384Q585 357 605 318T625 230V210ZM396 522Q396 532 394 542T385 562T368 576T341 582H329Q313 582 303 577T286 562T277 543T274 522V514Q274 485 290 472T329 459H341Q364 459 380 472T396 514V522ZM397 235Q397 267 384 285T341 303H329Q300 303 287 285T273 235V224Q273 195 288 178T329 160H341Q367 160 382 177T397 224V235Z"  />
<glyph unicode="9" horiz-adv-x="670" d="M608 261Q608 187 584 136T521 52T432 5T328 -10Q256 -10 202 -1T106 21Q92 26 89 32T85 47V171Q85 191 103 191H108Q126 189 147 187T192 182T238 179T284 177Q308 177 326 180T355 192T371 217T377 261V266Q372 265 363 264T342 262T320 260T303 259Q249 259 203 270T123 307T70 377T50 483V489Q50 549 67 598T119 681T206 734T328 753Q467 753 537 682T608 489V261ZM377 489Q377 544 363 562T328 580Q307 580 294 562T280 489V483Q280 440 292 427T328 413Q344 413 356 414T377 416V489Z"  />
<glyph unicode=":" horiz-adv-x="296" d="M256 379Q256 371 250 365T235 359H61Q53 359 47 365T40 379V531Q40 539 46 545T61 551H235Q243 551 249 545T256 531V379ZM256 20Q256 12 250 6T235 0H61Q53 0 47 6T40 20V172Q40 180 46 186T61 192H235Q243 192 249 186T256 172V20Z"  />
<glyph unicode=";" horiz-adv-x="296" d="M259 379Q259 371 253 365T238 359H64Q56 359 50 365T43 379V531Q43 539 49 545T64 551H238Q246 551 252 545T259 531V379ZM237 192Q245 192 251 188T252 172L140 -80Q137 -88 133 -94T120 -100H-7Q-15 -100 -22 -96T-27 -80L43 172Q45 180 50 186T64 192H237Z"  />
<glyph unicode="&lt;" horiz-adv-x="670" d="M580 145Q580 134 567 134H370Q353 134 342 144L106 362Q91 377 91 391Q91 405 106 420L342 638Q353 648 370 648H567Q580 648 580 637Q580 631 573 625L317 391L573 157Q580 151 580 145Z"  />
<glyph unicode="=" horiz-adv-x="670" d="M578 468Q578 460 572 456T558 452H113Q105 452 99 456T93 468V598Q93 606 99 610T113 614H558Q566 614 572 610T578 598V468ZM578 184Q578 176 572 172T558 168H113Q105 168 99 172T93 184V314Q93 322 99 326T113 330H558Q566 330 572 326T578 314V184Z"  />
<glyph unicode="&gt;" horiz-adv-x="670" d="M579 391Q579 377 564 362L328 144Q317 134 300 134H103Q90 134 90 145Q90 151 97 157L353 391L97 625Q90 631 90 637Q90 648 103 648H300Q317 648 328 638L564 420Q579 405 579 391Z"  />
<glyph unicode="?" horiz-adv-x="500" d="M470 604Q470 557 457 528T423 470L291 273Q277 253 259 253H125Q117 253 111 259T105 273V314Q105 339 107 356T113 388T126 418T147 456L195 538Q202 550 205 557T208 573Q208 586 190 586Q187 586 179 586T155 584T113 581T50 575Q37 573 34 580T30 595V739Q30 747 36 751T50 759Q83 772 128 780T222 788Q284 788 330 779T408 748T454 691T470 604ZM310 20Q310 12 304 6T289 0H115Q107 0 101 6T94 20V172Q94 180 100 186T115 192H289Q297 192 303 186T310 172V20Z"  />
<glyph unicode="@" horiz-adv-x="792" d="M762 355Q762 270 732 210T650 112T528 55T379 37Q341 37 307 45T248 72T207 119T192 189Q192 194 192 197T193 206L202 321Q206 371 224 405T270 460T336 490T417 499Q435 499 454 498T492 494T527 489T555 483Q569 480 578 473T585 446L558 159Q580 164 599 181T632 224T654 283T662 355Q662 397 651 438T614 510T543 561T432 581Q300 581 231 524T149 343L133 174Q132 166 132 159T131 143Q131 90 149 55T201 -2T279 -32T379 -41Q398 -41 420 -40T464 -38T505 -36T536 -33H537Q542 -33 543 -36T545 -45V-94Q545 -104 537 -105Q526 -107 508 -109T467 -114T422 -117T379 -119Q309 -119 246 -105T135 -60T59 21T31 143Q31 151 31 162T33 183L49 350Q64 505 162 586T432 668Q519 668 581 642T684 572T743 472T762 355ZM428 373Q410 376 399 376Q386 376 378 374T364 366T356 347T351 316L340 208Q339 203 339 198T339 189Q339 167 350 163T379 158Q386 158 390 158T409 159L428 373Z"  />
<glyph unicode="A" horiz-adv-x="716" d="M473 0Q465 0 460 6T452 20L434 132H282L264 20Q262 12 257 6T243 0H35Q25 0 22 6T20 20L139 624Q146 662 164 687T210 726T275 747T358 753Q404 753 441 747T505 727T551 687T577 624L696 20Q698 12 695 6T681 0H473ZM367 549Q366 555 365 558T358 562Q353 562 352 559T349 549L312 316H404L367 549Z"  />
<glyph unicode="B" horiz-adv-x="704" d="M664 228Q664 149 632 102T551 30T441 -2T326 -10Q312 -10 287 -10T233 -8T175 -4T125 2Q105 6 92 11T70 26T59 51T55 89V655Q55 678 58 693T70 717T91 732T125 741Q144 744 172 746T230 749T286 752T326 753Q403 753 464 744T569 710T636 643T660 534V518Q660 471 640 436T591 381Q619 361 641 322T664 239V228ZM434 515Q434 533 420 548T367 563H285V451H367Q406 451 420 465T434 499V515ZM437 243Q437 268 422 283T367 298H285V180H367Q407 180 422 197T437 237V243Z"  />
<glyph unicode="C" horiz-adv-x="548" d="M513 31Q513 21 509 18T492 9Q468 1 436 -4T361 -10Q198 -10 119 78T40 331V412Q40 578 119 665T361 753Q403 753 437 748T492 734Q505 729 509 726T513 712V554Q513 533 493 536Q477 538 446 541T383 545Q360 545 341 541T308 522T287 481T279 412V331Q279 286 286 260T308 220T341 202T384 198Q411 198 435 200T493 207Q504 209 508 205T513 189V31H513Z"  />
<glyph unicode="D" horiz-adv-x="706" d="M666 326Q666 237 642 173T575 69T470 9T335 -10Q254 -10 196 -5T90 9Q72 12 64 20T55 52V691Q55 714 63 722T90 734Q137 742 195 747T335 753Q409 753 470 734T574 675T642 570T666 417V326ZM427 417Q427 457 423 483T408 524T379 545T335 551H291V192H335Q361 192 379 198T407 219T422 260T427 326V417Z"  />
<glyph unicode="E" horiz-adv-x="595" d="M540 21Q540 13 534 8T520 1Q489 -3 437 -6T319 -10Q272 -10 224 -3T138 30T75 101T50 224V519Q50 596 74 642T137 713T224 745T319 753Q385 753 437 750T520 742Q528 741 534 736T540 722V571Q540 563 534 557T520 551H319Q300 551 293 545T286 519V465H520Q528 465 534 459T540 445V304Q540 296 534 290T520 284H286V224Q286 205 293 199T319 192H520Q528 192 534 186T540 172V21H540Z"  />
<glyph unicode="F" horiz-adv-x="590" d="M540 304Q540 296 534 290T520 284H286V20Q286 12 280 6T266 0H71Q63 0 57 6T50 20V519Q50 596 74 642T137 713T224 745T319 753Q385 753 437 750T520 742Q528 741 534 736T540 722V571Q540 563 534 557T520 551H319Q300 551 293 545T286 519V465H520Q528 465 534 459T540 445V304H540Z"  />
<glyph unicode="G" horiz-adv-x="673" d="M618 40Q618 27 615 24T597 18Q551 8 490 -1T358 -10Q326 -10 290 -5T219 14T152 51T94 113T55 204T40 329V414Q40 524 72 590T154 693T260 741T368 753Q449 753 506 743T597 722Q612 717 615 714T618 700V553Q618 542 615 538T601 535Q590 536 570 538T525 541T474 544T424 545Q383 545 356 540T311 521T287 481T279 414V327Q279 278 287 251T307 210T333 195T358 192Q365 192 374 192T391 195V375Q391 383 397 389T411 395H598Q606 395 612 389T618 375V40H618Z"  />
<glyph unicode="H" horiz-adv-x="753" d="M698 20Q698 12 692 6T678 0H483Q475 0 469 6T462 20V275H291V20Q291 12 285 6T271 0H76Q68 0 62 6T55 20V723Q55 731 61 737T76 743H271Q279 743 285 737T291 723V477H462V723Q462 731 468 737T483 743H678Q686 743 692 737T698 723V20H698Z"  />
<glyph unicode="I" horiz-adv-x="356" d="M296 20Q296 12 290 6T276 0H81Q73 0 67 6T60 20V723Q60 731 66 737T81 743H276Q284 743 290 737T296 723V20H296Z"  />
<glyph unicode="J" horiz-adv-x="356" d="M296 5Q296 -54 282 -94T243 -159T183 -195T106 -206Q84 -206 52 -205T-5 -200Q-13 -198 -19 -193T-25 -180V-46Q-25 -38 -19 -32T-5 -26H38Q52 -26 56 -20T60 5V723Q60 731 66 737T81 743H276Q284 743 290 737T296 723V5H296Z"  />
<glyph unicode="K" horiz-adv-x="744" d="M721 12Q721 0 709 0H473Q457 0 451 6T441 20L291 327V20Q291 12 285 6T271 0H76Q68 0 62 6T55 20V723Q55 731 61 737T76 743H271Q279 743 285 737T291 723V408L456 723Q460 731 464 737T477 743H708Q720 743 720 731Q720 726 718 723L520 373L719 20Q721 17 721 12Z"  />
<glyph unicode="L" horiz-adv-x="520" d="M495 21Q495 13 489 8T475 1Q445 -4 404 -7T324 -10Q277 -10 229 -3T143 30T80 101T55 224V723Q55 731 61 737T76 743H271Q279 743 285 737T291 723V224Q291 205 298 199T324 192H475Q483 192 489 186T495 172V21H495Z"  />
<glyph unicode="M" horiz-adv-x="866" d="M806 11Q806 3 801 2T790 0H593Q587 0 583 6T579 20V333Q579 339 579 340T573 342Q569 342 563 333L489 223Q481 212 476 208T462 204H404Q396 204 391 208T377 223L303 333Q297 342 293 342Q288 342 288 341T287 333V20Q287 12 283 6T273 0H76Q71 0 66 1T60 11V708Q60 722 70 732T95 743H226Q249 743 261 735T284 710L421 489Q427 478 433 478Q439 478 445 489L582 710Q592 727 604 735T640 743H771Q785 743 795 733T806 708V11H806Z"  />
<glyph unicode="N" horiz-adv-x="763" d="M703 35Q703 21 693 11T668 0H497Q486 0 478 6T465 22L300 297Q295 305 290 305Q285 305 285 296V20Q285 12 279 6T264 0H81Q73 0 67 6T60 20V708Q60 722 70 732T95 743H259Q273 743 282 735T297 715L465 439Q469 432 471 431T475 430Q477 430 478 431T480 439V723Q480 731 486 737T500 743H683Q691 743 697 737T703 723V35H703Z"  />
<glyph unicode="O" horiz-adv-x="716" d="M676 328Q676 232 650 168T579 64T478 7T358 -10Q296 -10 239 7T137 63T67 167T40 328V415Q40 511 66 575T137 679T238 736T358 753Q420 753 477 736T579 680T649 576T676 415V328ZM437 415Q437 487 419 516T358 545Q316 545 298 516T279 415V328Q279 256 297 227T358 198Q400 198 418 227T437 328V415Z"  />
<glyph unicode="P" horiz-adv-x="698" d="M668 485Q668 407 638 357T561 277T458 236T349 224Q334 224 322 224T288 226V20Q288 12 282 6T268 0H76Q68 0 62 4T55 16V656Q55 679 58 694T70 718T91 733T125 741Q144 744 170 746T227 749T287 752T344 753Q399 753 456 742T561 701T638 622T668 492V485ZM434 492Q434 526 411 541T349 556H288V421H349Q387 421 410 437T434 485V492Z"  />
<glyph unicode="Q" horiz-adv-x="716" d="M676 328Q676 254 661 199T617 105T552 42T470 5V-14Q470 -23 472 -24T482 -26H558Q569 -26 576 -30T583 -42V-165Q583 -182 558 -189Q526 -198 495 -202T422 -206Q390 -206 359 -198T304 -168T264 -109T249 -14V4Q205 16 167 40T100 104T56 199T40 328V415Q40 511 66 575T137 679T238 736T358 753Q420 753 477 736T579 680T649 576T676 415V328ZM437 415Q437 487 419 516T358 545Q316 545 298 516T279 415V328Q279 256 297 227T358 198Q400 198 418 227T437 328V415Z"  />
<glyph unicode="R" horiz-adv-x="731" d="M696 18Q696 10 691 5T678 0H469Q455 0 451 6T442 20L323 255H291V20Q291 12 285 6T271 0H76Q68 0 62 6T55 20V656Q55 679 58 694T70 718T91 733T125 741Q138 743 164 745T221 749T285 752T344 753Q419 753 479 741T582 699T647 623T670 504V484Q670 444 660 412T633 356T596 316T555 290L693 29Q696 23 696 18ZM435 503Q435 529 420 542T366 556H291V430H366Q404 430 419 446T435 483V503Z"  />
<glyph unicode="S" horiz-adv-x="624" d="M589 229Q589 185 573 142T521 66T431 11T296 -10Q231 -10 177 -2T81 20Q73 22 67 27T60 40V189Q60 197 64 204T81 209Q97 207 123 205T179 199T240 194T296 192Q318 192 325 200T333 223Q333 231 328 237T305 254L155 341Q119 362 96 386T60 436T41 491T35 550Q35 591 47 628T90 692T173 736T303 753Q335 753 371 751T440 744T501 735T546 725Q554 723 560 718T566 705V556Q566 547 563 541T546 536Q526 538 496 540T433 545T365 549T303 551Q290 551 286 546T282 535Q282 528 288 522T319 503L461 428Q529 392 559 343T589 229Z"  />
<glyph unicode="T" horiz-adv-x="602" d="M577 571Q577 563 571 557T556 551H420V20Q420 12 414 6T400 0H205Q197 0 191 6T185 20V551H45Q37 551 31 557T25 571V723Q25 731 31 737T45 743H556Q564 743 570 737T577 723V571H577Z"  />
<glyph unicode="U" horiz-adv-x="752" d="M692 286Q692 190 665 132T592 42T491 0T376 -10Q318 -10 262 0T160 41T88 131T60 286V723Q60 731 66 737T81 743H276Q284 743 290 737T296 723V286Q296 256 301 238T316 209T341 194T376 190Q395 190 410 194T435 208T451 237T456 286V723Q456 731 462 737T476 743H671Q679 743 685 737T692 723V286H692Z"  />
<glyph unicode="V" horiz-adv-x="726" d="M686 743Q696 743 699 737T701 723L582 119Q574 81 556 56T511 17T446 -4T363 -10Q317 -10 280 -4T215 16T169 56T144 119L25 723Q23 731 26 737T40 743H248Q256 743 261 737T269 723L354 194Q355 188 356 185T363 181Q368 181 369 184T372 194L457 723Q459 731 464 737T478 743H686H686Z"  />
<glyph unicode="W" horiz-adv-x="945" d="M904 743Q912 743 916 742T919 732L825 63Q819 21 799 6T744 -10H641Q604 -10 587 5T558 55L481 283Q478 294 472 294Q466 294 463 283L386 55Q374 20 357 5T303 -10H200Q165 -10 145 5T119 63L25 732Q24 740 29 741T40 743H245Q255 743 256 737T259 723L300 370Q302 358 307 358Q313 358 316 370L361 503Q368 524 379 532T417 541H527Q553 541 564 533T583 503L628 370Q631 358 636 358Q641 358 642 361T644 370L685 723Q686 731 688 737T699 743H904H904Z"  />
<glyph unicode="X" horiz-adv-x="740" d="M470 0Q457 0 452 4T440 20L354 166L279 20Q273 9 269 5T256 0H29Q21 0 19 7T20 20L220 394L26 723Q22 729 24 736T35 743H283Q291 743 296 737T306 723L387 586L452 723Q456 731 461 737T475 743H703Q711 743 713 736T712 723L515 368L720 20Q724 14 722 7T711 0H470Z"  />
<glyph unicode="Y" horiz-adv-x="709" d="M681 743Q689 743 693 737T694 723L547 379Q530 340 512 318T472 287V20Q472 12 466 6T451 0H256Q248 0 242 6T236 20V287Q214 296 196 318T161 379L15 723Q12 730 15 736T27 743H240Q252 743 256 737T264 723L348 475Q349 469 354 469Q358 469 360 475L445 723Q448 731 452 737T471 743H681H681Z"  />
<glyph unicode="Z" horiz-adv-x="629" d="M579 20Q579 12 573 6T558 0H70Q62 0 56 6T50 20V150Q50 163 54 175T70 205L270 520Q275 528 275 533Q275 541 263 541H73Q65 541 59 547T53 561V723Q53 731 59 737T73 743H555Q563 743 569 737T575 723V583Q575 567 568 552T553 524L357 222Q353 215 353 210Q353 202 366 202H558Q566 202 572 196T579 182V20H579Z"  />
<glyph unicode="[" horiz-adv-x="408" d="M378 -178Q378 -194 359 -194H67Q59 -194 55 -189T50 -175V724Q50 732 54 737T67 743H359Q378 743 378 726V588Q378 572 359 572H274V-23H359Q378 -23 378 -40V-178H378Z"  />
<glyph unicode="\" horiz-adv-x="445" d="M434 19Q434 11 427 6T411 0H231Q222 0 217 7T210 22L10 722Q10 723 10 723T9 726Q9 733 16 738T31 743H211Q220 743 226 737T234 722L434 22V19H434Z"  />
<glyph unicode="]" horiz-adv-x="408" d="M358 -175Q358 -183 354 -188T341 -194H49Q30 -194 30 -178V-40Q30 -23 49 -23H134V572H49Q30 572 30 588V726Q30 743 49 743H341Q349 743 353 738T358 724V-175H358Z"  />
<glyph unicode="^" horiz-adv-x="670" d="M629 576Q629 566 617 566H430Q416 566 410 569T397 579L335 643L273 579Q266 572 260 569T240 566H53Q41 566 41 576Q41 581 46 588L154 734Q162 745 169 749T192 753H478Q494 753 501 749T516 734L624 588Q629 581 629 576Z"  />
<glyph unicode="_" horiz-adv-x="580" d="M613 -114Q613 -122 607 -126T593 -130H-12Q-20 -130 -26 -126T-32 -114V-46Q-32 -38 -26 -34T-12 -30H593Q601 -30 607 -34T613 -46V-114H613Z"  />
<glyph unicode="`" horiz-adv-x="500" d="M334 642Q334 635 325 635H175Q164 635 160 637T150 645L20 764Q15 769 15 772Q15 779 27 779H212Q224 779 229 776T241 764L330 652Q334 648 334 642Z"  />
<glyph unicode="a" horiz-adv-x="590" d="M540 20Q540 12 534 6T520 0H355Q347 0 341 6T335 20V41Q304 17 273 4T194 -10Q168 -10 139 -1T86 30T46 87T30 176V192Q30 238 48 268T101 317T184 342T295 350H319V371Q319 386 315 395T303 409T286 415T269 417Q245 417 218 417T167 415T124 413T94 411Q81 409 78 416T74 432V546Q74 555 80 561T94 571Q105 575 127 580T175 589T228 597T279 600Q334 600 381 590T464 554T520 484T540 371V20ZM326 238H295Q273 238 256 228T239 192V181Q239 161 250 153T277 145Q290 145 303 148T326 154V238Z"  />
<glyph unicode="b" horiz-adv-x="636" d="M601 256Q601 190 581 141T525 58T439 7T326 -10Q248 -10 187 -2T90 14Q64 19 57 27T50 49V758Q50 767 57 773T73 779H252Q261 779 266 773T272 758V594Q282 596 299 598T326 600Q395 600 447 581T533 527T584 443T601 334V256ZM379 334Q379 369 368 392T326 416Q309 416 297 415T272 413V177Q286 175 296 175T326 174Q357 174 368 197T379 256V334Z"  />
<glyph unicode="c" horiz-adv-x="475" d="M440 26Q440 17 435 13T420 7Q391 0 357 -5T279 -10Q217 -10 172 9T96 64T50 150T35 262V328Q35 389 50 439T95 525T171 580T279 600Q323 600 361 594T420 583Q428 581 434 577T440 564V428Q440 420 437 413T418 407Q394 409 367 411T310 413Q279 413 268 393T257 328V262Q257 217 268 197T310 177Q340 177 367 179T418 183Q433 185 436 178T440 162V26H440Z"  />
<glyph unicode="d" horiz-adv-x="636" d="M586 49Q586 36 579 28T546 14Q511 7 450 -1T310 -10Q248 -10 198 7T111 57T55 140T35 256V334Q35 394 52 443T103 527T189 581T310 600Q319 600 336 598T364 594V758Q364 767 369 773T384 779H563Q572 779 579 773T586 758V49ZM364 413Q352 414 340 415T310 416Q279 416 268 393T257 334V256Q257 220 268 197T310 174Q330 174 340 174T364 177V413Z"  />
<glyph unicode="e" horiz-adv-x="614" d="M579 258Q579 249 573 243T557 237H255Q255 218 259 206T272 187T298 176T341 173Q357 173 383 173T438 175T491 177T529 180Q540 181 545 178T551 162V57Q551 44 547 39T532 28Q484 8 424 -1T303 -10Q247 -10 199 5T114 53T56 136T35 258V319Q35 391 54 444T110 531T197 583T313 600Q382 600 432 580T515 523T563 435T579 319V258ZM368 349Q368 385 357 408T311 432Q280 432 268 409T255 349H368Z"  />
<glyph unicode="f" horiz-adv-x="423" d="M398 448Q398 439 392 433T377 426H314V22Q314 13 308 7T292 0H112Q103 0 97 6T90 22V426L42 435Q33 437 27 442T20 457V569Q20 578 26 584T42 590H90V604Q90 663 104 701T144 761T205 791T285 800Q305 800 330 797T377 789Q386 787 392 782T398 768V659Q398 650 392 644T377 638H343Q325 638 320 632T314 604V590H377Q386 590 392 584T398 569V448H398Z"  />
<glyph unicode="g" horiz-adv-x="629" d="M619 481Q619 472 613 467T598 459L572 454Q578 443 582 427T586 396V383Q586 330 568 293T515 232T430 197T318 186Q293 186 267 188T225 196Q214 188 214 178Q214 173 217 168T232 161L341 141Q387 132 433 122T516 95T575 51T598 -18V-38Q598 -85 579 -117T521 -169T428 -198T301 -207Q169 -207 102 -165T35 -45V-23Q35 4 49 30T90 76L77 83Q68 88 55 107T41 162Q41 194 57 218T94 255Q70 279 58 307T45 383V396Q45 441 59 477T103 538T180 576T294 590H598Q607 590 613 584T619 568V481ZM372 396Q372 416 361 429T318 442Q286 442 275 429T264 396V383Q264 363 275 350T318 336Q350 336 361 349T372 383V396ZM363 -21Q363 -11 351 -3T293 14L249 22Q244 16 241 11T238 -7V-29Q238 -43 253 -56T301 -70Q321 -70 333 -67T352 -59T361 -48T363 -35V-21Z"  />
<glyph unicode="h" horiz-adv-x="652" d="M602 22Q602 13 596 7T581 0H401Q392 0 386 6T379 22V368Q379 394 364 405T328 417Q300 417 273 402V22Q273 13 268 7T253 0H73Q64 0 57 6T50 22V759Q50 767 56 773T70 779H252Q260 779 266 773T272 759V558Q307 583 342 591T419 600Q474 600 509 582T565 531T594 457T602 368V22H602Z"  />
<glyph unicode="i" horiz-adv-x="329" d="M282 656Q282 647 275 641T259 635H70Q61 635 54 641T47 656V758Q47 767 54 773T70 779H259Q268 779 275 773T282 758V656ZM277 22Q277 13 271 7T255 0H76Q67 0 60 6T53 22V569Q53 578 60 584T76 590H255Q264 590 270 584T277 569V22Z"  />
<glyph unicode="j" horiz-adv-x="329" d="M282 656Q282 647 275 641T259 635H70Q61 635 54 641T47 656V758Q47 767 54 773T70 779H259Q268 779 275 773T282 758V656ZM277 -11Q277 -69 264 -107T226 -168T169 -200T97 -210Q71 -210 46 -207T-10 -199Q-19 -197 -25 -192T-31 -177V-69Q-31 -60 -25 -54T-10 -48H32Q46 -48 49 -37T53 -11V569Q53 578 60 584T76 590H255Q264 590 270 584T277 569V-11Z"  />
<glyph unicode="k" horiz-adv-x="669" d="M645 14Q645 9 643 5T632 0H416Q407 0 400 3T384 22L272 251V22Q272 13 267 7T252 0H73Q64 0 57 6T50 22V758Q50 767 57 773T73 779H252Q261 779 266 773T272 758V340L392 569Q400 584 407 587T424 590H623Q639 590 639 576Q639 571 636 565L479 305L643 24Q645 21 645 14Z"  />
<glyph unicode="l" horiz-adv-x="324" d="M274 22Q274 13 268 7T253 0H73Q64 0 57 6T50 22V758Q50 767 57 773T73 779H253Q262 779 268 773T274 758V22H274Z"  />
<glyph unicode="m" horiz-adv-x="929" d="M879 22Q879 13 873 7T858 0H678Q669 0 663 6T656 22V364Q656 391 646 399T618 407Q598 407 574 401Q575 390 575 384T576 364V22Q576 13 570 7T555 0H375Q366 0 360 6T353 22V364Q353 391 344 399T316 407Q306 407 294 406T273 401V22Q273 13 268 7T253 0H73Q64 0 57 6T50 22V570Q50 578 56 584T70 590H235Q243 590 249 584T255 570V540Q295 577 334 588T416 600Q453 600 486 587T540 540Q558 558 574 569T609 588T648 597T696 600Q879 600 879 364V22H879Z"  />
<glyph unicode="n" horiz-adv-x="652" d="M602 22Q602 13 596 7T581 0H401Q392 0 386 6T379 22V368Q379 394 364 405T328 417Q300 417 273 402V22Q273 13 268 7T253 0H73Q64 0 57 6T50 22V570Q50 578 56 584T70 590H235Q243 590 249 584T255 570V542Q273 556 288 567T322 585T364 596T419 600Q474 600 509 582T565 531T594 457T602 368V22H602Z"  />
<glyph unicode="o" horiz-adv-x="620" d="M585 272Q585 127 512 59T310 -10Q182 -10 109 58T35 272V318Q35 463 108 531T310 600Q438 600 511 532T585 318V272ZM363 318Q363 376 349 396T310 416Q284 416 271 396T257 318V272Q257 243 260 224T270 194T287 179T310 174Q323 174 332 178T349 194T359 224T363 272V318Z"  />
<glyph unicode="p" horiz-adv-x="636" d="M601 256Q601 196 584 147T533 63T447 9T326 -10Q317 -10 300 -8T272 -4V-168Q272 -177 267 -183T252 -189H73Q64 -189 57 -183T50 -168V541Q50 554 57 562T90 576Q125 583 186 591T326 600Q388 600 438 583T525 533T581 450T601 334V256ZM379 334Q379 370 368 393T326 416Q306 416 296 416T272 413V177Q284 176 296 175T326 174Q357 174 368 197T379 256V334Z"  />
<glyph unicode="q" horiz-adv-x="636" d="M586 -168Q586 -177 579 -183T563 -189H384Q375 -189 370 -183T364 -168V-4Q354 -6 337 -8T310 -10Q241 -10 189 9T103 63T52 147T35 256V334Q35 400 55 449T111 532T197 583T310 600Q388 600 449 592T546 576Q572 571 579 563T586 541V-168ZM364 413Q350 415 340 415T310 416Q279 416 268 393T257 334V256Q257 221 268 198T310 174Q327 174 339 175T364 177V413Z"  />
<glyph unicode="r" horiz-adv-x="439" d="M413 442Q413 434 410 427T393 419H385Q356 419 328 417T273 402V22Q273 13 268 7T253 0H73Q64 0 57 6T50 22V570Q50 578 56 584T70 590H235Q243 590 249 584T255 570V541Q271 559 289 570T325 588T359 597T387 600H393Q407 600 410 594T413 580V442H413Z"  />
<glyph unicode="s" horiz-adv-x="540" d="M500 180Q500 140 486 105T441 45T363 5T249 -10Q184 -10 138 -2T62 16Q54 19 49 24T43 38V163Q43 176 48 182T69 186Q91 183 116 180T165 173T209 169T243 167Q263 167 270 171T278 187Q278 192 274 197T255 210L141 268Q88 294 64 334T40 435Q40 513 97 556T275 600Q331 600 382 591T466 573Q474 571 480 566T487 552V422Q487 412 483 406T466 401Q455 403 431 406T380 412T328 417T288 419Q267 419 267 408Q267 399 280 393L390 339Q451 309 475 267T500 180Z"  />
<glyph unicode="t" horiz-adv-x="429" d="M410 448Q410 439 404 433T389 426H317V181Q317 166 320 159T338 152H386Q395 152 401 146T407 131V22Q407 13 401 8T386 0Q371 -3 359 -4T335 -7T310 -9T280 -10Q241 -10 207 -2T148 28T108 88T93 185V426L36 436Q27 438 21 443T14 458V569Q14 578 20 584T36 590H93V672Q93 681 99 686T115 693L295 724Q307 726 312 719T317 703V590H389Q398 590 404 584T410 569V448H410Z"  />
<glyph unicode="u" horiz-adv-x="652" d="M602 20Q602 12 596 6T582 0H417Q409 0 403 6T397 20V48Q381 35 366 24T331 6T289 -6T233 -10Q178 -10 143 8T87 59T58 133T50 222V568Q50 577 56 583T71 590H251Q260 590 266 584T273 568V222Q273 196 288 185T324 173Q352 173 379 188V568Q379 577 384 583T399 590H579Q588 590 595 584T602 568V20H602Z"  />
<glyph unicode="v" horiz-adv-x="651" d="M619 590Q627 590 633 586T636 569L516 129Q503 81 482 54T436 12T383 -6T326 -10Q298 -10 270 -7T216 11T170 53T136 129L16 569Q12 582 18 586T33 590H230Q239 590 244 584T252 569L317 232Q319 226 320 222T326 217Q330 217 331 221T335 232L400 569Q402 577 407 583T422 590H619H619Z"  />
<glyph unicode="w" horiz-adv-x="898" d="M648 574Q650 590 662 590H861Q867 590 872 588T876 575L783 73Q777 43 770 27T753 2T728 -8T693 -10H599Q578 -10 565 -7T541 4T524 28T507 68L458 212Q455 221 449 221Q443 221 440 212L391 68Q382 43 375 28T357 5T334 -7T299 -10H205Q185 -10 171 -9T146 1T128 26T115 73L22 575Q20 585 25 587T37 590H236Q248 590 250 574L288 276Q289 269 295 269Q302 269 304 276L353 414Q361 435 370 442T399 450H499Q519 450 528 443T545 414L594 276Q596 269 603 269Q609 269 610 276L648 574Z"  />
<glyph unicode="x" horiz-adv-x="667" d="M408 0Q399 0 395 7T386 22L315 141L253 21Q249 13 244 7T229 0H34Q23 0 21 7T23 21L191 313L20 569Q17 575 19 582T32 590H251Q260 590 265 584T276 569L341 461L398 569Q402 577 407 583T422 590H619Q630 590 632 583T630 569L466 287L645 22Q650 16 648 8T634 0H408H408Z"  />
<glyph unicode="y" horiz-adv-x="656" d="M625 590Q634 590 638 585T640 569L469 -31Q458 -70 441 -102T396 -158T326 -193T220 -206Q203 -206 182 -205T140 -200T100 -193T70 -185Q62 -182 55 -178T47 -165V-51Q47 -43 51 -35T70 -29Q86 -30 105 -31T144 -34T184 -35T220 -36Q240 -36 248 -31T260 -13L269 21H263Q241 21 225 23T196 37T172 72T149 136L16 569Q13 580 18 585T33 590H234Q243 590 247 584T254 569L322 257Q325 243 331 243H338L402 569Q404 577 409 583T424 590H612H625Z"  />
<glyph unicode="z" horiz-adv-x="567" d="M517 20Q517 12 511 6T497 0H70Q62 0 56 6T50 20V125Q50 141 52 151T66 175L232 397Q237 404 237 408Q237 415 226 415H71Q55 415 55 431V570Q55 578 61 584T75 590H496Q504 590 510 584T516 570V463Q516 455 516 449T513 437T505 424T492 405L336 194Q331 187 331 183Q331 175 342 175H500Q517 175 517 159V20H517Z"  />
<glyph unicode="{" horiz-adv-x="436" d="M406 -185Q406 -202 387 -202H320Q242 -202 194 -191T121 -155T87 -86T78 22V122Q78 149 63 172T25 208V333Q47 346 62 369T78 419V519Q78 583 86 626T120 695T194 732T320 743H387Q406 743 406 726V588Q406 572 387 572H340Q314 572 308 559T302 519V419Q302 368 280 330T209 271Q257 251 279 212T302 122V22Q302 -5 308 -18T340 -31H387Q406 -31 406 -47V-185H406Z"  />
<glyph unicode="|" horiz-adv-x="324" d="M274 -172Q274 -181 268 -187T253 -194H73Q64 -194 57 -188T50 -172V722Q50 731 57 737T73 743H253Q262 743 268 737T274 722V-172H274Z"  />
<glyph unicode="}" horiz-adv-x="436" d="M411 208Q389 195 374 172T358 122V22Q358 -43 350 -86T316 -154T242 -191T116 -202H49Q30 -202 30 -185V-47Q30 -31 49 -31H96Q122 -31 128 -18T134 22V122Q134 173 156 212T227 271Q179 291 157 329T134 419V519Q134 546 128 559T96 572H49Q30 572 30 588V726Q30 743 49 743H116Q194 743 242 732T315 696T349 627T358 519V419Q358 392 373 369T411 333V208H411Z"  />
<glyph unicode="~" horiz-adv-x="670" d="M622 490Q622 441 609 408T572 354T514 325T436 316Q428 316 416 318T390 323T362 331T338 342L288 368Q255 385 241 385Q221 385 221 366V345Q221 323 198 323H72Q61 323 55 328T48 345V366Q48 414 61 447T99 501T158 531T237 540Q254 540 278 536T332 516L382 490Q418 471 433 471Q443 471 446 476T449 491V512Q449 534 472 534H598Q609 534 615 529T622 512V490H622Z"  />
<glyph unicode="&#xA0;" horiz-adv-x="242" />
<glyph unicode="&#xA1;" horiz-adv-x="309" d="M262 418Q262 410 256 404T242 398H67Q59 398 53 404T47 418V570Q47 578 53 584T67 590H242Q250 590 256 584T262 570V418ZM269 -169Q269 -177 262 -183T247 -189H60Q52 -189 46 -183T40 -169V-168L70 314Q71 323 76 329T90 336H217Q226 336 232 330T239 314L269 -168V-169Z"  />
<glyph unicode="&#xA2;" horiz-adv-x="670" d="M538 26Q538 17 533 13T518 7Q502 3 486 0T450 -6V-67Q450 -75 444 -81T430 -87H289Q281 -87 275 -81T269 -67V10Q200 39 167 104T133 262V328Q133 421 166 486T269 580V654Q269 662 275 668T289 674H430Q438 674 444 668T450 654V595Q471 592 488 589T518 583Q526 581 532 577T538 564V428Q538 420 532 414T517 407H516Q492 409 465 411T408 413Q377 413 366 393T355 328V262Q355 217 366 197T408 177Q438 177 465 179T516 183H517Q525 183 531 177T538 162V26H538Z"  />
<glyph unicode="&#xA3;" horiz-adv-x="670" d="M606 20Q606 12 600 6T586 0H113Q105 0 99 6T93 20V130Q93 141 96 146T103 156Q107 160 112 169T122 188T130 210T133 231V280H85Q77 280 71 286T65 300V441Q65 449 71 455T85 461H133V484Q133 561 151 612T204 695T293 740T416 753Q441 753 467 751T515 747T556 741T585 736Q599 733 602 729T606 714V556Q606 538 589 538H586Q556 540 510 544T416 549Q398 549 387 547T370 539T362 520T359 488V461H495Q503 461 509 455T515 441V300Q515 292 509 286T495 280H359V231Q359 218 356 204T347 181H586Q594 181 600 175T606 161V20H606Z"  />
<glyph unicode="&#xA4;" horiz-adv-x="670" d="M605 547Q605 539 598 532L511 445Q527 407 527 370Q527 327 509 290L594 205Q601 198 601 190Q601 184 596 179L521 104Q516 99 510 99Q502 99 495 106L407 194Q375 181 338 181Q301 181 263 197L176 110Q173 107 169 105T160 102Q155 102 150 107L75 182Q70 187 70 194Q70 202 77 209L164 295Q148 333 148 370Q148 408 161 440L73 528Q66 535 66 543Q66 549 71 554L146 629Q151 634 157 634Q165 634 172 627L257 542Q276 551 296 555T338 559Q377 559 413 544L499 631Q506 638 514 638Q520 638 525 633L600 558Q605 553 605 547ZM407 372Q407 400 388 419T340 439Q312 439 292 420T272 372Q272 344 292 324T340 304Q368 304 387 324T407 372Z"  />
<glyph unicode="&#xA5;" horiz-adv-x="670" d="M667 730Q667 727 665 723L562 505H635Q643 505 649 499T655 485V388Q655 380 649 374T635 368H496L454 281H635Q643 281 649 275T655 261V164Q655 156 649 150T635 144H453V20Q453 12 447 6T432 0H237Q229 0 223 6T217 20V144H36Q28 144 22 150T16 164V261Q16 269 22 275T36 281H217L177 368H36Q28 368 22 374T16 388V485Q16 493 22 499T36 505H111L6 723Q4 727 4 730Q4 743 18 743H234Q242 743 247 737T255 723L335 504L416 723Q419 731 424 737T437 743H652Q667 743 667 730Z"  />
<glyph unicode="&#xA6;" horiz-adv-x="324" d="M274 364Q274 355 268 349T253 342H73Q64 342 57 348T50 364V707Q50 716 57 722T73 728H253Q262 728 268 722T274 707V364ZM274 -189Q274 -198 268 -204T253 -211H73Q64 -211 57 -205T50 -189V154Q50 163 57 169T73 175H253Q262 175 268 169T274 154V-189Z"  />
<glyph unicode="&#xA7;" horiz-adv-x="624" d="M592 235Q592 208 584 179T562 122Q574 99 581 75T589 22Q589 -22 573 -65T521 -141T431 -196T296 -217Q231 -217 177 -209T81 -187Q73 -185 67 -180T60 -167V-18Q60 -10 65 -4T79 2H80H81Q97 0 123 -3T179 -8T240 -13T296 -15Q318 -15 325 -7T333 16Q333 24 328 31T305 47L155 127Q94 159 64 212T33 326Q33 358 41 390T66 452Q52 469 44 495T35 550Q35 591 47 628T90 692T173 736T303 753Q335 753 371 751T440 744T501 735T546 725Q554 723 560 718T566 705V556Q566 548 561 542T548 536H547H546Q526 538 496 540T433 545T365 549T303 551Q290 551 286 546T282 535Q282 528 288 522T319 503L461 428Q524 395 558 345T592 235ZM397 231Q397 245 394 256T383 277T361 297T322 320L263 351Q240 362 225 379Q211 365 211 336Q211 312 224 294T279 254L336 224Q354 215 366 206T388 188Q397 206 397 231Z"  />
<glyph unicode="&#xA8;" horiz-adv-x="500" d="M458 656Q458 647 451 641T435 635H296Q287 635 280 641T273 656V758Q273 767 280 773T296 779H435Q444 779 451 773T458 758V656ZM228 656Q228 647 221 641T205 635H66Q57 635 50 641T43 656V758Q43 767 50 773T66 779H205Q214 779 221 773T228 758V656Z"  />
<glyph unicode="&#xA9;" horiz-adv-x="750" d="M715 374Q715 303 688 242T615 134T507 62T374 35Q303 35 242 61T134 134T62 241T35 374Q35 444 61 506T134 615T241 689T374 716Q444 716 506 689T615 616T688 507T715 374ZM656 374Q656 432 634 483T573 573T484 634T374 657Q316 657 265 635T176 574T116 484T94 374Q94 316 116 265T176 176T265 116T374 94Q432 94 483 116T573 176T633 265T656 374ZM478 182Q478 177 476 175T466 170Q452 165 433 162T391 159Q297 159 253 209T208 353V400Q208 495 253 544T391 594Q414 594 434 591T466 583Q474 581 476 579T478 571V481Q478 470 468 470H466Q457 471 450 472T435 473T417 474T391 475Q382 475 374 473T359 462T348 440T344 400V353Q344 327 348 313T359 290T374 280T391 278Q417 278 432 279T466 283H468Q478 283 478 273V182Z"  />
<glyph unicode="&#xAA;" horiz-adv-x="401" d="M366 392Q366 379 359 377Q322 368 284 363T207 357Q35 357 35 480V487Q35 517 48 537T84 569T138 586T207 591H223V604Q223 624 212 629T190 634Q158 634 125 633T77 630H76Q71 630 68 634T64 644V718Q64 724 68 728T77 734Q84 737 97 740T125 746T158 751T190 753Q226 753 258 747T314 725T352 679T366 604V392ZM227 518H207Q193 518 182 511T171 487V480Q171 463 182 459T207 455Q212 455 217 455T227 457V518Z"  />
<glyph unicode="&#xAB;" horiz-adv-x="776" d="M751 67Q751 57 739 57H564Q556 57 549 58T536 67L380 265Q374 273 370 279T365 294Q365 302 369 308T380 323L536 521Q541 528 548 529T564 531H739Q751 531 751 521Q751 515 745 508L579 294L745 80Q751 72 751 67ZM411 67Q411 57 399 57H224Q216 57 209 58T196 67L40 265Q34 273 30 279T25 294Q25 302 29 308T40 323L196 521Q201 528 208 529T224 531H399Q411 531 411 521Q411 515 405 508L239 294L405 80Q411 72 411 67Z"  />
<glyph unicode="&#xAC;" horiz-adv-x="670" d="M578 188Q578 180 574 174T562 168H432Q424 168 420 174T416 188V452H113Q105 452 99 456T93 468V598Q93 606 99 610T113 614H558Q566 614 572 610T578 598V188H578Z"  />
<glyph unicode="&#xAD;" horiz-adv-x="262" d="M247 238Q247 230 241 224T227 218H35Q27 218 21 224T15 238V356Q15 364 21 370T35 376H227Q235 376 241 370T247 356V238H247Z"  />
<glyph unicode="&#xAE;" horiz-adv-x="646" d="M611 483Q611 423 589 371T527 280T436 219T323 196Q263 196 211 218T119 280T58 371T35 483Q35 543 57 595T119 687T210 748T323 771Q383 771 435 749T527 687T588 596T611 483ZM553 483Q553 531 535 572T486 645T413 695T323 713Q275 713 234 695T161 646T112 573T94 483Q94 435 112 394T161 321T233 272T323 254Q371 254 412 272T485 321T535 393T553 483ZM470 329Q470 321 462 321H365Q361 321 360 324T356 330L302 436H288V330Q288 321 279 321H191Q182 321 182 330V616Q182 637 188 644T213 654Q219 655 230 656T256 658T285 659T312 660Q380 660 419 636T458 547V537Q458 505 443 485T407 453L469 334Q470 332 470 329ZM357 547Q357 560 349 567T321 574H284V510H321Q340 510 348 518T357 537V547Z"  />
<glyph unicode="&#xAF;" horiz-adv-x="500" d="M447 655Q447 647 441 641T427 635H73Q65 635 59 641T53 655V759Q53 767 59 773T73 779H427Q435 779 441 773T447 759V655H447Z"  />
<glyph unicode="&#xB0;" horiz-adv-x="376" d="M351 590Q351 556 338 527T303 475T252 440T188 427Q155 427 125 440T73 475T38 526T25 590Q25 624 38 653T73 705T125 740T188 753Q222 753 251 740T303 705T338 654T351 590ZM248 590Q248 615 230 632T188 650Q164 650 147 633T129 590Q129 566 146 549T188 531Q213 531 230 548T248 590Z"  />
<glyph unicode="&#xB1;" horiz-adv-x="670" d="M578 326Q578 318 572 314T558 310H416V169Q416 161 412 155T400 149H270Q262 149 258 155T254 169V310H113Q105 310 99 314T93 326V456Q93 464 99 468T113 472H254V614Q254 622 258 628T270 634H400Q408 634 412 628T416 614V472H558Q566 472 572 468T578 456V326ZM578 -14Q578 -22 572 -26T558 -30H113Q105 -30 99 -26T93 -14V87Q93 95 99 99T113 103H558Q566 103 572 99T578 87V-14Z"  />
<glyph unicode="&#xB2;" horiz-adv-x="367" d="M332 638Q332 615 324 597T304 563T274 534T239 511Q223 501 199 486T164 450H310Q316 450 321 446T326 435V349Q326 342 321 338T310 334H51Q45 334 40 338T35 349V408Q35 440 43 466T65 512T97 549T135 579Q157 594 169 602T189 616Q195 621 196 623T197 631Q197 638 191 640T158 643Q132 643 107 641T56 637H55Q48 637 44 642T40 653V715Q40 725 54 730Q80 740 112 746T181 753Q263 753 297 724T332 638Z"  />
<glyph unicode="&#xB3;" horiz-adv-x="366" d="M331 457Q331 392 291 363T177 334Q165 334 147 335T111 340T75 347T45 358Q41 360 38 363T35 371V434Q35 449 50 449H51Q72 447 105 446T166 444Q187 444 193 451T199 469Q199 480 194 487T173 494H81Q65 494 65 510V579Q65 595 81 595H166Q184 595 191 602T199 620Q199 630 192 636T166 643Q139 643 108 642T55 638H54Q48 638 44 642T39 653V716Q39 723 43 726T53 731Q62 735 76 739T106 746T141 751T177 753Q250 753 290 728T331 635Q331 601 318 581T285 547Q331 519 331 457Z"  />
<glyph unicode="&#xB4;" horiz-adv-x="500" d="M485 772Q485 769 480 764L350 645Q345 640 341 638T325 635H175Q166 635 166 642Q166 648 170 652L259 764Q266 772 271 775T288 779H473Q485 779 485 772Z"  />
<glyph unicode="&#xB5;" horiz-adv-x="652" d="M602 46Q602 33 595 25T562 11Q524 3 469 -3T327 -10Q299 -10 274 -7V-169Q274 -177 268 -183T254 -189H70Q62 -189 56 -183T50 -169V568Q50 577 56 583T71 590H250Q259 590 265 584T272 568V209Q272 169 326 169Q358 169 379 172V568Q379 577 384 583T399 590H579Q588 590 595 584T602 568V46H602Z"  />
<glyph unicode="&#xB6;" horiz-adv-x="689" d="M639 -176Q639 -184 635 -189T622 -195H562Q554 -195 550 -190T545 -176V649H479V-176Q479 -184 475 -189T462 -195H402Q394 -195 390 -190T385 -176V225H296Q244 225 199 239T119 282T65 352T45 448V520Q45 574 65 615T119 685T198 728T296 743H623Q639 743 639 724V-176H639Z"  />
<glyph unicode="&#xB7;" horiz-adv-x="296" d="M256 297Q256 289 250 283T235 277H61Q53 277 47 283T40 297V449Q40 457 46 463T61 469H235Q243 469 249 463T256 449V297H256Z"  />
<glyph unicode="&#xB8;" horiz-adv-x="500" d="M381 -44Q381 -47 376 -52L246 -171Q241 -176 237 -178T221 -181H71Q62 -181 62 -174Q62 -168 66 -164L155 -52Q162 -44 167 -41T184 -37H369Q381 -37 381 -44Z"  />
<glyph unicode="&#xB9;" horiz-adv-x="277" d="M242 346Q242 335 231 335H114Q103 335 103 346V611L47 589Q41 587 40 587Q35 587 35 594V692Q35 700 43 703L132 741Q138 744 144 744H231Q242 744 242 733V346H242Z"  />
<glyph unicode="&#xBA;" horiz-adv-x="417" d="M387 540Q387 446 340 402T209 357Q125 357 78 401T30 540V570Q30 664 77 708T209 753Q293 753 340 709T387 570V540ZM243 570Q243 608 235 620T209 633Q192 633 183 621T174 570V540Q174 502 183 489T209 476Q226 476 234 489T243 540V570Z"  />
<glyph unicode="&#xBB;" horiz-adv-x="776" d="M751 294Q751 286 747 280T736 265L580 67Q575 60 568 59T552 57H377Q365 57 365 67Q365 72 371 80L537 294L371 508Q365 515 365 521Q365 531 377 531H552Q560 531 567 530T580 521L736 323Q742 315 746 309T751 294ZM411 294Q411 286 407 280T396 265L240 67Q235 60 228 59T212 57H37Q25 57 25 67Q25 72 31 80L197 294L31 508Q25 515 25 521Q25 531 37 531H212Q220 531 227 530T240 521L396 323Q402 315 406 309T411 294Z"  />
<glyph unicode="&#xBC;" horiz-adv-x="836" d="M801 92Q801 76 785 76H764V16Q764 0 748 0H644Q628 0 628 16V76H490Q475 76 475 92V162Q475 171 481 180L656 401Q659 405 664 407T674 409H748Q764 409 764 393V181H785Q801 181 801 166V92ZM692 732Q692 726 689 722L271 15Q265 5 262 3T250 0H108Q95 0 95 13Q95 19 97 22L515 728Q520 737 524 740T538 743H680Q692 743 692 732ZM242 345Q242 334 231 334H114Q103 334 103 345V610L47 588Q41 586 40 586Q35 586 35 593V691Q35 699 43 702L132 740Q138 743 144 743H231Q242 743 242 732V345ZM634 255L576 181H634V255Z"  />
<glyph unicode="&#xBD;" horiz-adv-x="855" d="M820 299Q820 276 812 258T792 224T762 195T727 172Q711 162 687 148T652 116H798Q804 116 809 112T814 101V15Q814 8 809 4T798 0H539Q533 0 528 4T523 15V74Q523 106 531 131T553 176T585 211T623 240Q645 255 657 263T677 277Q683 282 684 284T686 292Q686 299 679 301T646 304Q620 304 595 302T544 298H543Q536 298 532 303T528 314V376Q528 386 542 391Q568 401 600 407T670 414Q752 414 786 385T820 299ZM692 732Q692 726 689 722L271 15Q265 5 262 3T250 0H108Q95 0 95 13Q95 19 97 22L515 728Q520 737 524 740T538 743H680Q692 743 692 732ZM242 345Q242 334 231 334H114Q103 334 103 345V610L47 588Q41 586 40 586Q35 586 35 593V691Q35 699 43 702L132 740Q138 743 144 743H231Q242 743 242 732V345Z"  />
<glyph unicode="&#xBE;" horiz-adv-x="886" d="M851 92Q851 76 835 76H814V16Q814 0 798 0H694Q678 0 678 16V76H540Q525 76 525 92V162Q525 171 531 180L706 401Q709 405 714 407T724 409H798Q814 409 814 393V181H835Q851 181 851 166V92ZM771 732Q771 728 768 722L350 15Q344 5 341 3T329 0H187Q173 0 173 14Q173 17 176 22L594 728Q599 737 603 740T617 743H759Q771 743 771 732ZM331 457Q331 392 291 363T177 334Q165 334 147 335T111 340T75 347T45 358Q41 360 38 363T35 371V434Q35 449 50 449H51Q72 447 105 446T166 444Q187 444 193 451T199 469Q199 480 194 487T173 494H81Q65 494 65 510V579Q65 595 81 595H166Q184 595 191 602T199 620Q199 630 192 636T166 643Q139 643 108 642T55 638H54Q48 638 44 642T39 653V716Q39 723 43 726T53 731Q62 735 76 739T106 746T141 751T177 753Q250 753 290 728T331 635Q331 601 318 581T285 547Q331 519 331 457ZM684 255L626 181H684V255Z"  />
<glyph unicode="&#xBF;" horiz-adv-x="500" d="M406 418Q406 410 400 404T385 398H211Q203 398 197 404T190 418V570Q190 578 196 584T211 590H385Q393 590 399 584T406 570V418ZM470 -149Q470 -157 464 -161T450 -169Q417 -182 372 -190T278 -198Q216 -198 170 -189T92 -158T46 -101T30 -14Q30 33 43 62T77 120L209 317Q217 328 224 332T241 337H375Q383 337 389 331T395 317V276Q395 251 393 234T387 202T374 172T353 134L305 52Q298 40 295 33T292 17Q292 4 315 4H323L450 15H451Q459 15 464 9T470 -5V-149Z"  />
<glyph unicode="&#xC0;" horiz-adv-x="716" d="M473 0Q465 0 460 6T452 20L434 132H282L264 20Q262 12 257 6T243 0H35Q25 0 22 6T20 20L139 624Q146 662 164 687T210 726T275 747T358 753Q404 753 441 747T505 727T551 687T577 624L696 20Q698 12 695 6T681 0H473ZM367 549Q366 555 365 558T358 562Q353 562 352 559T349 549L312 316H404L367 549ZM494 801Q494 794 485 794H335Q324 794 320 796T310 804L180 923Q175 928 175 931Q175 938 187 938H372Q384 938 389 935T401 923L490 811Q494 807 494 801Z"  />
<glyph unicode="&#xC1;" horiz-adv-x="716" d="M473 0Q465 0 460 6T452 20L434 132H282L264 20Q262 12 257 6T243 0H35Q25 0 22 6T20 20L139 624Q146 662 164 687T210 726T275 747T358 753Q404 753 441 747T505 727T551 687T577 624L696 20Q698 12 695 6T681 0H473ZM367 549Q366 555 365 558T358 562Q353 562 352 559T349 549L312 316H404L367 549ZM571 931Q571 928 566 923L436 804Q431 799 427 797T411 794H261Q252 794 252 801Q252 807 256 811L345 923Q352 931 357 934T374 938H559Q571 938 571 931Z"  />
<glyph unicode="&#xC2;" horiz-adv-x="716" d="M473 0Q465 0 460 6T452 20L434 132H282L264 20Q262 12 257 6T243 0H35Q25 0 22 6T20 20L139 624Q146 662 164 687T210 726T275 747T358 753Q404 753 441 747T505 727T551 687T577 624L696 20Q698 12 695 6T681 0H473ZM367 549Q366 555 365 558T358 562Q353 562 352 559T349 549L312 316H404L367 549ZM595 801Q595 794 586 794H442Q431 794 427 796T417 804L369 853L321 804Q316 799 312 797T296 794H152Q143 794 143 801Q143 806 147 811L230 923Q237 932 242 935T259 938H479Q491 938 496 935T508 923L591 811Q595 806 595 801Z"  />
<glyph unicode="&#xC3;" horiz-adv-x="716" d="M473 0Q465 0 460 6T452 20L434 132H282L264 20Q262 12 257 6T243 0H35Q25 0 22 6T20 20L139 624Q146 662 164 687T210 726T275 747T358 753Q404 753 441 747T505 727T551 687T577 624L696 20Q698 12 695 6T681 0H473ZM367 549Q366 555 365 558T358 562Q353 562 352 559T349 549L312 316H404L367 549ZM588 921Q588 883 578 858T550 816T504 794T444 787Q431 787 409 793T370 807L331 827Q317 834 309 836T294 839Q289 839 285 837T280 826V810Q280 793 262 793H165Q147 793 147 810V826Q147 900 186 930T292 960Q305 960 326 955T365 941L404 921Q430 908 442 908Q455 908 455 922V938Q455 955 473 955H570Q588 955 588 938V921H588Z"  />
<glyph unicode="&#xC4;" horiz-adv-x="716" d="M473 0Q465 0 460 6T452 20L434 132H282L264 20Q262 12 257 6T243 0H35Q25 0 22 6T20 20L139 624Q146 662 164 687T210 726T275 747T358 753Q404 753 441 747T505 727T551 687T577 624L696 20Q698 12 695 6T681 0H473ZM367 549Q366 555 365 558T358 562Q353 562 352 559T349 549L312 316H404L367 549ZM565 815Q565 806 558 800T542 794H403Q394 794 387 800T380 815V917Q380 926 387 932T403 938H542Q551 938 558 932T565 917V815ZM335 815Q335 806 328 800T312 794H173Q164 794 157 800T150 815V917Q150 926 157 932T173 938H312Q321 938 328 932T335 917V815Z"  />
<glyph unicode="&#xC5;" horiz-adv-x="716" d="M473 0Q465 0 460 6T452 20L434 132H282L264 20Q262 12 257 6T243 0H35Q25 0 22 6T20 20L139 624Q146 662 164 687T210 726T275 747T358 753Q404 753 441 747T505 727T551 687T577 624L696 20Q698 12 695 6T681 0H473ZM367 549Q366 555 365 558T358 562Q353 562 352 559T349 549L312 316H404L367 549ZM484 909Q484 882 474 859T447 819T406 791T356 781Q329 781 306 791T266 818T238 859T228 909Q228 936 238 959T265 999T306 1027T356 1037Q383 1037 406 1027T446 1000T474 959T484 909ZM394 910Q394 925 383 936T357 947Q343 947 332 937T321 910Q321 894 332 884T357 873Q372 873 383 884T394 910Z"  />
<glyph unicode="&#xC6;" horiz-adv-x="968" d="M913 21Q913 13 907 8T893 1Q862 -3 820 -6T712 -10Q673 -10 633 -5T558 15T496 58T455 132H283L264 20Q262 12 257 6T243 0H35Q19 0 19 15Q19 17 19 17T20 20L139 614Q146 652 164 677T210 716T275 737T358 743H893Q901 743 907 737T913 723V561Q913 553 907 547T893 541H679V465H893Q901 465 907 459T913 445V304Q913 296 907 290T893 284H679V224Q679 205 686 199T712 192H893Q901 192 907 186T913 172V21ZM443 541H365Q351 541 348 520L314 316H443V541Z"  />
<glyph unicode="&#xC7;" horiz-adv-x="548" d="M513 31Q513 21 509 18T492 9Q468 1 436 -4T361 -10Q198 -10 119 78T40 331V412Q40 578 119 665T361 753Q403 753 437 748T492 734Q505 729 509 726T513 712V554Q513 536 497 536H493Q477 538 465 539T438 542T406 544T361 545Q346 545 332 541T305 522T286 481T279 412V331Q279 286 286 260T305 220T331 202T361 198Q405 198 433 200T493 207H497Q513 207 513 189V31ZM451 -44Q451 -47 446 -52L316 -171Q311 -176 307 -178T291 -181H141Q132 -181 132 -174Q132 -168 136 -164L225 -52Q232 -44 237 -41T254 -37H439Q451 -37 451 -44Z"  />
<glyph unicode="&#xC8;" horiz-adv-x="595" d="M540 21Q540 13 534 8T520 1Q489 -3 437 -6T319 -10Q272 -10 224 -3T138 30T75 101T50 224V519Q50 596 74 642T137 713T224 745T319 753Q385 753 437 750T520 742Q528 741 534 736T540 722V571Q540 563 534 557T520 551H319Q300 551 293 545T286 519V465H520Q528 465 534 459T540 445V304Q540 296 534 290T520 284H286V224Q286 205 293 199T319 192H520Q528 192 534 186T540 172V21H540ZM438 801Q438 794 429 794H279Q268 794 264 796T254 804L124 923Q119 928 119 931Q119 938 131 938H316Q328 938 333 935T345 923L434 811Q438 807 438 801Z"  />
<glyph unicode="&#xC9;" horiz-adv-x="595" d="M540 21Q540 13 534 8T520 1Q489 -3 437 -6T319 -10Q272 -10 224 -3T138 30T75 101T50 224V519Q50 596 74 642T137 713T224 745T319 753Q385 753 437 750T520 742Q528 741 534 736T540 722V571Q540 563 534 557T520 551H319Q300 551 293 545T286 519V465H520Q528 465 534 459T540 445V304Q540 296 534 290T520 284H286V224Q286 205 293 199T319 192H520Q528 192 534 186T540 172V21H540ZM505 931Q505 928 500 923L370 804Q365 799 361 797T345 794H195Q186 794 186 801Q186 807 190 811L279 923Q286 931 291 934T308 938H493Q505 938 505 931Z"  />
<glyph unicode="&#xCA;" horiz-adv-x="595" d="M540 21Q540 13 534 8T520 1Q489 -3 437 -6T319 -10Q272 -10 224 -3T138 30T75 101T50 224V519Q50 596 74 642T137 713T224 745T319 753Q385 753 437 750T520 742Q528 741 534 736T540 722V571Q540 563 534 557T520 551H319Q300 551 293 545T286 519V465H520Q528 465 534 459T540 445V304Q540 296 534 290T520 284H286V224Q286 205 293 199T319 192H520Q528 192 534 186T540 172V21H540ZM530 801Q530 794 521 794H377Q366 794 362 796T352 804L304 853L256 804Q251 799 247 797T231 794H87Q78 794 78 801Q78 806 82 811L165 923Q172 932 177 935T194 938H414Q426 938 431 935T443 923L526 811Q530 806 530 801Z"  />
<glyph unicode="&#xCB;" horiz-adv-x="595" d="M540 21Q540 13 534 8T520 1Q489 -3 437 -6T319 -10Q272 -10 224 -3T138 30T75 101T50 224V519Q50 596 74 642T137 713T224 745T319 753Q385 753 437 750T520 742Q528 741 534 736T540 722V571Q540 563 534 557T520 551H319Q300 551 293 545T286 519V465H520Q528 465 534 459T540 445V304Q540 296 534 290T520 284H286V224Q286 205 293 199T319 192H520Q528 192 534 186T540 172V21H540ZM506 815Q506 806 499 800T483 794H344Q335 794 328 800T321 815V917Q321 926 328 932T344 938H483Q492 938 499 932T506 917V815ZM276 815Q276 806 269 800T253 794H114Q105 794 98 800T91 815V917Q91 926 98 932T114 938H253Q262 938 269 932T276 917V815Z"  />
<glyph unicode="&#xCC;" horiz-adv-x="356" d="M296 20Q296 12 290 6T276 0H81Q73 0 67 6T60 20V723Q60 731 66 737T81 743H276Q284 743 290 737T296 723V20H296ZM305 801Q305 794 296 794H146Q135 794 131 796T121 804L-9 923Q-14 928 -14 931Q-14 938 -2 938H183Q195 938 200 935T212 923L301 811Q305 807 305 801Z"  />
<glyph unicode="&#xCD;" horiz-adv-x="356" d="M296 20Q296 12 290 6T276 0H81Q73 0 67 6T60 20V723Q60 731 66 737T81 743H276Q284 743 290 737T296 723V20H296ZM378 931Q378 928 373 923L243 804Q238 799 234 797T218 794H68Q59 794 59 801Q59 807 63 811L152 923Q159 931 164 934T181 938H366Q378 938 378 931Z"  />
<glyph unicode="&#xCE;" horiz-adv-x="356" d="M296 20Q296 12 290 6T276 0H81Q73 0 67 6T60 20V723Q60 731 66 737T81 743H276Q284 743 290 737T296 723V20H296ZM404 801Q404 794 395 794H251Q240 794 236 796T226 804L178 853L130 804Q125 799 121 797T105 794H-39Q-48 794 -48 801Q-48 806 -44 811L39 923Q46 932 51 935T68 938H288Q300 938 305 935T317 923L400 811Q404 806 404 801Z"  />
<glyph unicode="&#xCF;" horiz-adv-x="356" d="M296 20Q296 12 290 6T276 0H81Q73 0 67 6T60 20V723Q60 731 66 737T81 743H276Q284 743 290 737T296 723V20H296ZM385 815Q385 806 378 800T362 794H223Q214 794 207 800T200 815V917Q200 926 207 932T223 938H362Q371 938 378 932T385 917V815ZM155 815Q155 806 148 800T132 794H-7Q-16 794 -23 800T-30 815V917Q-30 926 -23 932T-7 938H132Q141 938 148 932T155 917V815Z"  />
<glyph unicode="&#xD0;" horiz-adv-x="706" d="M666 326Q666 237 642 173T575 69T470 9T335 -10Q254 -10 196 -5T90 9Q72 12 64 20T55 52V284H7Q-1 284 -7 290T-13 304V445Q-13 453 -7 459T7 465H55V691Q55 714 63 722T90 734Q137 742 195 747T335 753Q409 753 470 734T574 675T642 570T666 417V326ZM427 417Q427 457 423 483T408 524T379 545T335 551H291V465H335Q343 465 349 459T355 445V304Q355 296 349 290T335 284H291V192H335Q361 192 379 198T407 219T422 260T427 326V417Z"  />
<glyph unicode="&#xD1;" horiz-adv-x="763" d="M703 35Q703 21 693 11T668 0H497Q486 0 478 6T465 22L300 297Q295 305 290 305Q285 305 285 296V20Q285 12 279 6T264 0H81Q73 0 67 6T60 20V708Q60 722 70 732T95 743H259Q273 743 282 735T297 715L465 439Q469 432 471 431T475 430Q477 430 478 431T480 439V723Q480 731 486 737T500 743H683Q691 743 697 737T703 723V35H703ZM596 921Q596 883 586 858T558 816T512 794T452 787Q439 787 417 793T378 807L339 827Q325 834 317 836T302 839Q297 839 293 837T288 826V810Q288 793 270 793H173Q155 793 155 810V826Q155 900 194 930T300 960Q313 960 334 955T373 941L412 921Q438 908 450 908Q463 908 463 922V938Q463 955 481 955H578Q596 955 596 938V921H596Z"  />
<glyph unicode="&#xD2;" horiz-adv-x="716" d="M676 328Q676 232 650 168T579 64T478 7T358 -10Q296 -10 239 7T137 63T67 167T40 328V415Q40 511 66 575T137 679T238 736T358 753Q420 753 477 736T579 680T649 576T676 415V328ZM437 415Q437 487 419 516T358 545Q316 545 298 516T279 415V328Q279 256 297 227T358 198Q400 198 418 227T437 328V415ZM463 801Q463 794 454 794H304Q293 794 289 796T279 804L149 923Q144 928 144 931Q144 938 156 938H341Q353 938 358 935T370 923L459 811Q463 807 463 801Z"  />
<glyph unicode="&#xD3;" horiz-adv-x="716" d="M676 328Q676 232 650 168T579 64T478 7T358 -10Q296 -10 239 7T137 63T67 167T40 328V415Q40 511 66 575T137 679T238 736T358 753Q420 753 477 736T579 680T649 576T676 415V328ZM437 415Q437 487 419 516T358 545Q316 545 298 516T279 415V328Q279 256 297 227T358 198Q400 198 418 227T437 328V415ZM571 931Q571 928 566 923L436 804Q431 799 427 797T411 794H261Q252 794 252 801Q252 807 256 811L345 923Q352 931 357 934T374 938H559Q571 938 571 931Z"  />
<glyph unicode="&#xD4;" horiz-adv-x="716" d="M676 328Q676 232 650 168T579 64T478 7T358 -10Q296 -10 239 7T137 63T67 167T40 328V415Q40 511 66 575T137 679T238 736T358 753Q420 753 477 736T579 680T649 576T676 415V328ZM437 415Q437 487 419 516T358 545Q316 545 298 516T279 415V328Q279 256 297 227T358 198Q400 198 418 227T437 328V415ZM584 802Q584 795 575 795H431Q420 795 416 797T406 805L358 854L310 805Q305 800 301 798T285 795H141Q132 795 132 802Q132 807 136 812L219 924Q226 933 231 936T248 939H468Q480 939 485 936T497 924L580 812Q584 807 584 802Z"  />
<glyph unicode="&#xD5;" horiz-adv-x="716" d="M676 328Q676 232 650 168T579 64T478 7T358 -10Q296 -10 239 7T137 63T67 167T40 328V415Q40 511 66 575T137 679T238 736T358 753Q420 753 477 736T579 680T649 576T676 415V328ZM437 415Q437 487 419 516T358 545Q316 545 298 516T279 415V328Q279 256 297 227T358 198Q400 198 418 227T437 328V415ZM590 922Q590 884 580 859T552 817T506 795T446 788Q433 788 411 794T372 808L333 828Q319 835 311 837T296 840Q291 840 287 838T282 827V811Q282 794 264 794H167Q149 794 149 811V827Q149 901 188 931T294 961Q307 961 328 956T367 942L406 922Q432 909 444 909Q457 909 457 923V939Q457 956 475 956H572Q590 956 590 939V922H590Z"  />
<glyph unicode="&#xD6;" horiz-adv-x="716" d="M676 328Q676 232 650 168T579 64T478 7T358 -10Q296 -10 239 7T137 63T67 167T40 328V415Q40 511 66 575T137 679T238 736T358 753Q420 753 477 736T579 680T649 576T676 415V328ZM437 415Q437 487 419 516T358 545Q316 545 298 516T279 415V328Q279 256 297 227T358 198Q400 198 418 227T437 328V415ZM565 815Q565 806 558 800T542 794H403Q394 794 387 800T380 815V917Q380 926 387 932T403 938H542Q551 938 558 932T565 917V815ZM335 815Q335 806 328 800T312 794H173Q164 794 157 800T150 815V917Q150 926 157 932T173 938H312Q321 938 328 932T335 917V815Z"  />
<glyph unicode="&#xD7;" horiz-adv-x="670" d="M558 505Q558 497 550 489L450 389L549 289Q557 281 557 274Q557 269 552 264L460 172Q455 167 450 167Q443 167 435 175L335 274L235 175Q227 167 220 167Q215 167 210 172L118 264Q113 269 113 274Q113 281 121 289L220 389L120 489Q112 497 112 505Q112 510 117 515L209 607Q214 612 220 612Q227 612 235 604L335 503L435 604Q443 612 450 612Q456 612 461 607L553 515Q558 510 558 505Z"  />
<glyph unicode="&#xD8;" horiz-adv-x="716" d="M709 742Q709 738 706 734L625 622Q648 584 661 533T674 415V328Q674 232 648 168T577 64T476 7T356 -10Q313 -10 272 -2T195 23L184 9Q179 3 173 -3T158 -10H18Q7 -10 7 1Q7 4 10 9L89 118Q65 156 52 208T38 328V415Q38 511 64 575T135 679T236 736T356 753Q400 753 441 745T520 718L532 734Q537 740 543 746T558 753H698Q709 753 709 742ZM391 539Q376 545 356 545Q314 545 296 516T277 415V380L391 539ZM435 357L324 203Q339 198 356 198Q398 198 416 227T435 328V357Z"  />
<glyph unicode="&#xD9;" horiz-adv-x="752" d="M692 286Q692 190 665 132T592 42T491 0T376 -10Q318 -10 262 0T160 41T88 131T60 286V723Q60 731 66 737T81 743H276Q284 743 290 737T296 723V286Q296 256 301 238T316 209T341 194T376 190Q395 190 410 194T435 208T451 237T456 286V723Q456 731 462 737T476 743H671Q679 743 685 737T692 723V286H692ZM493 801Q493 794 484 794H334Q323 794 319 796T309 804L179 923Q174 928 174 931Q174 938 186 938H371Q383 938 388 935T400 923L489 811Q493 807 493 801Z"  />
<glyph unicode="&#xDA;" horiz-adv-x="752" d="M692 286Q692 190 665 132T592 42T491 0T376 -10Q318 -10 262 0T160 41T88 131T60 286V723Q60 731 66 737T81 743H276Q284 743 290 737T296 723V286Q296 256 301 238T316 209T341 194T376 190Q395 190 410 194T435 208T451 237T456 286V723Q456 731 462 737T476 743H671Q679 743 685 737T692 723V286H692ZM583 931Q583 928 578 923L448 804Q443 799 439 797T423 794H273Q264 794 264 801Q264 807 268 811L357 923Q364 931 369 934T386 938H571Q583 938 583 931Z"  />
<glyph unicode="&#xDB;" horiz-adv-x="752" d="M692 286Q692 190 665 132T592 42T491 0T376 -10Q318 -10 262 0T160 41T88 131T60 286V723Q60 731 66 737T81 743H276Q284 743 290 737T296 723V286Q296 256 301 238T316 209T341 194T376 190Q395 190 410 194T435 208T451 237T456 286V723Q456 731 462 737T476 743H671Q679 743 685 737T692 723V286H692ZM601 801Q601 794 592 794H448Q437 794 433 796T423 804L375 853L327 804Q322 799 318 797T302 794H158Q149 794 149 801Q149 806 153 811L236 923Q243 932 248 935T265 938H485Q497 938 502 935T514 923L597 811Q601 806 601 801Z"  />
<glyph unicode="&#xDC;" horiz-adv-x="752" d="M692 286Q692 190 665 132T592 42T491 0T376 -10Q318 -10 262 0T160 41T88 131T60 286V723Q60 731 66 737T81 743H276Q284 743 290 737T296 723V286Q296 256 301 238T316 209T341 194T376 190Q395 190 410 194T435 208T451 237T456 286V723Q456 731 462 737T476 743H671Q679 743 685 737T692 723V286H692ZM583 815Q583 806 576 800T560 794H421Q412 794 405 800T398 815V917Q398 926 405 932T421 938H560Q569 938 576 932T583 917V815ZM353 815Q353 806 346 800T330 794H191Q182 794 175 800T168 815V917Q168 926 175 932T191 938H330Q339 938 346 932T353 917V815Z"  />
<glyph unicode="&#xDD;" horiz-adv-x="709" d="M681 743Q689 743 693 737T694 723L547 379Q530 340 512 318T472 287V20Q472 12 466 6T451 0H256Q248 0 242 6T236 20V287Q214 296 196 318T161 379L15 723Q12 730 15 736T27 743H240Q252 743 256 737T264 723L348 475Q349 469 354 469Q358 469 360 475L445 723Q448 731 452 737T471 743H681H681ZM565 931Q565 928 560 923L430 804Q425 799 421 797T405 794H255Q246 794 246 801Q246 807 250 811L339 923Q346 931 351 934T368 938H553Q565 938 565 931Z"  />
<glyph unicode="&#xDE;" horiz-adv-x="698" d="M668 405Q668 327 638 277T561 197T458 156T349 144Q334 144 321 144T287 146V20Q287 12 281 6T267 0H75Q67 0 61 6T55 20V723Q55 731 61 737T75 743H267Q275 743 281 737T287 723V672H309Q318 672 327 672T344 673Q399 673 456 662T561 621T638 542T668 412V405ZM434 412Q434 446 411 461T349 476H287V341H349Q387 341 410 357T434 405V412Z"  />
<glyph unicode="&#xDF;" horiz-adv-x="696" d="M656 232Q656 172 636 127T581 51T502 6T408 -10Q394 -10 373 -9T336 -3Q328 -1 322 4T316 17V160Q316 168 322 174T336 180H382Q409 180 420 193T432 232V262Q432 287 418 301T362 316H339Q331 316 325 322T319 336V450Q319 458 325 464T339 470H362Q401 470 414 484T428 518V549Q428 567 414 582T360 597Q318 597 296 581T274 516V20Q274 12 268 6T254 0H70Q62 0 56 6T50 20V516Q50 656 126 721T360 787Q442 787 497 768T587 718T636 647T651 564V533Q651 486 630 453T580 400Q616 376 636 341T656 262V232H656Z"  />
<glyph unicode="&#xE0;" horiz-adv-x="590" d="M540 20Q540 12 534 6T520 0H355Q347 0 341 6T335 20V41Q304 17 273 4T194 -10Q168 -10 139 -1T86 30T46 87T30 176V192Q30 238 48 268T101 317T184 342T295 350H319V371Q319 386 315 395T303 409T286 415T269 417Q245 417 218 417T167 415T124 413T94 411Q81 409 78 416T74 432V546Q74 555 80 561T94 571Q105 575 127 580T175 589T228 597T279 600Q334 600 381 590T464 554T520 484T540 371V20ZM326 238H295Q273 238 256 228T239 192V181Q239 161 250 153T277 145Q290 145 303 148T326 154V238ZM420 642Q420 635 411 635H261Q250 635 246 637T236 645L106 764Q101 769 101 772Q101 779 113 779H298Q310 779 315 776T327 764L416 652Q420 648 420 642Z"  />
<glyph unicode="&#xE1;" horiz-adv-x="590" d="M540 20Q540 12 534 6T520 0H355Q347 0 341 6T335 20V41Q304 17 273 4T194 -10Q168 -10 139 -1T86 30T46 87T30 176V192Q30 238 48 268T101 317T184 342T295 350H319V371Q319 386 315 395T303 409T286 415T269 417Q245 417 218 417T167 415T124 413T94 411Q81 409 78 416T74 432V546Q74 555 80 561T94 571Q105 575 127 580T175 589T228 597T279 600Q334 600 381 590T464 554T520 484T540 371V20ZM326 238H295Q273 238 256 228T239 192V181Q239 161 250 153T277 145Q290 145 303 148T326 154V238ZM520 772Q520 769 515 764L385 645Q380 640 376 638T360 635H210Q201 635 201 642Q201 648 205 652L294 764Q301 772 306 775T323 779H508Q520 779 520 772Z"  />
<glyph unicode="&#xE2;" horiz-adv-x="590" d="M540 20Q540 12 534 6T520 0H355Q347 0 341 6T335 20V41Q304 17 273 4T194 -10Q168 -10 139 -1T86 30T46 87T30 176V192Q30 238 48 268T101 317T184 342T295 350H319V371Q319 386 315 395T303 409T286 415T269 417Q245 417 218 417T167 415T124 413T94 411Q81 409 78 416T74 432V546Q74 555 80 561T94 571Q105 575 127 580T175 589T228 597T279 600Q334 600 381 590T464 554T520 484T540 371V20ZM326 238H295Q273 238 256 228T239 192V181Q239 161 250 153T277 145Q290 145 303 148T326 154V238ZM532 642Q532 635 523 635H379Q368 635 364 637T354 645L306 694L258 645Q253 640 249 638T233 635H89Q80 635 80 642Q80 647 84 652L167 764Q174 773 179 776T196 779H416Q428 779 433 776T445 764L528 652Q532 647 532 642Z"  />
<glyph unicode="&#xE3;" horiz-adv-x="590" d="M540 20Q540 12 534 6T520 0H355Q347 0 341 6T335 20V41Q304 17 273 4T194 -10Q168 -10 139 -1T86 30T46 87T30 176V192Q30 238 48 268T101 317T184 342T295 350H319V371Q319 386 315 395T303 409T286 415T269 417Q245 417 218 417T167 415T124 413T94 411Q81 409 78 416T74 432V546Q74 555 80 561T94 571Q105 575 127 580T175 589T228 597T279 600Q334 600 381 590T464 554T520 484T540 371V20ZM326 238H295Q273 238 256 228T239 192V181Q239 161 250 153T277 145Q290 145 303 148T326 154V238ZM535 759Q535 721 525 696T497 654T451 632T391 625Q378 625 356 631T317 645L278 665Q264 672 256 674T241 677Q236 677 232 675T227 664V648Q227 631 209 631H112Q94 631 94 648V664Q94 738 133 768T239 798Q252 798 273 793T312 779L351 759Q377 746 389 746Q402 746 402 760V776Q402 793 420 793H517Q535 793 535 776V759H535Z"  />
<glyph unicode="&#xE4;" horiz-adv-x="590" d="M540 20Q540 12 534 6T520 0H355Q347 0 341 6T335 20V41Q304 17 273 4T194 -10Q168 -10 139 -1T86 30T46 87T30 176V192Q30 238 48 268T101 317T184 342T295 350H319V371Q319 386 315 395T303 409T286 415T269 417Q245 417 218 417T167 415T124 413T94 411Q81 409 78 416T74 432V546Q74 555 80 561T94 571Q105 575 127 580T175 589T228 597T279 600Q334 600 381 590T464 554T520 484T540 371V20ZM326 238H295Q273 238 256 228T239 192V181Q239 161 250 153T277 145Q290 145 303 148T326 154V238ZM516 656Q516 647 509 641T493 635H354Q345 635 338 641T331 656V758Q331 767 338 773T354 779H493Q502 779 509 773T516 758V656ZM286 656Q286 647 279 641T263 635H124Q115 635 108 641T101 656V758Q101 767 108 773T124 779H263Q272 779 279 773T286 758V656Z"  />
<glyph unicode="&#xE5;" horiz-adv-x="590" d="M540 20Q540 12 534 6T520 0H355Q347 0 341 6T335 20V41Q304 17 273 4T194 -10Q168 -10 139 -1T86 30T46 87T30 176V192Q30 238 48 268T101 317T184 342T295 350H319V371Q319 386 315 395T303 409T286 415T269 417Q245 417 218 417T167 415T124 413T94 411Q81 409 78 416T74 432V546Q74 555 80 561T94 571Q105 575 127 580T175 589T228 597T279 600Q334 600 381 590T464 554T520 484T540 371V20ZM326 238H295Q273 238 256 228T239 192V181Q239 161 250 153T277 145Q290 145 303 148T326 154V238ZM427 763Q427 736 417 713T390 673T349 645T299 635Q272 635 249 645T209 672T181 713T171 763Q171 790 181 813T208 853T249 881T299 891Q326 891 349 881T389 854T417 813T427 763ZM337 764Q337 779 326 790T300 801Q286 801 275 791T264 764Q264 748 275 738T300 727Q315 727 326 738T337 764Z"  />
<glyph unicode="&#xE6;" horiz-adv-x="903" d="M868 258Q868 249 862 243T846 237H544Q544 218 548 206T561 187T587 176T630 173Q646 173 672 173T727 175T780 177T818 180H822Q840 180 840 162V57Q840 44 836 39T821 28Q773 8 713 -1T592 -10Q561 -10 519 -3T442 21Q403 7 357 -2T264 -11Q220 -11 179 -2T105 30T54 89T35 180V190Q35 236 55 267T110 316T194 342T300 350H324V371Q324 386 320 395T308 409T291 415T274 417Q250 417 223 417T172 415T129 413T99 411Q86 410 83 416T79 432V546Q79 555 85 561T99 571Q110 575 130 580T175 589T225 597T274 600Q325 600 369 590T449 555Q483 578 519 589T602 600Q671 600 721 580T804 523T852 435T868 319V258ZM657 349Q657 385 646 408T600 432Q569 432 557 409T544 349H657ZM331 238H300Q278 238 261 227T244 190V180Q244 167 249 160T262 148T281 143T303 142Q311 142 318 142T331 144V238Z"  />
<glyph unicode="&#xE7;" horiz-adv-x="475" d="M440 26Q440 17 435 13T420 7Q391 0 357 -5T279 -10Q217 -10 172 9T96 64T50 150T35 262V328Q35 389 50 439T95 525T171 580T279 600Q323 600 361 594T420 583Q428 581 434 577T440 564V428Q440 420 434 414T419 407H418Q394 409 367 411T310 413Q279 413 268 393T257 328V262Q257 217 268 197T310 177Q340 177 367 179T418 183H419Q427 183 433 177T440 162V26ZM362 -44Q362 -47 357 -52L227 -171Q222 -176 218 -178T202 -181H52Q43 -181 43 -174Q43 -168 47 -164L136 -52Q143 -44 148 -41T165 -37H350Q362 -37 362 -44Z"  />
<glyph unicode="&#xE8;" horiz-adv-x="614" d="M579 258Q579 249 573 243T557 237H255Q255 218 259 206T272 187T298 176T341 173Q357 173 383 173T438 175T491 177T529 180Q540 181 545 178T551 162V57Q551 44 547 39T532 28Q484 8 424 -1T303 -10Q247 -10 199 5T114 53T56 136T35 258V319Q35 391 54 444T110 531T197 583T313 600Q382 600 432 580T515 523T563 435T579 319V258ZM368 349Q368 385 357 408T311 432Q280 432 268 409T255 349H368ZM402 642Q402 635 393 635H243Q232 635 228 637T218 645L88 764Q83 769 83 772Q83 779 95 779H280Q292 779 297 776T309 764L398 652Q402 648 402 642Z"  />
<glyph unicode="&#xE9;" horiz-adv-x="614" d="M579 258Q579 249 573 243T557 237H255Q255 218 259 206T272 187T298 176T341 173Q357 173 383 173T438 175T491 177T529 180Q540 181 545 178T551 162V57Q551 44 547 39T532 28Q484 8 424 -1T303 -10Q247 -10 199 5T114 53T56 136T35 258V319Q35 391 54 444T110 531T197 583T313 600Q382 600 432 580T515 523T563 435T579 319V258ZM368 349Q368 385 357 408T311 432Q280 432 268 409T255 349H368ZM530 772Q530 769 525 764L395 645Q390 640 386 638T370 635H220Q211 635 211 642Q211 648 215 652L304 764Q311 772 316 775T333 779H518Q530 779 530 772Z"  />
<glyph unicode="&#xEA;" horiz-adv-x="614" d="M579 258Q579 249 573 243T557 237H255Q255 218 259 206T272 187T298 176T341 173Q357 173 383 173T438 175T491 177T529 180Q540 181 545 178T551 162V57Q551 44 547 39T532 28Q484 8 424 -1T303 -10Q247 -10 199 5T114 53T56 136T35 258V319Q35 391 54 444T110 531T197 583T313 600Q382 600 432 580T515 523T563 435T579 319V258ZM368 349Q368 385 357 408T311 432Q280 432 268 409T255 349H368ZM540 642Q540 635 531 635H387Q376 635 372 637T362 645L314 694L266 645Q261 640 257 638T241 635H97Q88 635 88 642Q88 647 92 652L175 764Q182 773 187 776T204 779H424Q436 779 441 776T453 764L536 652Q540 647 540 642Z"  />
<glyph unicode="&#xEB;" horiz-adv-x="614" d="M579 258Q579 249 573 243T557 237H255Q255 218 259 206T272 187T298 176T341 173Q357 173 383 173T438 175T491 177T529 180Q540 181 545 178T551 162V57Q551 44 547 39T532 28Q484 8 424 -1T303 -10Q247 -10 199 5T114 53T56 136T35 258V319Q35 391 54 444T110 531T197 583T313 600Q382 600 432 580T515 523T563 435T579 319V258ZM368 349Q368 385 357 408T311 432Q280 432 268 409T255 349H368ZM518 656Q518 647 511 641T495 635H356Q347 635 340 641T333 656V758Q333 767 340 773T356 779H495Q504 779 511 773T518 758V656ZM288 656Q288 647 281 641T265 635H126Q117 635 110 641T103 656V758Q103 767 110 773T126 779H265Q274 779 281 773T288 758V656Z"  />
<glyph unicode="&#xEC;" horiz-adv-x="329" d="M277 22Q277 13 271 7T255 0H76Q67 0 60 6T53 22V569Q53 578 60 584T76 590H255Q264 590 270 584T277 569V22H277ZM284 642Q284 635 275 635H125Q114 635 110 637T100 645L-30 764Q-35 769 -35 772Q-35 779 -23 779H162Q174 779 179 776T191 764L280 652Q284 648 284 642Z"  />
<glyph unicode="&#xED;" horiz-adv-x="329" d="M277 22Q277 13 271 7T255 0H76Q67 0 60 6T53 22V569Q53 578 60 584T76 590H255Q264 590 270 584T277 569V22H277ZM374 772Q374 769 369 764L239 645Q234 640 230 638T214 635H64Q55 635 55 642Q55 648 59 652L148 764Q155 772 160 775T177 779H362Q374 779 374 772Z"  />
<glyph unicode="&#xEE;" horiz-adv-x="329" d="M277 22Q277 13 271 7T255 0H76Q67 0 60 6T53 22V569Q53 578 60 584T76 590H255Q264 590 270 584T277 569V22H277ZM397 642Q397 635 388 635H244Q233 635 229 637T219 645L171 694L123 645Q118 640 114 638T98 635H-46Q-55 635 -55 642Q-55 647 -51 652L32 764Q39 773 44 776T61 779H281Q293 779 298 776T310 764L393 652Q397 647 397 642Z"  />
<glyph unicode="&#xEF;" horiz-adv-x="329" d="M277 22Q277 13 271 7T255 0H76Q67 0 60 6T53 22V569Q53 578 60 584T76 590H255Q264 590 270 584T277 569V22H277ZM374 656Q374 647 367 641T351 635H212Q203 635 196 641T189 656V758Q189 767 196 773T212 779H351Q360 779 367 773T374 758V656ZM144 656Q144 647 137 641T121 635H-18Q-27 635 -34 641T-41 656V758Q-41 767 -34 773T-18 779H121Q130 779 137 773T144 758V656Z"  />
<glyph unicode="&#xF0;" horiz-adv-x="620" d="M585 272Q585 127 512 59T310 -10Q182 -10 109 58T35 272V283Q35 428 108 496T310 565H314Q280 591 228 616L166 568Q158 562 153 562Q148 562 142 568L118 595Q115 598 115 603Q115 612 125 619L158 644L115 659Q109 661 104 664T99 674Q99 677 100 679L132 767Q136 778 145 778Q149 778 155 776Q189 767 219 757T278 736L344 786Q351 791 358 791Q365 791 369 786L393 759Q397 753 397 751Q397 745 387 737L345 705Q469 639 527 532T585 284V272ZM363 283Q363 341 349 361T310 381Q284 381 271 361T257 283V272Q257 243 260 224T270 194T287 179T310 174Q323 174 332 178T349 194T359 224T363 272V283Z"  />
<glyph unicode="&#xF1;" horiz-adv-x="652" d="M602 22Q602 13 596 7T581 0H401Q392 0 386 6T379 22V368Q379 394 364 405T328 417Q300 417 273 402V22Q273 13 268 7T253 0H73Q64 0 57 6T50 22V570Q50 578 56 584T70 590H235Q243 590 249 584T255 570V542Q273 556 288 567T322 585T364 596T419 600Q474 600 509 582T565 531T594 457T602 368V22H602ZM544 759Q544 721 534 696T506 654T460 632T400 625Q387 625 365 631T326 645L287 665Q273 672 265 674T250 677Q245 677 241 675T236 664V648Q236 631 218 631H121Q103 631 103 648V664Q103 738 142 768T248 798Q261 798 282 793T321 779L360 759Q386 746 398 746Q411 746 411 760V776Q411 793 429 793H526Q544 793 544 776V759H544Z"  />
<glyph unicode="&#xF2;" horiz-adv-x="620" d="M585 272Q585 127 512 59T310 -10Q182 -10 109 58T35 272V318Q35 463 108 531T310 600Q438 600 511 532T585 318V272ZM363 318Q363 376 349 396T310 416Q284 416 271 396T257 318V272Q257 243 260 224T270 194T287 179T310 174Q323 174 332 178T349 194T359 224T363 272V318ZM424 642Q424 635 415 635H265Q254 635 250 637T240 645L110 764Q105 769 105 772Q105 779 117 779H302Q314 779 319 776T331 764L420 652Q424 648 424 642Z"  />
<glyph unicode="&#xF3;" horiz-adv-x="620" d="M585 272Q585 127 512 59T310 -10Q182 -10 109 58T35 272V318Q35 463 108 531T310 600Q438 600 511 532T585 318V272ZM363 318Q363 376 349 396T310 416Q284 416 271 396T257 318V272Q257 243 260 224T270 194T287 179T310 174Q323 174 332 178T349 194T359 224T363 272V318ZM515 772Q515 769 510 764L380 645Q375 640 371 638T355 635H205Q196 635 196 642Q196 648 200 652L289 764Q296 772 301 775T318 779H503Q515 779 515 772Z"  />
<glyph unicode="&#xF4;" horiz-adv-x="620" d="M585 272Q585 127 512 59T310 -10Q182 -10 109 58T35 272V318Q35 463 108 531T310 600Q438 600 511 532T585 318V272ZM363 318Q363 376 349 396T310 416Q284 416 271 396T257 318V272Q257 243 260 224T270 194T287 179T310 174Q323 174 332 178T349 194T359 224T363 272V318ZM536 642Q536 635 527 635H383Q372 635 368 637T358 645L310 694L262 645Q257 640 253 638T237 635H93Q84 635 84 642Q84 647 88 652L171 764Q178 773 183 776T200 779H420Q432 779 437 776T449 764L532 652Q536 647 536 642Z"  />
<glyph unicode="&#xF5;" horiz-adv-x="620" d="M585 272Q585 127 512 59T310 -10Q182 -10 109 58T35 272V318Q35 463 108 531T310 600Q438 600 511 532T585 318V272ZM363 318Q363 376 349 396T310 416Q284 416 271 396T257 318V272Q257 243 260 224T270 194T287 179T310 174Q323 174 332 178T349 194T359 224T363 272V318ZM530 759Q530 721 520 696T492 654T446 632T386 625Q373 625 351 631T312 645L273 665Q259 672 251 674T236 677Q231 677 227 675T222 664V648Q222 631 204 631H107Q89 631 89 648V664Q89 738 128 768T234 798Q247 798 268 793T307 779L346 759Q372 746 384 746Q397 746 397 760V776Q397 793 415 793H512Q530 793 530 776V759H530Z"  />
<glyph unicode="&#xF6;" horiz-adv-x="620" d="M585 272Q585 127 512 59T310 -10Q182 -10 109 58T35 272V318Q35 463 108 531T310 600Q438 600 511 532T585 318V272ZM363 318Q363 376 349 396T310 416Q284 416 271 396T257 318V272Q257 243 260 224T270 194T287 179T310 174Q323 174 332 178T349 194T359 224T363 272V318ZM517 656Q517 647 510 641T494 635H355Q346 635 339 641T332 656V758Q332 767 339 773T355 779H494Q503 779 510 773T517 758V656ZM287 656Q287 647 280 641T264 635H125Q116 635 109 641T102 656V758Q102 767 109 773T125 779H264Q273 779 280 773T287 758V656Z"  />
<glyph unicode="&#xF7;" horiz-adv-x="670" d="M443 572Q443 564 437 558T422 552H248Q240 552 234 558T227 572V704Q227 712 233 718T248 724H422Q430 724 436 718T443 704V572ZM578 326Q578 318 572 314T558 310H113Q105 310 99 314T93 326V456Q93 464 99 468T113 472H558Q566 472 572 468T578 456V326ZM443 57Q443 49 437 43T422 37H248Q240 37 234 43T227 57V189Q227 197 233 203T248 209H422Q430 209 436 203T443 189V57Z"  />
<glyph unicode="&#xF8;" horiz-adv-x="620" d="M590 617Q590 610 586 606L522 520Q585 449 585 318V272Q585 127 512 59T310 -10Q218 -10 156 24L120 -25Q115 -32 112 -33T104 -35H39Q31 -35 31 -27Q31 -21 35 -16L98 70Q35 141 35 272V318Q35 463 108 531T310 600Q402 600 464 566L501 615Q506 622 509 623T517 625H582Q590 625 590 617ZM344 403Q331 416 310 416Q284 416 271 396T257 318V285L344 403ZM363 305L276 187Q289 174 310 174Q323 174 332 178T349 194T359 224T363 272V305Z"  />
<glyph unicode="&#xF9;" horiz-adv-x="652" d="M602 20Q602 12 596 6T582 0H417Q409 0 403 6T397 20V48Q381 35 366 24T331 6T289 -6T233 -10Q178 -10 143 8T87 59T58 133T50 222V568Q50 577 56 583T71 590H251Q260 590 266 584T273 568V222Q273 196 288 185T324 173Q352 173 379 188V568Q379 577 384 583T399 590H579Q588 590 595 584T602 568V20H602ZM434 642Q434 635 425 635H275Q264 635 260 637T250 645L120 764Q115 769 115 772Q115 779 127 779H312Q324 779 329 776T341 764L430 652Q434 648 434 642Z"  />
<glyph unicode="&#xFA;" horiz-adv-x="652" d="M602 20Q602 12 596 6T582 0H417Q409 0 403 6T397 20V48Q381 35 366 24T331 6T289 -6T233 -10Q178 -10 143 8T87 59T58 133T50 222V568Q50 577 56 583T71 590H251Q260 590 266 584T273 568V222Q273 196 288 185T324 173Q352 173 379 188V568Q379 577 384 583T399 590H579Q588 590 595 584T602 568V20H602ZM545 772Q545 769 540 764L410 645Q405 640 401 638T385 635H235Q226 635 226 642Q226 648 230 652L319 764Q326 772 331 775T348 779H533Q545 779 545 772Z"  />
<glyph unicode="&#xFB;" horiz-adv-x="652" d="M602 20Q602 12 596 6T582 0H417Q409 0 403 6T397 20V48Q381 35 366 24T331 6T289 -6T233 -10Q178 -10 143 8T87 59T58 133T50 222V568Q50 577 56 583T71 590H251Q260 590 266 584T273 568V222Q273 196 288 185T324 173Q352 173 379 188V568Q379 577 384 583T399 590H579Q588 590 595 584T602 568V20H602ZM551 642Q551 635 542 635H398Q387 635 383 637T373 645L325 694L277 645Q272 640 268 638T252 635H108Q99 635 99 642Q99 647 103 652L186 764Q193 773 198 776T215 779H435Q447 779 452 776T464 764L547 652Q551 647 551 642Z"  />
<glyph unicode="&#xFC;" horiz-adv-x="652" d="M602 20Q602 12 596 6T582 0H417Q409 0 403 6T397 20V48Q381 35 366 24T331 6T289 -6T233 -10Q178 -10 143 8T87 59T58 133T50 222V568Q50 577 56 583T71 590H251Q260 590 266 584T273 568V222Q273 196 288 185T324 173Q352 173 379 188V568Q379 577 384 583T399 590H579Q588 590 595 584T602 568V20H602ZM536 656Q536 647 529 641T513 635H374Q365 635 358 641T351 656V758Q351 767 358 773T374 779H513Q522 779 529 773T536 758V656ZM306 656Q306 647 299 641T283 635H144Q135 635 128 641T121 656V758Q121 767 128 773T144 779H283Q292 779 299 773T306 758V656Z"  />
<glyph unicode="&#xFD;" horiz-adv-x="656" d="M625 590Q634 590 638 585T640 569L469 -31Q458 -70 441 -102T396 -158T326 -193T220 -206Q203 -206 182 -205T140 -200T100 -193T70 -185Q62 -182 55 -178T47 -165V-51Q47 -43 51 -35T70 -29Q86 -30 105 -31T144 -34T184 -35T220 -36Q240 -36 248 -31T260 -13L269 21H263Q241 21 225 23T196 37T172 72T149 136L16 569Q13 580 18 585T33 590H234Q243 590 247 584T254 569L322 257Q325 243 331 243H338L402 569Q404 577 409 583T424 590H612H625ZM549 772Q549 769 544 764L414 645Q409 640 405 638T389 635H239Q230 635 230 642Q230 648 234 652L323 764Q330 772 335 775T352 779H537Q549 779 549 772Z"  />
<glyph unicode="&#xFE;" horiz-adv-x="636" d="M601 256Q601 196 584 147T533 63T447 9T326 -10Q317 -10 300 -8T272 -4V-168Q272 -177 267 -183T252 -189H73Q64 -189 57 -183T50 -168V759Q50 767 56 773T70 779H252Q260 779 266 773T272 759V599Q285 600 298 600T326 600Q388 600 438 583T525 533T581 450T601 334V256ZM379 334Q379 370 368 393T326 416Q306 416 296 416T272 413V177Q284 176 296 175T326 174Q357 174 368 197T379 256V334Z"  />
<glyph unicode="&#xFF;" horiz-adv-x="656" d="M625 590Q634 590 638 585T640 569L469 -31Q458 -70 441 -102T396 -158T326 -193T220 -206Q203 -206 182 -205T140 -200T100 -193T70 -185Q62 -182 55 -178T47 -165V-51Q47 -43 51 -35T70 -29Q86 -30 105 -31T144 -34T184 -35T220 -36Q240 -36 248 -31T260 -13L269 21H263Q241 21 225 23T196 37T172 72T149 136L16 569Q13 580 18 585T33 590H234Q243 590 247 584T254 569L322 257Q325 243 331 243H338L402 569Q404 577 409 583T424 590H612H625ZM534 656Q534 647 527 641T511 635H372Q363 635 356 641T349 656V758Q349 767 356 773T372 779H511Q520 779 527 773T534 758V656ZM304 656Q304 647 297 641T281 635H142Q133 635 126 641T119 656V758Q119 767 126 773T142 779H281Q290 779 297 773T304 758V656Z"  />
<glyph unicode="&#x131;" horiz-adv-x="329" d="M277 22Q277 13 271 7T255 0H76Q67 0 60 6T53 22V569Q53 578 60 584T76 590H255Q264 590 270 584T277 569V22H277Z"  />
<glyph unicode="&#x152;" horiz-adv-x="980" d="M930 21Q930 13 924 8T910 1Q879 -3 827 -6T709 -10Q662 -10 615 -3T530 29Q492 9 448 0T358 -10Q296 -10 239 7T137 63T67 167T40 328V415Q40 511 66 575T137 679T238 736T358 753Q404 753 448 744T530 714Q568 738 615 745T709 753Q775 753 827 750T910 742Q918 741 924 736T930 722V571Q930 563 924 557T910 551H709Q690 551 683 545T676 519V465H910Q918 465 924 459T930 445V304Q930 296 924 290T910 284H676V224Q676 205 683 199T709 192H910Q918 192 924 186T930 172V21ZM437 415Q437 487 419 516T358 545Q316 545 298 516T279 415V328Q279 256 297 227T358 198Q400 198 418 227T437 328V415Z"  />
<glyph unicode="&#x153;" horiz-adv-x="944" d="M909 258Q909 249 903 243T887 237H585Q585 218 589 206T602 187T628 176T671 173Q687 173 713 173T768 175T821 177T859 180H863Q881 180 881 162V57Q881 44 877 39T862 28Q814 8 754 -1T633 -10Q588 -10 548 3T475 40Q441 16 401 3T310 -10Q182 -10 109 58T35 272V318Q35 463 108 531T310 600Q360 600 401 587T477 549Q511 574 552 587T643 600Q712 600 762 580T845 523T893 435T909 319V258ZM698 349Q698 385 687 408T641 432Q610 432 598 409T585 349H698ZM363 318Q363 376 349 396T310 416Q284 416 271 396T257 318V272Q257 243 260 224T270 194T287 179T310 174Q323 174 332 178T349 194T359 224T363 272V318Z"  />
<glyph unicode="&#x160;" horiz-adv-x="624" d="M589 229Q589 185 573 142T521 66T431 11T296 -10Q231 -10 177 -2T81 20Q73 22 67 27T60 40V189Q60 197 64 204T81 209Q97 207 123 205T179 199T240 194T296 192Q318 192 325 200T333 223Q333 231 328 237T305 254L155 341Q119 362 96 386T60 436T41 491T35 550Q35 591 47 628T90 692T173 736T303 753Q335 753 371 751T440 744T501 735T546 725Q554 723 560 718T566 705V556Q566 547 563 541T546 536Q526 538 496 540T433 545T365 549T303 551Q290 551 286 546T282 535Q282 528 288 522T319 503L461 428Q529 392 559 343T589 229ZM529 931Q529 925 525 921L436 809Q429 801 424 798T407 794H187Q175 794 170 797T158 809L69 921Q65 925 65 931Q65 938 74 938H224Q235 938 239 936T249 928L297 883L345 928Q350 933 354 935T370 938H520Q529 938 529 931Z"  />
<glyph unicode="&#x161;" horiz-adv-x="540" d="M500 180Q500 140 486 105T441 45T363 5T249 -10Q184 -10 138 -2T62 16Q54 19 49 24T43 38V163Q43 176 48 182T69 186Q91 183 116 180T165 173T209 169T243 167Q263 167 270 171T278 187Q278 192 274 197T255 210L141 268Q88 294 64 334T40 435Q40 513 97 556T275 600Q331 600 382 591T466 573Q474 571 480 566T487 552V422Q487 412 483 406T466 401Q455 403 431 406T380 412T328 417T288 419Q267 419 267 408Q267 399 280 393L390 339Q451 309 475 267T500 180ZM502 772Q502 766 498 762L409 650Q402 642 397 639T380 635H160Q148 635 143 638T131 650L42 762Q38 766 38 772Q38 779 47 779H197Q208 779 212 777T222 769L270 724L318 769Q323 774 327 776T343 779H493Q502 779 502 772Z"  />
<glyph unicode="&#x178;" horiz-adv-x="709" d="M681 743Q689 743 693 737T694 723L547 379Q530 340 512 318T472 287V20Q472 12 466 6T451 0H256Q248 0 242 6T236 20V287Q214 296 196 318T161 379L15 723Q12 730 15 736T27 743H240Q252 743 256 737T264 723L348 475Q349 469 354 469Q358 469 360 475L445 723Q448 731 452 737T471 743H681H681ZM562 815Q562 806 555 800T539 794H400Q391 794 384 800T377 815V917Q377 926 384 932T400 938H539Q548 938 555 932T562 917V815ZM332 815Q332 806 325 800T309 794H170Q161 794 154 800T147 815V917Q147 926 154 932T170 938H309Q318 938 325 932T332 917V815Z"  />
<glyph unicode="&#x17D;" horiz-adv-x="629" d="M579 20Q579 12 573 6T558 0H70Q62 0 56 6T50 20V150Q50 163 54 175T70 205L270 520Q275 528 275 533Q275 541 263 541H73Q65 541 59 547T53 561V723Q53 731 59 737T73 743H555Q563 743 569 737T575 723V583Q575 567 568 552T553 524L357 222Q353 215 353 210Q353 202 366 202H558Q566 202 572 196T579 182V20H579ZM558 931Q558 925 554 921L465 809Q458 801 453 798T436 794H216Q204 794 199 797T187 809L98 921Q94 925 94 931Q94 938 103 938H253Q264 938 268 936T278 928L326 883L374 928Q379 933 383 935T399 938H549Q558 938 558 931Z"  />
<glyph unicode="&#x17E;" horiz-adv-x="567" d="M517 20Q517 12 511 6T497 0H70Q62 0 56 6T50 20V125Q50 141 52 151T66 175L232 397Q237 404 237 408Q237 415 226 415H71Q55 415 55 431V570Q55 578 61 584T75 590H496Q504 590 510 584T516 570V463Q516 455 516 449T513 437T505 424T492 405L336 194Q331 187 331 183Q331 175 342 175H500Q517 175 517 159V20H517ZM519 772Q519 766 515 762L426 650Q419 642 414 639T397 635H177Q165 635 160 638T148 650L59 762Q55 766 55 772Q55 779 64 779H214Q225 779 229 777T239 769L287 724L335 769Q340 774 344 776T360 779H510Q519 779 519 772Z"  />
<glyph unicode="&#x192;" horiz-adv-x="670" d="M659 768L644 659Q642 650 636 644T620 638H548Q529 638 518 637T501 631T493 621T489 604L471 475H597Q605 475 610 470T615 457V454L598 333Q596 324 590 318T574 311H448L405 10Q397 -49 373 -87T315 -147T239 -177T152 -186Q118 -186 82 -183T29 -175Q18 -173 15 -169T11 -159V-154L26 -45Q28 -36 34 -30T50 -24H122Q141 -24 152 -23T169 -17T177 -7T181 10L224 311H99Q91 311 86 316T81 330V333L98 454Q100 463 106 469T122 475H247L265 604Q273 663 296 701T354 761T430 791T517 800Q534 800 552 799T588 797T619 793T641 789Q652 787 655 783T659 773V768Z"  />
<glyph unicode="&#x2C6;" horiz-adv-x="500" d="M476 642Q476 635 467 635H323Q312 635 308 637T298 645L250 694L202 645Q197 640 193 638T177 635H33Q24 635 24 642Q24 647 28 652L111 764Q118 773 123 776T140 779H360Q372 779 377 776T389 764L472 652Q476 647 476 642Z"  />
<glyph unicode="&#x2DC;" horiz-adv-x="500" d="M467 759Q467 721 457 696T429 654T383 632T323 625Q310 625 288 631T249 645L210 665Q196 672 188 674T173 677Q168 677 164 675T159 664V648Q159 631 141 631H44Q26 631 26 648V664Q26 738 65 768T171 798Q184 798 205 793T244 779L283 759Q309 746 321 746Q334 746 334 760V776Q334 793 352 793H449Q467 793 467 776V759H467Z"  />
<glyph unicode="&#x2013;" horiz-adv-x="339" d="M354 244Q354 236 348 230T334 224H5Q-3 224 -9 230T-15 244V350Q-15 358 -9 364T5 370H334Q342 370 348 364T354 350V244H354Z"  />
<glyph unicode="&#x2014;" horiz-adv-x="662" d="M677 244Q677 236 671 230T657 224H5Q-3 224 -9 230T-15 244V350Q-15 358 -9 364T5 370H657Q665 370 671 364T677 350V244H677Z"  />
<glyph unicode="&#x2018;" horiz-adv-x="290" d="M276 769Q276 763 275 760L214 518Q209 499 194 499H25Q13 499 13 510Q13 512 15 518L103 760Q107 770 110 774T122 779H267Q276 779 276 769Z"  />
<glyph unicode="&#x2019;" horiz-adv-x="290" d="M277 768Q277 766 275 760L187 518Q183 508 180 504T168 499H23Q14 499 14 509Q14 515 15 518L76 760Q81 779 96 779H265Q277 779 277 768Z"  />
<glyph unicode="&#x201A;" horiz-adv-x="290" d="M285 178Q285 174 284 172L172 -80Q169 -88 165 -94T152 -100H25Q17 -100 11 -96T5 -83V-80L75 172Q77 180 82 186T96 192H269Q276 192 280 188T285 178Z"  />
<glyph unicode="&#x201C;" horiz-adv-x="547" d="M533 769Q533 763 532 760L471 518Q466 499 451 499H282Q270 499 270 510Q270 512 272 518L360 760Q364 770 367 774T379 779H524Q533 779 533 769ZM276 769Q276 763 275 760L214 518Q209 499 194 499H25Q13 499 13 510Q13 512 15 518L103 760Q107 770 110 774T122 779H267Q276 779 276 769Z"  />
<glyph unicode="&#x201D;" horiz-adv-x="547" d="M534 768Q534 766 532 760L444 518Q440 508 437 504T425 499H280Q271 499 271 509Q271 515 272 518L333 760Q338 779 353 779H522Q534 779 534 768ZM277 768Q277 766 275 760L187 518Q183 508 180 504T168 499H23Q14 499 14 509Q14 515 15 518L76 760Q81 779 96 779H265Q277 779 277 768Z"  />
<glyph unicode="&#x201E;" horiz-adv-x="547" d="M554 178Q554 174 553 172L441 -80Q438 -88 434 -94T421 -100H294Q286 -100 280 -96T274 -83V-80L344 172Q346 180 351 186T365 192H538Q545 192 549 188T554 178ZM274 178Q274 174 273 172L161 -80Q158 -88 154 -94T141 -100H14Q6 -100 0 -96T-6 -83V-80L64 172Q66 180 71 186T85 192H258Q265 192 269 188T274 178Z"  />
<glyph unicode="&#x2020;" horiz-adv-x="470" d="M445 442Q445 426 426 426H347V14Q347 6 343 0T331 -6H139Q131 -6 127 0T123 14V426H44Q25 426 25 442V592Q25 607 44 607H123V760Q123 768 127 773T140 779H331Q339 779 343 774T347 760V607H426Q445 607 445 592V442H445Z"  />
<glyph unicode="&#x2021;" horiz-adv-x="470" d="M445 193Q445 177 426 177H347V14Q347 6 343 0T331 -6H139Q131 -6 127 0T123 14V177H44Q25 177 25 193V343Q25 358 44 358H123V426H44Q25 426 25 442V592Q25 607 44 607H123V760Q123 768 127 773T140 779H331Q339 779 343 774T347 760V607H426Q445 607 445 592V442Q445 426 426 426H347V358H426Q445 358 445 343V193H445Z"  />
<glyph unicode="&#x2022;" horiz-adv-x="418" d="M383 367Q383 331 370 300T332 244T277 207T209 193Q173 193 142 206T86 244T49 299T35 367Q35 403 48 434T86 490T141 527T209 541Q245 541 276 528T332 490T369 435T383 367Z"  />
<glyph unicode="&#x2026;" horiz-adv-x="888" d="M848 20Q848 12 842 6T827 0H653Q645 0 639 6T632 20V172Q632 180 638 186T653 192H827Q835 192 841 186T848 172V20ZM552 20Q552 12 546 6T531 0H357Q349 0 343 6T336 20V172Q336 180 342 186T357 192H531Q539 192 545 186T552 172V20ZM256 20Q256 12 250 6T235 0H61Q53 0 47 6T40 20V172Q40 180 46 186T61 192H235Q243 192 249 186T256 172V20Z"  />
<glyph unicode="&#x2030;" horiz-adv-x="1256" d="M1221 174Q1221 82 1181 38T1063 -6Q986 -6 946 38T905 174V234Q905 326 945 370T1063 414Q1140 414 1180 370T1221 234V174ZM861 174Q861 82 821 38T703 -6Q626 -6 586 38T545 174V234Q545 326 585 370T703 414Q780 414 820 370T861 234V174ZM747 732Q747 726 744 722L330 22Q323 11 319 6T305 0H163Q150 0 150 13Q150 19 152 22L566 722Q573 733 578 738T593 743H735Q747 743 747 732ZM351 508Q351 416 311 372T193 328Q116 328 76 372T35 508V568Q35 660 75 704T193 748Q270 748 310 704T351 568V508ZM1090 234Q1090 257 1088 270T1083 291T1074 301T1063 303Q1057 303 1052 301T1043 292T1037 271T1035 234V174Q1035 151 1037 138T1042 117T1051 107T1063 104Q1069 104 1074 106T1082 116T1088 137T1090 174V234ZM730 234Q730 257 728 270T723 291T714 301T703 303Q697 303 692 301T683 292T677 271T675 234V174Q675 151 677 138T682 117T691 107T703 104Q709 104 714 106T722 116T728 137T730 174V234ZM220 568Q220 591 218 604T213 625T204 635T193 637Q187 637 182 635T173 626T167 605T165 568V508Q165 485 167 472T172 451T181 441T193 438Q199 438 204 440T212 450T218 471T220 508V568Z"  />
<glyph unicode="&#x2039;" horiz-adv-x="436" d="M411 67Q411 57 399 57H224Q216 57 209 58T196 67L40 265Q34 273 30 279T25 294Q25 302 29 308T40 323L196 521Q201 528 208 529T224 531H399Q411 531 411 521Q411 515 405 508L239 294L405 80Q411 72 411 67Z"  />
<glyph unicode="&#x203A;" horiz-adv-x="436" d="M411 294Q411 286 407 280T396 265L240 67Q235 60 228 59T212 57H37Q25 57 25 67Q25 72 31 80L197 294L31 508Q25 515 25 521Q25 531 37 531H212Q220 531 227 530T240 521L396 323Q402 315 406 309T411 294Z"  />
<glyph unicode="&#x20AC;" horiz-adv-x="670" d="M593 31Q593 21 589 18T572 9Q548 1 516 -4T441 -10Q296 -10 218 59T124 260H88Q80 260 74 266T68 280V327Q68 335 74 341T88 347H120V398H88Q80 398 74 404T68 418V465Q68 473 74 479T88 485H124Q141 617 219 685T441 753Q483 753 517 748T572 734Q585 729 589 726T593 712V567Q593 549 577 549H573Q553 551 539 553T513 556T486 557T452 558Q419 558 399 543T367 485H519Q530 485 535 481T540 470Q540 468 540 468T539 465L527 418Q524 405 520 402T507 398H359V347H490Q511 347 511 331Q511 330 511 329T510 327L499 280Q497 272 492 266T479 260H366Q371 217 395 201T451 185Q483 185 512 187T573 194H577Q593 194 593 176V31H593Z"  />
<glyph unicode="&#x2122;" horiz-adv-x="863" d="M823 352Q823 342 812 342H703Q692 342 692 352V586V589Q692 603 692 611T687 624T676 630T653 632V352Q653 342 642 342H533Q522 342 522 352V632Q511 632 502 632T482 630V352Q482 342 471 342H363Q358 342 355 344T351 352V694Q351 720 359 729T389 740Q412 742 438 743T491 746T542 747T587 748Q648 748 693 743T766 721T809 672T823 586V352ZM323 648Q323 637 312 637H242V352Q242 342 232 342H118Q107 342 107 352V637H36Q25 637 25 648V732Q25 743 36 743H312Q323 743 323 732V648Z"  />

</font>
</defs>
</svg>
