<?xml  version="1.0" encoding="UTF-8"?>
<!DOCTYPE svg PUBLIC "-//W3C//DTD SVG 1.0//EN" "http://www.w3.org/TR/2001/REC-SVG-20010904/DTD/svg10.dtd" >
<svg xmlns="http://www.w3.org/2000/svg" >
<metadata>
<version>1.0</version>
<id><![CDATA[Neo Sans W15 Black Italic]]></id>
<vendor>Monotype Imaging Inc.</vendor>
<credits>
<name>Fonts.com WebFonts</name>
<URL>http://webfonts.fonts.com</URL>
<role>Home of the Web fonts</role>
</credits>
<license>
<URL>http://webfonts.fonts.com/Legal</URL>
</license>
<copyright><![CDATA[Copyright 2004 Monotype Imaging Inc. All Rights Reserved. Neo Sans is designed by Sebastian Lester.]]></copyright>
<trademark><![CDATA[Neo Sans is a trademark of Monotype Imaging Inc. and may be registered in certain jurisdictions.]]></trademark>
<licensee>
<name></name>
</licensee>
</metadata>
<defs >
<font horiz-adv-x="588" id="690f2de5-205a-4212-9392-1d88be366985">
<font-face font-family="" panose-1="2 11 10 4 3 5 4 9 2 4" ascent="853" descent="-216" units-per-em="1000" alphabetic="0">
</font-face>
<missing-glyph horiz-adv-x="0" />

<glyph unicode="&#xA;" />
<glyph unicode="&#xD;" horiz-adv-x="0" />
<glyph unicode=" " horiz-adv-x="240" />
<glyph unicode="!" horiz-adv-x="291" d="M378 753L266 262Q264 254 257 248T242 241H136Q128 241 123 246T118 259V262L180 753Q181 761 189 767T205 773H361Q378 773 378 757V753ZM267 159L243 20Q241 12 234 6T219 0H73Q57 0 57 16V20L81 159Q83 167 90 173T105 179H251Q267 179 267 163V159Z"  />
<glyph unicode="&quot;" horiz-adv-x="504" d="M619 765Q619 760 616 754L494 524Q489 514 485 510T472 505H349Q341 505 341 512Q341 516 344 524L442 754Q450 773 465 773H609Q619 773 619 765ZM381 765Q381 760 378 754L256 524Q251 514 247 510T234 505H111Q103 505 103 512Q103 516 106 524L204 754Q212 773 227 773H371Q381 773 381 765Z"  />
<glyph unicode="#" horiz-adv-x="715" d="M763 549Q763 548 763 547T762 545L735 456Q730 443 715 443H637L598 298H677Q683 298 688 294T693 285Q693 284 693 283T692 281L665 195Q663 189 658 185T645 180H567L524 19Q522 11 517 6T503 0H378Q364 0 364 14Q364 15 364 16T365 19L407 180H311L268 19Q266 11 261 6T247 0H120Q106 0 106 14Q106 16 106 16T107 19L150 180H73Q67 180 63 183T58 191Q58 192 58 193T59 195L86 283Q88 289 93 293T106 298H182L220 443H143Q129 443 129 454Q129 455 129 455T130 458L156 547Q158 554 164 557T177 561H251L294 724Q296 732 302 737T316 743H443Q456 743 456 729Q456 726 455 724L411 561H508L552 724Q554 732 560 737T574 743H699Q712 743 712 730Q712 726 711 724L667 561H748Q754 561 758 558T763 549ZM381 443L342 298H439L477 443H381Z"  />
<glyph unicode="$" horiz-adv-x="666" d="M694 708L672 584Q670 576 665 571T651 565H649Q606 569 554 573T424 578Q403 578 386 571T368 538Q368 527 377 518T412 493L533 421Q579 394 606 352T633 255Q633 203 616 160T567 83T492 28T398 -1L381 -98Q379 -106 372 -112T357 -118H228Q212 -118 212 -102V-98L228 -5Q193 -2 164 3T109 17Q93 22 93 34V37L114 160Q116 168 122 174T137 180H139Q170 177 221 171T338 165Q368 165 389 177T411 224Q411 235 403 245T372 269L243 354Q198 383 178 428T157 519Q157 565 172 603T214 670T278 718T360 745L377 833Q379 841 386 847T401 853H530Q546 853 546 837V833L530 749Q576 745 617 740T678 728Q684 726 689 722T694 711V708Z"  />
<glyph unicode="%" horiz-adv-x="867" d="M879 281Q879 270 878 259T875 235L863 167Q846 71 801 31T680 -9Q618 -9 586 26T553 123Q553 134 554 144T557 167L569 235Q578 286 594 319T633 373T687 401T754 410Q817 410 848 376T879 281ZM852 736Q852 730 846 723L308 22Q300 11 294 6T280 0H158Q147 0 147 10Q147 15 152 22L690 723Q699 734 705 738T720 743H843Q852 743 852 736ZM448 624Q448 613 447 602T444 578L432 510Q415 414 370 374T249 334Q187 334 155 369T122 466Q122 477 123 487T126 510L138 578Q147 629 163 662T202 716T256 744T323 753Q386 753 417 719T448 624ZM764 279Q764 299 757 305T736 312Q726 312 718 309T704 298T693 275T684 235L672 167Q670 153 669 143T667 125Q667 103 674 96T696 89Q716 89 727 103T747 167L759 235Q761 249 762 260T764 279ZM333 622Q333 642 326 648T305 655Q295 655 287 652T273 641T262 618T253 578L241 510Q239 496 238 486T236 468Q236 446 243 439T265 432Q285 432 296 446T316 510L328 578Q330 592 331 603T333 622Z"  />
<glyph unicode="&amp;" horiz-adv-x="746" d="M746 345Q737 288 714 236T654 139L741 26Q744 23 744 16Q744 0 728 0H557Q551 0 549 2T541 9L521 33Q480 13 436 2T338 -9Q286 -9 239 -1T156 29T99 89T78 187Q78 226 92 257T129 313T182 358T244 396L237 406Q205 451 194 487T182 551Q182 610 205 649T266 711T352 743T450 753Q505 753 547 740T616 706T658 657T672 600Q672 560 660 529T628 473T579 427T520 387L480 362L564 252Q575 272 583 295T595 345L597 358Q599 366 605 372T620 378H733Q742 378 745 373T748 359V358L746 345ZM493 582Q493 600 480 611T438 622Q358 622 358 546Q358 532 363 518T386 483L392 476L419 492Q432 500 445 508T469 527T486 550T493 582ZM331 280Q299 262 286 238T272 188Q272 162 291 144T356 125Q403 125 439 140L331 280Z"  />
<glyph unicode="&apos;" horiz-adv-x="233" d="M381 765Q381 760 378 754L256 524Q251 514 247 510T234 505H111Q103 505 103 512Q103 516 106 524L204 754Q212 773 227 773H371Q381 773 381 765Z"  />
<glyph unicode="(" horiz-adv-x="389" d="M488 735Q488 728 480 717Q376 571 325 417T273 84Q273 6 284 -56T314 -169Q317 -175 317 -182Q317 -195 303 -195H183Q172 -195 164 -192T151 -181Q118 -112 100 -43T81 113Q81 197 94 280T135 441T204 593T302 729Q310 737 318 740T338 743H478Q488 743 488 735Z"  />
<glyph unicode=")" horiz-adv-x="389" d="M405 428Q405 346 392 264T352 103T285 -47T189 -181Q181 -189 178 -192T164 -195H7Q-4 -195 -4 -186Q-4 -180 3 -169Q56 -94 95 -21T161 130T201 290T214 463Q214 541 203 603T173 717Q171 725 171 729Q171 743 185 743H306Q317 743 322 740T333 729Q368 664 386 590T405 428Z"  />
<glyph unicode="*" horiz-adv-x="485" d="M556 561Q556 549 540 544L429 512L499 418Q505 410 505 403Q505 395 498 391L435 345Q430 342 425 342Q416 342 409 352L343 449L277 352Q270 342 261 342Q255 342 251 345L187 391Q180 395 180 403Q180 410 186 418L256 512L146 544Q139 546 134 550T129 561Q129 564 130 566L155 642Q158 652 168 652Q171 652 173 652T179 650L290 613L287 728V729Q287 737 291 743T303 749H383Q391 749 394 743T398 728L397 613L506 650Q509 651 511 651T517 652Q527 652 530 642L555 566Q556 564 556 561Z"  />
<glyph unicode="+" horiz-adv-x="666" d="M646 336Q646 328 640 324T626 320H470V165Q470 157 466 151T454 145H344Q336 145 332 151T328 165V320H173Q165 320 159 324T153 336V446Q153 454 159 458T173 462H328V618Q328 626 332 632T344 638H454Q462 638 466 632T470 618V462H626Q634 462 640 458T646 446V336H646Z"  />
<glyph unicode="&#x2c;" horiz-adv-x="291" d="M295 168Q295 163 292 159L146 -79Q141 -87 135 -93T120 -99H16Q0 -99 0 -85Q0 -81 1 -79L110 159Q114 167 120 173T135 179H282Q295 179 295 168Z"  />
<glyph unicode="-" horiz-adv-x="282" d="M320 352L302 250Q300 242 294 237T279 231H86Q69 231 69 247V250L87 352Q89 360 95 365T110 371H303Q320 371 320 355V352Z"  />
<glyph unicode="." horiz-adv-x="291" d="M267 159L243 20Q241 12 234 6T218 0H73Q56 0 56 17V20L80 159Q82 167 89 173T105 179H250Q267 179 267 162V159Z"  />
<glyph unicode="/" horiz-adv-x="425" d="M541 730Q541 729 539 723L211 22Q207 14 201 7T187 0H29Q14 0 14 14Q14 16 16 22L345 723Q349 731 354 737T368 743H526Q541 743 541 730Z"  />
<glyph unicode="0" horiz-adv-x="666" d="M691 516Q691 471 682 420L665 323Q649 230 621 167T551 64T454 8T328 -9Q219 -9 160 51T100 228Q100 272 109 323L126 420Q142 515 172 579T244 681T341 736T463 753Q575 753 633 692T691 516ZM488 509Q488 554 473 567T432 581Q416 581 402 576T374 553T350 505T330 420L313 323Q308 294 306 272T303 233Q303 189 318 176T359 162Q377 162 392 167T419 189T441 237T461 323L478 420Q483 449 485 470T488 509Z"  />
<glyph unicode="1" horiz-adv-x="666" d="M266 171L331 541L206 499Q198 496 194 496Q184 496 186 508L211 650Q213 657 215 660T226 667L411 739Q420 743 435 743H550Q568 743 565 724L468 171H587Q595 171 600 165T603 151L580 20Q578 12 572 6T557 0H116Q108 0 103 6T99 20L122 151Q124 159 131 165T146 171H266Z"  />
<glyph unicode="2" horiz-adv-x="666" d="M697 588Q697 515 658 460T557 368L466 314Q410 281 377 258T325 218T301 190T293 171H595Q612 171 612 154V151L589 20Q587 12 580 6T565 0H99Q83 0 83 16V20L101 126Q115 209 155 269T264 376L361 440Q403 467 428 484T468 514T488 537T493 560Q493 575 475 583T406 592Q358 592 308 588T209 580H207Q193 580 193 596V600L210 697Q212 705 218 709T232 716Q280 732 338 742T459 753Q522 753 567 740T641 705T683 652T697 588Z"  />
<glyph unicode="3" horiz-adv-x="666" d="M695 589Q695 520 665 466T570 379Q597 363 618 333T639 259Q639 186 614 135T547 52T447 6T324 -9Q293 -9 262 -6T201 1T147 12T106 25Q100 27 95 31T90 42V45L107 143Q110 162 129 162H131Q177 159 234 156T337 152Q393 152 415 177T438 256Q438 278 424 290T370 303H204Q188 303 188 319V323L207 430Q209 438 215 443T230 449H396Q447 449 469 478T492 555Q492 576 476 583T422 591Q370 591 314 588T209 580H207Q192 580 192 595V599L209 697Q211 705 218 709T233 717Q271 731 330 742T451 753Q502 753 546 744T624 714T676 663T695 589Z"  />
<glyph unicode="4" horiz-adv-x="666" d="M678 289L658 175Q656 167 649 161T634 155H576L553 20Q551 12 544 6T529 0H365Q350 0 350 16V20L373 155H94Q78 155 78 171V175L98 288Q101 305 114 318L511 734Q517 740 523 741T537 743H660Q676 743 676 727V723L603 309H661Q678 309 678 292V289ZM441 498Q441 502 440 502H439L267 318Q263 314 263 310Q263 309 264 309H408L441 496V498Z"  />
<glyph unicode="5" horiz-adv-x="666" d="M711 724L689 600Q687 592 680 587T665 581H393L364 471H405Q469 471 515 458T591 419T634 359T648 279Q648 271 648 263T646 246L645 236Q632 107 549 49T317 -9Q265 -9 214 -1T121 24Q114 26 109 30T104 42V45L121 144Q123 152 129 157T144 163H146Q163 161 187 159T236 156T280 153T311 152Q348 152 371 156T409 170T429 196T438 236L439 246Q440 251 440 255T440 264Q440 295 421 306T346 317H171Q156 317 156 331Q156 332 156 333T157 335L257 724Q259 732 265 737T280 743H694Q711 743 711 727V724Z"  />
<glyph unicode="6" horiz-adv-x="666" d="M705 708Q705 707 705 706T704 703L685 598Q682 577 664 577H659Q624 582 576 586T482 591Q451 591 430 587T393 569T369 534T353 476L352 470Q359 471 371 473T397 476T425 479T450 480Q549 480 607 435T665 303Q665 229 643 171T580 73T479 12T346 -9Q292 -9 249 6T176 50T130 119T113 210Q113 224 114 239T118 270L151 460Q166 544 195 600T268 691T365 739T482 753Q552 753 601 745T686 727Q705 722 705 708ZM466 290Q466 322 449 332T399 343Q381 343 361 341T328 337L317 270Q314 250 313 237T311 210Q311 169 326 156T369 142Q398 142 417 156T447 191T462 239T466 290Z"  />
<glyph unicode="7" horiz-adv-x="666" d="M719 717L703 625Q701 613 695 602T681 580L337 20Q332 11 326 6T310 0H132Q115 0 115 13Q115 17 118 22L471 576V577Q471 579 468 580T463 582H222Q205 582 205 598V601L226 724Q228 732 235 737T250 743H697Q719 743 719 721V717Z"  />
<glyph unicode="8" horiz-adv-x="666" d="M707 581Q707 453 600 385Q623 365 638 328T654 253Q654 184 629 135T560 53T459 6T339 -9H324Q266 -9 222 6T147 46T102 105T86 177Q86 240 117 295T200 385Q177 408 162 438T147 504Q147 575 172 623T240 700T339 741T459 753H471Q583 753 645 706T707 581ZM511 550Q511 576 496 590T443 605H433Q384 605 361 577T338 503Q338 479 352 466T401 452H423Q468 452 489 479T511 550ZM460 258Q460 280 447 297T398 314H376Q350 314 333 304T305 278T290 241T285 197Q285 171 300 155T351 139H366Q392 139 410 149T439 175T455 213T460 258Z"  />
<glyph unicode="9" horiz-adv-x="666" d="M694 534Q694 520 693 505T689 474L656 284Q641 200 612 144T539 53T442 5T325 -9Q255 -9 206 -1T121 17Q102 22 102 36Q102 37 102 38T103 41L122 146Q125 167 143 167H148Q183 162 231 158T325 153Q356 153 377 157T414 175T438 210T454 268L455 274Q447 272 435 271T410 268T382 265T357 264Q258 264 200 309T142 441Q142 515 164 573T227 671T327 732T461 753Q515 753 558 738T631 694T677 625T694 534ZM496 534Q496 575 481 588T438 602Q409 602 390 588T360 553T345 505T341 454Q341 422 358 412T408 401Q426 401 446 403T479 407L490 474Q493 494 494 507T496 534Z"  />
<glyph unicode=":" horiz-adv-x="290" d="M332 530L308 391Q306 383 299 377T283 371H138Q121 371 121 388V391L145 530Q147 538 154 544T170 550H315Q332 550 332 533V530ZM267 159L243 20Q241 12 234 6T218 0H73Q56 0 56 17V20L80 159Q82 167 89 173T105 179H250Q267 179 267 162V159Z"  />
<glyph unicode=";" horiz-adv-x="290" d="M332 530L308 391Q306 383 299 377T283 371H137Q121 371 121 387V391L145 530Q147 538 154 544T169 550H315Q332 550 332 533V530ZM265 166Q265 162 262 158L117 -80Q112 -88 107 -94T93 -100H-15Q-31 -100 -31 -87Q-31 -84 -29 -80L80 158Q84 166 90 172T104 178H251Q265 178 265 166Z"  />
<glyph unicode="&lt;" horiz-adv-x="666" d="M608 148Q608 136 596 136H428Q412 136 402 146L168 359Q150 375 150 391Q150 409 168 424L402 636Q408 641 414 644T428 647H596Q608 647 608 635Q608 629 602 623L345 391L602 160Q608 154 608 148Z"  />
<glyph unicode="=" horiz-adv-x="666" d="M640 471Q640 463 634 459T620 455H188Q180 455 174 459T168 471V581Q168 589 174 593T188 597H620Q628 597 634 593T640 581V471ZM640 201Q640 193 634 189T620 185H188Q180 185 174 189T168 201V311Q168 319 174 323T188 327H620Q628 327 634 323T640 311V201Z"  />
<glyph unicode="&gt;" horiz-adv-x="666" d="M644 391Q644 375 626 359L392 146Q382 136 366 136H198Q186 136 186 148Q186 154 192 160L450 391L192 623Q186 629 186 635Q186 647 198 647H366Q374 647 380 644T392 636L626 424Q644 409 644 391Z"  />
<glyph unicode="?" horiz-adv-x="492" d="M564 644Q564 595 545 552T487 464L354 311Q341 296 335 286T324 260Q320 246 309 246H170Q165 246 162 250T159 258V259L165 294Q168 312 172 326T181 353T195 379T214 407L319 545Q326 554 331 563T336 583Q336 594 327 598T295 602Q285 602 267 601T228 598T190 594T162 591H159Q146 591 146 606V611L166 728Q169 745 189 751Q224 762 267 769T357 776Q453 776 508 743T564 644ZM316 159L292 20Q290 12 283 6T267 0H121Q105 0 105 16V20L129 159Q131 167 138 173T153 179H299Q316 179 316 162V159Z"  />
<glyph unicode="@" horiz-adv-x="778" d="M789 395Q789 386 789 377T787 358Q778 270 742 210T652 113T527 59T378 42Q342 42 312 49T259 72T224 112T211 171Q211 176 211 180T212 190L215 208L236 323Q245 370 265 403T315 456T382 486T461 496Q493 496 528 492T595 480Q619 475 619 454Q619 449 618 446L559 153Q588 159 612 176T653 221T682 282T697 358Q698 366 698 373T699 388Q699 427 687 463T650 526T584 570T486 586Q223 586 175 344L142 179Q140 170 139 161T137 144Q136 136 136 129T135 114Q135 37 188 -3T364 -44Q402 -44 442 -42T518 -36H520Q527 -36 527 -44V-47L522 -92Q520 -103 511 -104Q478 -108 440 -111T357 -115Q289 -115 232 -102T132 -60T67 11T43 113Q43 121 43 128T45 144L50 179L85 350Q100 424 134 482T221 581T342 643T495 665Q571 665 626 643T718 584T771 498T789 395ZM474 383Q463 385 456 386T439 387Q406 387 391 374T367 319L344 209L342 193Q342 191 342 189T341 184Q341 164 354 157T399 150Q407 150 414 150T428 151L474 383Z"  />
<glyph unicode="A" horiz-adv-x="692" d="M676 20Q676 12 671 6T657 0H487Q479 0 475 5T470 19L467 158H289L236 19Q233 11 227 6T213 0H36Q22 0 22 13Q22 15 24 21L266 633Q281 670 302 693T351 730T411 747T479 752Q515 752 545 748T598 730T634 694T650 633L676 20ZM462 572Q462 579 461 582T453 586Q446 586 444 583T440 572L346 318H466L462 572Z"  />
<glyph unicode="B" horiz-adv-x="682" d="M734 581Q734 559 730 539L727 522Q722 494 711 471T685 430T655 400T625 380Q634 374 644 363T662 337T676 302T682 260Q682 254 682 248T680 235L678 222Q667 151 636 106T558 36T449 1T314 -9Q295 -9 269 -9T216 -7T164 -3T122 3Q94 8 82 18T69 52Q69 64 72 79L175 666Q178 686 183 699T198 720T220 733T251 741Q267 744 292 746T345 749T399 752T445 753Q508 753 561 744T653 715T712 662T734 581ZM532 536Q532 561 513 574T441 588Q438 588 427 588T402 588T377 587T362 587L336 445H433Q483 445 504 463T529 508L531 524Q532 528 532 536ZM487 255Q487 278 469 293T409 309H312L286 156H368Q426 156 451 176T483 228L485 237Q486 242 486 246T487 255Z"  />
<glyph unicode="C" horiz-adv-x="555" d="M643 712L620 584Q617 565 599 565Q568 565 535 569T457 574Q437 574 418 569T381 548T351 502T328 423L309 320Q307 309 305 298T303 278Q303 243 309 222T325 189T351 173T386 169Q429 169 462 172T527 178Q538 178 541 174T545 159L522 31Q520 21 515 17T497 9Q476 2 440 -3T355 -9Q299 -9 252 6T169 53T115 130T95 239Q95 274 103 320L122 423Q139 517 171 580T250 682T356 737T486 753Q556 753 599 742T643 717V712Z"  />
<glyph unicode="D" horiz-adv-x="697" d="M733 503Q733 465 726 427L707 317Q677 145 582 68T324 -9Q252 -9 194 -4T98 8Q85 10 79 16T72 35Q72 42 73 47L188 697Q192 717 201 725T227 736Q267 743 327 748T459 753Q522 753 572 737T659 690T714 611T733 503ZM527 489Q527 543 502 561T428 579Q423 579 415 579T397 579T381 578T371 578L298 165Q301 165 308 165T324 164T341 164T355 164Q385 164 409 171T451 195T481 242T502 317L521 427Q527 463 527 489Z"  />
<glyph unicode="E" horiz-adv-x="586" d="M659 721L638 599Q636 591 629 585T614 579H412Q385 579 373 569T355 529L342 456H588Q597 456 601 450T605 436L584 318Q582 310 576 304T561 298H315L300 215Q299 209 299 205T298 195Q298 178 307 172T339 165H541Q550 165 554 159T558 145L536 23Q533 6 513 3Q484 -1 437 -5T316 -9Q272 -9 232 -1T160 28T111 82T92 164Q92 176 93 188T97 215L152 529Q165 605 193 649T260 717T347 746T448 753Q521 753 568 749T643 741Q659 740 659 725V721Z"  />
<glyph unicode="F" horiz-adv-x="591" d="M665 720L643 598Q641 590 635 584T620 578H418Q391 578 379 568T361 528L348 456H594Q603 456 607 450T611 436L590 318Q588 310 582 304T567 298H321L272 20Q270 12 263 6T248 0H85Q75 0 72 6T69 20L158 528Q171 604 200 648T268 716T355 746T454 753Q527 753 573 749T648 740Q665 738 665 724V720Z"  />
<glyph unicode="G" horiz-adv-x="657" d="M725 712Q725 711 725 710T724 707L701 581Q698 565 685 565Q671 565 650 566T602 569T547 572T490 574Q452 574 425 568T379 544T347 498T326 424L307 318Q303 299 302 284T301 255Q301 226 307 209T324 181T348 168T376 165Q406 165 432 168L468 373Q470 381 476 387T490 393H648Q657 393 661 387T665 373L606 38Q604 27 599 22T581 15Q536 6 477 -1T345 -9Q303 -9 259 4T178 46T118 123T94 240Q94 258 95 278T101 319L120 424Q140 533 180 598T271 697T381 742T494 753Q572 753 625 744T708 726Q716 724 720 722T725 712Z"  />
<glyph unicode="H" horiz-adv-x="746" d="M685 20Q683 12 676 6T661 0H498Q488 0 485 6T482 20L529 292H320L273 20Q271 12 264 6T249 0H86Q69 0 69 20L193 724Q195 732 202 737T217 743H380Q397 743 397 724L352 468H561L606 724Q608 732 614 737T629 743H792Q809 743 809 727L685 20Z"  />
<glyph unicode="I" horiz-adv-x="334" d="M380 743Q397 743 397 728V724L273 20Q271 12 266 6T249 0H85Q77 0 73 5T68 16Q68 17 68 18T69 20L193 724Q195 732 201 737T216 743H380H380Z"  />
<glyph unicode="J" horiz-adv-x="334" d="M396 723L269 2Q259 -56 240 -93T193 -153T132 -183T58 -192Q47 -192 29 -192T-6 -189T-36 -183T-49 -171Q-49 -169 -49 -168T-48 -165L-29 -56Q-27 -48 -20 -42T-5 -36H32Q49 -36 55 -27T65 2L192 723Q194 731 201 737T217 743H380Q396 743 396 727V723Z"  />
<glyph unicode="K" horiz-adv-x="713" d="M818 734Q818 728 812 721L530 373L684 21Q686 17 686 14Q686 0 670 0H474Q465 0 462 5T456 17L329 344L273 20Q271 12 264 6T249 0H86Q69 0 69 20L193 724Q195 732 202 737T217 743H380Q397 743 397 724L342 412L584 727Q589 734 595 738T609 743H806Q818 743 818 734Z"  />
<glyph unicode="L" horiz-adv-x="522" d="M503 23Q500 6 480 3Q451 -2 407 -5T322 -9Q280 -9 240 -1T168 26T117 79T98 163Q98 175 99 188T103 215L192 723Q194 731 201 737T217 743H380Q390 743 393 737T396 723L307 215Q306 210 306 206T305 196Q305 179 314 172T346 165H508Q525 165 525 148L503 23Z"  />
<glyph unicode="M" horiz-adv-x="841" d="M901 713Q901 711 901 710T900 706L778 12Q776 4 771 2T759 0H595Q587 0 586 6T584 20L648 387Q648 389 648 390T649 393Q649 395 647 397L646 398Q644 398 642 395T631 382L528 249Q513 230 496 230H427Q408 230 401 249L343 386Q341 389 341 392T338 395H337Q335 397 334 397Q329 397 328 387L264 20Q262 12 257 6T246 0H81Q74 0 71 2T67 12L189 706Q191 721 204 732T233 743H337Q356 743 366 735T383 713L483 460Q488 448 492 448Q496 448 506 460L696 713Q707 727 720 735T752 743H870Q884 743 892 735T901 713Z"  />
<glyph unicode="N" horiz-adv-x="746" d="M808 723L688 37Q685 22 672 11T644 0H520Q494 0 483 27L335 362Q333 367 331 368T326 370Q321 370 320 361L260 20Q258 12 251 6T236 0H86Q69 0 69 20L189 706Q191 721 204 732T233 743H355Q369 743 376 735T390 714L542 369Q546 360 549 360Q551 360 553 361T556 369L618 723Q620 731 627 737T642 743H792Q808 743 808 727V723Z"  />
<glyph unicode="O" horiz-adv-x="707" d="M744 507Q744 487 742 467T736 423L717 320Q700 229 667 166T588 64T482 8T352 -9Q299 -9 253 6T171 51T116 129T95 239Q95 274 103 320L122 423Q140 518 174 581T257 683T363 737T487 753Q539 753 585 739T667 695T723 619T744 507ZM537 485Q537 532 517 553T455 574Q402 574 373 539T328 423L309 320Q302 286 302 258Q302 211 322 191T384 170Q437 170 466 204T511 320L530 423Q533 441 535 456T537 485Z"  />
<glyph unicode="P" horiz-adv-x="678" d="M744 555Q744 476 718 417T646 319T535 261T394 242Q377 242 354 243T310 245L271 20Q269 12 262 6T247 0H87Q69 0 69 17L185 674Q191 710 206 722T254 740Q273 743 299 745T353 749T411 752T468 753Q520 753 569 742T658 707T720 646T744 555ZM537 527Q537 560 511 571T441 583Q438 583 428 583T405 583T383 582T370 582L340 412Q342 412 352 412T375 411T397 411T410 411Q470 411 503 440T537 527Z"  />
<glyph unicode="Q" horiz-adv-x="707" d="M744 507Q744 487 742 467T736 423L717 320Q703 246 679 191T620 96T544 34T450 0L447 -17Q446 -20 446 -25Q446 -36 462 -36H545Q567 -36 567 -52L549 -154Q547 -165 531 -172T493 -184T444 -190T394 -192Q365 -192 339 -186T294 -166T263 -127T251 -67Q251 -56 252 -44T256 -18L260 4Q188 25 142 83T95 239Q95 274 103 320L122 423Q140 518 174 581T257 683T363 737T487 753Q539 753 585 739T667 695T723 619T744 507ZM537 485Q537 532 517 553T455 574Q402 574 373 539T328 423L309 320Q302 286 302 258Q302 211 322 191T384 170Q437 170 466 204T511 320L530 423Q533 441 535 456T537 485Z"  />
<glyph unicode="R" horiz-adv-x="708" d="M742 558Q742 515 732 475T702 402T651 341T578 298L675 26Q676 24 676 19Q676 0 656 0H480Q472 0 469 6T464 20L380 264Q363 264 348 264T315 266L272 20Q270 12 263 6T248 0H86Q69 0 69 20L184 674Q190 710 205 722T253 740Q284 745 340 749T463 753Q523 753 574 742T662 708T721 647T742 558ZM537 529Q537 557 517 569T448 582Q428 582 406 582T370 580L342 421Q350 420 359 420T377 420Q416 420 445 423T495 438T526 471T537 529Z"  />
<glyph unicode="S" horiz-adv-x="606" d="M649 584Q646 565 628 565Q614 565 587 567T528 571T462 576T401 578Q380 578 362 570T344 536Q344 525 353 517T388 493L510 421Q564 389 587 348T610 254Q610 184 583 134T511 53T406 6T283 -9Q221 -9 173 -2T86 17Q69 23 69 37L90 160Q92 168 98 174T113 180Q128 178 153 176T208 171T266 167T315 165Q345 165 366 177T388 224Q388 235 380 245T349 269L220 354Q176 383 155 427T134 519Q134 586 158 631T224 703T320 741T434 753Q464 753 496 751T560 745T616 737T656 728Q662 726 666 723T671 712L649 584Z"  />
<glyph unicode="T" horiz-adv-x="594" d="M675 596Q673 588 666 583T651 577H502L404 20Q402 12 395 6T380 0H217Q207 0 204 6T201 20L299 577H147Q130 577 130 596L153 724Q155 732 161 737T176 743H680Q688 743 693 739T698 727L675 596Z"  />
<glyph unicode="U" horiz-adv-x="731" d="M773 743Q795 743 795 725Q795 723 795 722T794 718L718 282Q703 194 674 138T600 49T497 4T364 -9Q321 -9 276 4T193 45T132 119T108 229Q108 257 114 292L190 723Q192 731 197 737T215 743H377Q394 743 394 730Q394 728 394 727T393 723L316 282Q314 268 313 257T311 234Q311 193 331 178T394 162Q447 162 475 188T515 282L592 723Q594 731 601 737T616 743H773H773Z"  />
<glyph unicode="V" horiz-adv-x="716" d="M813 732Q813 729 811 723L570 111Q555 74 534 51T485 14T425 -4T356 -9Q320 -9 290 -4T237 14T201 50T186 111L159 723V724Q159 732 165 737T179 743H348Q356 743 361 738T366 724L373 171Q373 164 374 161T382 157Q388 157 391 160T396 171L599 724Q602 732 608 737T622 743H800Q813 743 813 732Z"  />
<glyph unicode="W" horiz-adv-x="917" d="M1026 734Q1026 733 1026 733T1025 730L823 85Q814 57 802 41T774 15T742 3T709 0H636Q603 0 583 17T558 77L528 329Q527 335 527 336T522 338Q518 338 516 337T511 329L393 77Q373 33 347 17T279 0H221Q205 0 189 2T159 12T138 33T130 69V73L156 730Q156 738 162 740T174 743H340Q352 743 352 724L324 281Q324 273 324 271T328 268Q332 268 339 281L432 483Q443 508 459 517T499 526H604Q627 526 639 517T655 483L678 281Q679 275 679 272T683 268Q690 268 693 281L821 724Q826 743 839 743H1011Q1016 743 1021 741T1026 734Z"  />
<glyph unicode="X" horiz-adv-x="736" d="M818 733Q818 728 815 724L551 370L700 20Q701 18 701 14Q701 0 686 0H495Q486 0 481 5T473 18L397 196L270 20Q264 12 257 6T242 0H55Q44 0 44 10Q44 16 48 20L316 388L174 724Q173 726 173 729Q173 743 188 743H380Q388 743 393 737T401 724L474 554L592 724Q597 731 604 737T619 743H807Q818 743 818 733Z"  />
<glyph unicode="Y" horiz-adv-x="684" d="M790 733Q790 728 787 722L579 377Q556 340 536 320T493 291L446 20Q444 12 437 6T422 0H259Q249 0 247 6T244 20L291 291Q272 299 258 319T235 377L149 722Q149 724 149 724T148 727Q148 733 152 738T165 743H342Q350 743 353 738T359 724L408 459Q410 449 416 449Q423 449 428 459L571 724Q575 732 580 737T594 743H779Q790 743 790 733Z"  />
<glyph unicode="Z" horiz-adv-x="632" d="M696 727L674 601Q672 593 664 577T629 528L357 194Q351 186 351 182Q351 175 362 175H588Q605 175 605 156L581 20Q579 12 572 6T557 0H81Q59 0 59 19Q59 21 59 22T60 26L78 131Q80 142 86 153T105 180L404 549Q410 556 410 562Q410 568 400 568H186Q176 568 173 574T170 588L194 724Q196 732 202 737T217 743H678Q686 743 691 741T696 731V727Z"  />
<glyph unicode="[" horiz-adv-x="394" d="M489 725L469 612Q467 604 461 599T446 594H356L243 -45H334Q343 -45 346 -50T350 -63L330 -176Q327 -194 308 -194H40Q31 -194 29 -189T26 -175L185 724Q187 732 192 737T205 743H472Q489 743 489 728V725Z"  />
<glyph unicode="\" horiz-adv-x="425" d="M408 19Q408 11 402 6T388 0H251Q243 0 237 6T230 21L147 723V725Q147 733 153 738T167 743H304Q312 743 318 737T326 723L408 21V19H408Z"  />
<glyph unicode="]" horiz-adv-x="394" d="M465 724L306 -175Q304 -183 299 -188T286 -194H18Q2 -194 2 -179V-176L22 -63Q25 -45 44 -45H135L248 594H158Q141 594 141 609V612L161 725Q163 733 169 738T184 743H451Q458 743 461 739T465 728V724Z"  />
<glyph unicode="^" horiz-adv-x="666" d="M683 576Q683 566 671 566H512Q498 566 493 569T480 580L409 657L338 580Q330 572 325 569T306 566H148Q136 566 136 576Q136 581 141 588L250 735Q258 746 264 749T286 753H532Q546 753 553 750T568 735L678 588Q683 581 683 576Z"  />
<glyph unicode="_" horiz-adv-x="500" d="M-6 -125V-75H506V-125H-6Z"  />
<glyph unicode="`" horiz-adv-x="472" d="M425 642Q425 633 414 633H295Q284 633 281 636T273 644L168 764Q165 768 165 771Q165 779 177 779H325Q336 779 341 776T351 764L422 650Q425 645 425 642Z"  />
<glyph unicode="a" horiz-adv-x="612" d="M655 542Q655 537 654 534L564 20Q562 12 557 6T543 0H418Q400 0 400 20L404 51Q364 20 328 6T250 -9Q214 -9 182 4T127 41T90 102T76 186Q76 200 78 215T82 244L99 345Q111 417 139 464T207 539T297 579T405 591Q459 591 514 584T624 566Q638 563 646 559T655 542ZM443 428Q430 430 414 431T383 432Q341 432 320 411T288 330L269 223Q267 216 267 210T267 198Q267 171 279 162T313 152Q336 152 360 161T399 179L443 428Z"  />
<glyph unicode="b" horiz-adv-x="616" d="M641 385Q641 372 640 358T636 330L622 252Q598 120 525 56T313 -9Q245 -9 189 -1T94 16Q77 20 70 24T62 40Q62 45 63 48L188 753Q190 761 197 767T212 773H362Q371 773 375 767T380 753L350 584Q371 587 386 589T423 591Q478 591 519 575T587 531T627 466T641 385ZM449 374Q449 403 436 417T391 432Q373 432 355 431T322 428L274 154Q288 152 303 151T341 149Q383 149 402 176T430 252L444 330Q446 343 447 353T449 374Z"  />
<glyph unicode="c" horiz-adv-x="475" d="M534 554L514 441Q512 433 506 428T491 422Q465 422 440 425T376 429Q360 429 347 425T322 410T303 379T290 328L277 253Q273 230 273 210Q273 176 287 165T327 153Q364 153 390 156T443 159Q461 159 461 140L441 28Q439 18 434 14T417 7Q391 1 357 -4T277 -9Q229 -9 192 6T130 49T93 114T80 196Q80 210 81 224T85 253L98 328Q122 467 194 529T383 591Q428 591 462 586T517 575Q525 573 529 570T534 559V554Z"  />
<glyph unicode="d" horiz-adv-x="616" d="M569 48Q567 34 560 28T529 16Q488 8 428 0T300 -9Q249 -9 208 6T138 50T94 116T78 201Q78 213 79 225T83 252L97 330Q109 399 133 448T194 529T283 576T403 591Q415 591 436 589T473 584L503 753Q505 761 511 767T526 773H675Q683 773 688 769T694 756L569 48ZM445 428Q430 430 413 431T378 432Q336 432 316 403T288 330Q282 296 278 276T273 243T271 225T270 215Q270 183 281 166T328 149Q350 149 366 150T397 154L445 428Z"  />
<glyph unicode="e" horiz-adv-x="602" d="M623 376Q623 362 622 348T618 319L608 259Q606 249 599 243T583 237H272Q269 219 269 206Q269 187 275 176T291 159T317 151T351 149Q371 149 398 149T452 151T504 154T543 157Q554 157 558 154T562 140L546 50Q544 38 539 32T521 22Q470 6 418 -1T302 -9Q260 -9 221 4T150 43T100 109T81 202Q81 214 82 226T85 253L96 319Q108 393 135 445T203 529T295 576T410 591Q464 591 504 574T571 528T610 460T623 376ZM443 383Q443 409 430 425T382 442Q340 442 320 414T290 343H438Q443 366 443 383Z"  />
<glyph unicode="f" horiz-adv-x="409" d="M426 789Q439 789 456 788T488 783T515 776T526 766Q526 764 526 763T525 760L509 668Q507 659 503 654T485 648H445Q425 648 416 641T402 605L398 582H472Q490 582 490 569Q490 567 490 565T489 561L471 461Q466 440 447 440H373L296 4Q285 -56 267 -92T221 -147T158 -173T79 -180Q64 -180 47 -179T15 -175T-10 -166T-20 -151L-4 -59Q-2 -50 2 -45T19 -39H53Q78 -39 88 -33T103 4L179 440L113 450Q95 452 95 469Q95 471 95 471T96 474L111 561Q114 582 136 582H204L208 605Q218 664 237 700T283 756T346 782T426 789Z"  />
<glyph unicode="g" horiz-adv-x="605" d="M556 2Q546 -56 525 -95T467 -159T380 -193T260 -204Q194 -204 145 -194T70 -174Q54 -168 54 -152Q54 -150 54 -149T55 -146L70 -64Q72 -56 74 -51T87 -45Q99 -45 121 -47T171 -51T229 -55T286 -57Q329 -57 346 -45T369 2L372 19Q353 15 335 14T299 12Q245 12 204 27T134 71T92 136T77 219Q77 233 78 246T82 273L92 330Q105 404 132 454T198 534T288 578T401 591Q469 591 527 584T621 568Q638 563 645 559T652 546Q652 544 652 542T651 538L556 2ZM444 427Q430 429 413 430T373 432Q331 432 312 408T283 330L273 273Q271 261 270 251T269 231Q269 202 282 186T327 170Q345 170 362 171T400 175L444 427Z"  />
<glyph unicode="h" horiz-adv-x="632" d="M647 418Q647 406 646 394T642 368L581 21Q579 13 575 7T557 0H406Q398 0 393 3T388 14Q388 18 389 21L446 343Q451 367 451 376T452 391Q452 414 438 422T389 431Q372 431 355 430T323 424L252 22Q250 14 246 7T228 0H77Q69 0 64 4T58 17Q58 18 58 19T59 22L188 753Q190 761 194 767T211 773H364Q373 773 377 770T381 753L349 575Q369 582 397 586T460 591Q548 591 597 545T647 418Z"  />
<glyph unicode="i" horiz-adv-x="313" d="M373 775Q383 775 387 772T391 755L374 657Q372 649 368 643T348 637H190Q170 637 170 651Q170 655 171 657L188 755Q190 763 195 769T215 775H373ZM334 582Q344 582 348 579T352 561L257 22Q255 14 250 7T231 0H82Q74 0 69 3T63 16Q63 18 63 19T64 22L159 561Q161 569 166 575T185 582H334Z"  />
<glyph unicode="j" horiz-adv-x="312" d="M372 775Q382 775 386 771T390 755L373 657Q371 649 366 643T347 637H190Q182 637 177 640T171 652Q171 653 171 654T172 657L189 755Q191 763 196 769T215 775H372ZM334 582Q344 582 348 578T352 561L249 -21Q239 -76 223 -111T182 -168T124 -197T48 -206Q37 -206 19 -206T-18 -203T-49 -195T-62 -182Q-62 -178 -61 -176L-45 -83Q-43 -75 -39 -69T-20 -63H23Q41 -63 46 -52T56 -21L159 561Q161 569 166 575T185 582H334Z"  />
<glyph unicode="k" horiz-adv-x="627" d="M689 582Q701 582 701 572Q701 566 696 561L468 302L596 22Q598 16 598 14Q598 9 595 5T583 0H403Q386 0 378 22L291 250L251 22Q249 14 242 7T227 0H77Q69 0 64 3T58 16Q58 18 58 19T59 22L188 753Q190 761 194 767T213 773H363Q371 773 376 770T381 759Q381 757 381 756T380 753L308 348L474 564Q483 576 489 579T503 582H689Z"  />
<glyph unicode="l" horiz-adv-x="304" d="M364 773Q381 773 381 753L252 22Q250 9 244 5T228 0H77Q58 0 58 16Q58 20 59 22L188 753Q190 761 195 767T213 773H364H364Z"  />
<glyph unicode="m" horiz-adv-x="902" d="M917 427Q917 404 914 382T906 337L851 22Q849 14 842 7T826 0H676Q665 0 662 7T659 22L719 363Q722 379 722 392Q722 408 714 417T680 426Q669 426 652 424T617 415Q616 401 615 389T611 363L551 22Q549 14 543 7T527 0H376Q365 0 362 7T359 22L419 363Q421 371 422 378T423 393Q423 407 416 416T387 426Q373 426 355 421T320 408L252 22Q250 14 244 7T228 0H77Q67 0 63 7T59 22L155 562Q157 570 163 576T178 582H313Q323 582 326 576T330 562L327 535Q361 570 398 580T475 591Q511 591 541 576T589 538Q611 553 629 563T664 580T699 588T737 591Q781 591 814 578T871 542T905 490T917 427Z"  />
<glyph unicode="n" horiz-adv-x="632" d="M646 421Q646 401 643 378T636 334L581 22Q579 14 572 7T556 0H406Q395 0 392 5T388 16Q388 20 389 22L445 341Q447 354 449 366T452 392Q452 415 442 423T405 431Q382 431 358 424T320 409L252 22Q250 13 243 7T225 0H82Q72 0 66 5T59 19V22L155 562Q157 570 163 576T178 582H315Q333 582 333 568Q333 566 333 565T332 562L327 536Q380 571 420 581T489 591Q573 591 609 549T646 421Z"  />
<glyph unicode="o" horiz-adv-x="605" d="M626 380Q626 369 624 349T621 320L611 262Q599 189 574 138T509 54T418 6T301 -9Q247 -9 206 6T137 48T95 115T81 201Q81 215 82 230T86 262L96 320Q109 394 135 445T201 529T292 576T407 591Q459 591 500 576T569 534T611 467T626 380ZM435 371Q435 404 422 417T379 430Q341 430 320 405T287 320L277 262Q274 247 273 235T272 212Q272 177 286 164T330 151Q368 151 388 174T420 262L430 320Q432 335 433 347T435 371Z"  />
<glyph unicode="p" horiz-adv-x="616" d="M642 391Q642 363 636 330L622 252Q599 122 527 57T316 -9Q304 -9 283 -8T246 -4L217 -171Q215 -179 211 -185T193 -192H43Q35 -192 30 -189T24 -177Q24 -175 24 -174T25 -171L149 534Q151 547 159 554T191 568Q233 579 281 585T378 591Q429 591 477 582T561 549T620 488T642 391ZM449 375Q449 402 436 417T387 432Q360 432 348 431T322 428L274 153Q289 151 306 150T341 149Q383 149 402 178T430 252L444 330Q449 358 449 375Z"  />
<glyph unicode="q" horiz-adv-x="616" d="M626 566Q643 562 649 557T656 542Q656 540 656 538T655 534L531 -171Q529 -179 525 -185T508 -192H359Q351 -192 345 -188T339 -176Q339 -175 339 -174T340 -171L369 -3Q353 -5 337 -7T306 -9Q258 -9 217 3T144 41T96 104T78 194Q78 208 79 222T83 252L97 330Q110 401 136 451T200 532T290 577T406 591Q474 591 531 583T626 566ZM445 428Q431 430 416 431T378 432Q356 432 341 425T315 404T298 371T288 330L274 252Q270 236 270 220Q270 189 281 169T328 149Q346 149 364 150T397 154L445 428Z"  />
<glyph unicode="r" horiz-adv-x="417" d="M438 433Q406 433 376 428T319 410L251 22Q249 14 245 7T227 0H77Q69 0 64 4T58 17Q58 18 58 19T59 22L154 562Q156 570 160 576T178 582H318Q327 582 330 578T334 562L331 538Q349 556 367 566T403 581T437 588T466 590H477Q488 590 491 586T495 576Q495 574 495 573T494 570L473 453Q471 445 468 439T452 433H438H438Z"  />
<glyph unicode="s" horiz-adv-x="516" d="M540 438Q538 430 535 424T521 418Q512 418 491 420T444 426T392 431T348 434Q333 434 320 431T307 415Q307 405 313 399T343 378L406 341Q469 303 490 265T511 188Q511 133 490 96T433 35T350 1T250 -9Q219 -9 184 -7T118 1T68 14T48 32Q48 33 48 34T49 37L67 140Q69 152 74 156T95 161Q117 158 141 155T189 150T233 147T265 145Q274 145 283 146T299 150T312 161T317 179Q317 187 312 193T293 207L212 255Q156 288 134 323T112 404Q112 460 133 496T188 553T268 582T361 591Q418 591 464 584T543 566Q552 563 555 559T559 544L540 438Z"  />
<glyph unicode="t" horiz-adv-x="432" d="M478 582Q499 582 499 568Q499 566 499 565T498 562L480 460Q478 452 474 446T457 440H381L333 171Q330 157 330 150Q330 140 335 137T354 133H400Q409 133 413 129T418 114L402 20Q400 12 395 7T377 0Q374 0 365 -1T343 -4T315 -7T286 -9Q253 -9 226 -3T179 19T148 60T137 121Q137 133 138 146T142 173L189 440L125 455Q117 457 112 460T107 471Q107 475 108 477L123 561Q125 569 129 575T148 582H214L228 663Q230 671 237 676T253 684L406 710Q418 710 421 706T425 691L406 582H478Z"  />
<glyph unicode="u" horiz-adv-x="632" d="M653 582Q664 582 670 578T676 560L580 20Q578 12 574 6T557 0H420Q412 0 407 3T402 14Q402 18 403 20L408 46Q355 11 315 1T248 -9Q205 -9 175 4T127 42T100 98T91 168Q91 188 93 207T99 248L154 560Q156 568 161 575T179 582H329Q347 582 347 567Q347 565 347 564T346 560L290 241Q288 228 286 218T283 198Q283 182 285 173T293 159T308 153T330 151Q353 151 377 158T415 173L483 560Q485 569 490 575T510 582H653Z"  />
<glyph unicode="v" horiz-adv-x="620" d="M702 568Q702 566 700 560L494 106Q476 67 455 44T411 9T363 -6T313 -9Q288 -9 263 -6T218 9T183 44T165 106L120 560Q120 569 125 575T140 582H301Q309 582 314 576T319 561L330 196Q330 178 338 178Q347 178 355 196L494 561Q497 570 503 576T520 582H687Q693 582 697 578T702 568Z"  />
<glyph unicode="w" horiz-adv-x="871" d="M946 570Q946 566 945 564L774 89Q756 39 732 20T673 0H598Q563 0 540 22T512 86L490 269Q489 276 485 276Q479 276 476 269L390 86Q371 45 348 23T290 0H213Q179 0 155 20T130 89L125 564Q125 572 131 577T144 582H301Q315 582 315 566L305 222Q305 214 310 214Q316 214 320 222L414 427Q422 445 435 456T478 468H558Q587 468 595 457T606 427L628 222Q629 214 635 214Q640 214 643 222L755 565Q761 582 775 582H934Q946 582 946 570Z"  />
<glyph unicode="x" horiz-adv-x="647" d="M698 571Q698 565 694 561L481 287L613 22Q615 16 615 14Q615 9 612 5T600 0H428Q420 0 415 6T405 22L335 163L227 21Q219 11 213 6T198 0H47Q37 0 37 11Q37 17 41 21L264 308L139 561Q137 567 137 569Q137 575 141 578T151 582H320Q330 582 335 576T345 561L408 433L504 561Q511 571 517 576T533 582H688Q698 582 698 571Z"  />
<glyph unicode="y" horiz-adv-x="623" d="M705 567Q705 564 703 560L428 -34Q409 -74 388 -105T337 -158T266 -191T165 -203Q141 -203 115 -201T66 -194T29 -182T14 -166L31 -69Q33 -61 40 -55T58 -48Q86 -50 125 -53T193 -56Q214 -56 229 -48T254 -18L268 15H255Q220 15 201 30T176 84L118 560Q118 569 123 575T143 582H304Q312 582 315 576T320 562L338 218Q339 201 346 201H354L497 563Q504 582 522 582H687Q694 582 699 578T705 567Z"  />
<glyph unicode="z" horiz-adv-x="541" d="M591 555L575 464Q572 447 567 439T550 418L334 171Q329 164 329 161Q329 156 337 156H505Q520 156 520 140L499 20Q497 12 490 6T475 0H74Q61 0 57 8T52 27L67 111Q69 124 73 133T89 155L316 414Q322 420 322 424Q322 429 314 429H146Q132 429 132 445L153 562Q155 570 162 576T177 582H570Q580 582 585 576T591 560V555Z"  />
<glyph unicode="{" horiz-adv-x="417" d="M530 724L510 611Q508 603 502 598T487 593H435Q409 593 400 582T386 538L365 422Q356 371 329 333T251 272Q286 255 301 227T317 161Q315 152 315 143T313 122L292 6Q289 -12 289 -23Q289 -37 296 -43T321 -49H373Q382 -49 386 -54T390 -67L370 -180Q368 -188 362 -193T347 -198H285Q231 -198 194 -192T134 -172T101 -133T91 -74Q91 -57 92 -37T99 6L120 122Q121 127 121 131T122 141Q122 166 111 184T81 216L101 328Q129 344 147 367T172 422L193 538Q203 597 219 636T265 698T339 732T451 742H513Q530 742 530 727V724Z"  />
<glyph unicode="|" horiz-adv-x="304" d="M317 -172Q317 -180 311 -187T296 -194H145Q137 -194 130 -187T123 -172V723Q123 731 130 737T145 743H296Q304 743 310 737T317 723V-172H317Z"  />
<glyph unicode="}" horiz-adv-x="417" d="M412 216Q384 200 365 177T341 122L320 6Q309 -53 293 -92T247 -154T174 -188T62 -198H0Q-17 -198 -17 -180L3 -67Q5 -59 11 -54T26 -49H78Q103 -49 112 -38T127 6L148 122Q157 173 184 211T262 272Q227 289 212 317T196 383Q196 403 200 422L221 538Q224 556 224 567Q224 581 217 587T192 593H140Q123 593 123 611L143 724Q145 732 151 737T166 742H228Q282 742 319 736T379 716T412 677T422 618Q422 601 420 581T414 538L393 422Q392 417 392 413T391 403Q391 378 402 360T432 328L412 216Z"  />
<glyph unicode="~" horiz-adv-x="666" d="M673 485Q673 396 631 360T508 323Q484 323 459 331T414 350L354 385Q338 394 327 396T308 399Q294 399 289 392T283 370V351Q283 330 263 330H155Q133 330 133 351V370Q133 416 144 448T178 499T230 527T299 536Q315 536 340 532T383 516L453 476Q469 467 480 464T500 460Q523 460 523 486V509Q523 530 544 530H651Q673 530 673 509V485H673Z"  />
<glyph unicode="&#xA0;" horiz-adv-x="240" />
<glyph unicode="&#xA3;" horiz-adv-x="666" d="M722 715Q722 711 721 708L698 580Q695 562 678 562H675Q645 565 600 569T510 573Q489 573 475 570T450 560T434 539T424 503L415 453H567Q584 453 584 437V434L563 315Q561 307 555 301T540 295H387L374 221Q371 202 363 186T347 158H603Q620 158 620 142V139L599 20Q597 12 590 6T575 0H118Q110 0 106 5T102 18V22L118 112Q120 122 123 127T132 137Q138 143 145 152T158 173T170 197T178 221L191 295H142Q127 295 127 311V315L148 434Q150 442 156 447T171 453H219L227 501Q239 573 263 620T325 696T416 735T541 747Q564 747 588 745T635 740T676 734T705 729Q722 725 722 715Z"  />
<glyph unicode="&#xA4;" horiz-adv-x="666" d="M662 552Q662 544 655 537L569 451Q588 411 588 371Q588 326 567 286L651 201Q658 194 658 186Q658 180 653 175L588 109Q583 104 577 104Q569 104 562 111L475 198Q440 182 399 182Q355 182 318 201L232 115Q229 112 225 110T216 107Q211 107 206 112L141 178Q136 183 136 190Q136 198 143 205L229 290Q209 328 209 371Q209 410 226 447L139 534Q132 541 132 549Q132 555 137 560L203 625Q208 630 214 630Q222 630 229 623L313 539Q353 560 399 560Q443 560 480 541L565 627Q572 634 580 634Q586 634 591 629L657 563Q662 558 662 552ZM477 375Q477 407 456 428T402 450Q370 450 348 429T326 375Q326 343 348 321T402 298Q434 298 455 320T477 375Z"  />
<glyph unicode="&#xA5;" horiz-adv-x="666" d="M787 732Q787 730 783 722L637 501H717Q734 501 734 485V482L719 396Q717 388 711 383T696 377H555L494 282H679Q695 282 695 267V263L680 177Q677 158 658 158H472L448 20Q446 12 441 6T427 0H259Q244 0 244 16V20L268 158H83Q66 158 66 174V177L81 263Q83 271 90 276T105 282H290L263 377H121Q105 377 105 392V396L120 482Q122 490 128 495T143 501H224L155 722Q154 724 154 727Q154 734 159 738T172 743H348Q356 743 359 738T365 725L422 480L565 725Q570 733 575 738T588 743H774Q787 743 787 732Z"  />
<glyph unicode="&#xA6;" horiz-adv-x="304" d="M317 364Q317 356 311 349T297 342H145Q137 342 130 349T123 364V708Q123 716 130 722T145 728H297Q305 728 311 722T317 708V364ZM317 -189Q317 -197 311 -204T297 -211H145Q137 -211 130 -204T123 -189V155Q123 163 130 169T145 175H297Q305 175 311 169T317 155V-189Z"  />
<glyph unicode="&#xA7;" horiz-adv-x="607" d="M672 708L650 583Q648 576 644 571T631 566H630Q607 567 579 569T521 573T461 576T402 577Q381 577 362 571T343 538Q343 527 353 518T389 493L511 421Q565 389 588 347T611 255Q611 210 597 174T553 102Q561 88 566 67T571 23Q571 -42 549 -87T487 -161T391 -203T267 -216Q236 -216 205 -214T146 -209T92 -201T48 -190Q41 -188 36 -184T31 -173V-170L53 -45Q55 -37 61 -32T76 -26H78Q128 -31 177 -36T278 -41H280Q294 -41 307 -39T331 -30T348 -12T355 16Q355 28 346 38T314 62L186 142Q134 174 114 215T93 304Q93 325 96 347T107 391T125 432T151 467Q144 482 140 503T136 547Q136 612 160 652T225 714T317 745T423 753Q453 753 487 751T554 745T613 737T655 728Q661 726 666 722T672 711V708ZM444 245Q444 265 434 278T398 307L314 358Q300 366 288 375T270 392Q259 373 254 358T249 329Q249 308 260 294T287 270L372 218Q410 196 425 179Q434 192 439 210T444 245Z"  />
<glyph unicode="&#xA8;" horiz-adv-x="472" d="M567 755L550 657Q548 649 540 643T523 637H407Q399 637 394 641T389 654V657L406 755Q408 763 416 769T432 775H548Q556 775 561 771T567 758V755ZM333 755L316 657Q314 649 306 643T290 637H174Q166 637 161 641T155 654V657L172 755Q174 763 182 769T199 775H315Q323 775 328 771T333 758V755Z"  />
<glyph unicode="&#xA9;" horiz-adv-x="750" d="M780 374Q780 304 754 243T681 137T574 65T442 39Q372 39 311 65T205 136T133 243T107 374Q107 444 133 505T204 613T311 686T442 713Q512 713 573 686T681 613T753 506T780 374ZM724 374Q724 432 702 483T641 573T552 634T442 657Q384 657 333 635T244 574T184 484T162 374Q162 316 184 265T244 176T333 116T442 94Q500 94 551 116T641 176T701 265T724 374ZM546 183Q546 177 543 175T533 170Q519 166 500 163T455 160Q368 160 323 207T278 351V403Q278 500 323 547T455 594Q481 594 501 591T533 584Q540 582 543 580T546 572V495Q546 484 535 484H533Q515 486 500 487T455 489Q444 489 434 486T416 473T403 447T398 403V351Q398 323 403 306T416 280T434 268T455 265Q481 265 498 266T533 270H535Q546 270 546 259V183Z"  />
<glyph unicode="&#xAB;" horiz-adv-x="747" d="M807 512Q807 506 800 499L585 287L717 82Q720 77 720 73Q720 60 706 60H576Q566 60 560 62T549 71L424 263Q417 274 414 280T410 295Q410 300 411 306T418 318L610 509Q617 516 624 518T641 520H796Q807 520 807 512ZM477 512Q477 506 470 499L255 287L387 82Q390 77 390 73Q390 60 376 60H246Q236 60 230 62T219 71L94 263Q87 274 84 280T80 295Q80 300 81 306T88 318L280 509Q287 516 294 518T311 520H466Q477 520 477 512Z"  />
<glyph unicode="&#xAC;" horiz-adv-x="666" d="M616 193Q616 185 611 179T598 173H491Q483 173 479 179T474 193V456H164Q156 456 150 460T144 472V581Q144 589 150 593T164 597H596Q604 597 610 593T616 581V193H616Z"  />
<glyph unicode="&#xAD;" horiz-adv-x="282" d="M320 352L302 250Q300 242 294 237T279 231H86Q69 231 69 247V250L87 352Q89 360 95 365T110 371H303Q320 371 320 355V352Z"  />
<glyph unicode="&#xAE;" horiz-adv-x="598" d="M671 484Q671 425 649 374T588 284T497 223T387 201Q328 201 277 223T187 283T127 373T104 484Q104 542 126 594T187 684T276 744T387 767Q445 767 497 745T587 684T648 594T671 484ZM617 484Q617 531 599 573T550 646T476 695T387 713Q340 713 299 695T226 646T177 573T159 484Q159 437 177 395T226 322T298 273T387 255Q434 255 476 273T549 322T599 395T617 484ZM530 330Q530 321 521 321H439Q433 321 429 329Q421 343 411 362T392 399Q381 419 371 441H347V331Q347 321 337 321H263Q253 321 253 331V621Q253 640 258 646T281 655Q287 656 298 656T322 658T350 659T375 660Q442 660 480 636T518 550V541Q518 507 502 487T463 456L528 336Q530 332 530 330ZM428 550Q428 567 418 575T383 583H344V508H383Q407 508 417 517T428 541V550Z"  />
<glyph unicode="&#xB0;" horiz-adv-x="368" d="M443 594Q443 561 431 533T397 483T347 449T285 436Q252 436 224 448T173 482T139 532T126 594Q126 627 138 655T173 706T223 740T285 753Q318 753 346 741T396 706T430 656T443 594ZM351 594Q351 621 332 641T285 661Q258 661 239 641T219 594Q219 567 238 548T285 529Q312 529 331 548T351 594Z"  />
<glyph unicode="&#xB1;" horiz-adv-x="666" d="M594 336Q594 328 588 324T574 320H425V173Q425 165 421 159T409 153H299Q291 153 287 159T283 173V320H136Q128 320 122 324T116 336V446Q116 454 122 458T136 462H283V611Q283 619 287 625T299 631H409Q417 631 421 625T425 611V462H574Q582 462 588 458T594 446V336ZM594 -9Q594 -17 588 -21T574 -25H136Q128 -25 122 -21T116 -9V77Q116 85 122 89T136 93H574Q582 93 588 89T594 77V-9Z"  />
<glyph unicode="&#xB2;" horiz-adv-x="371" d="M315 752Q354 752 379 745T419 726T440 699T446 665Q446 583 367 537L298 496Q271 480 252 468T228 437H387Q402 437 400 421L387 350Q385 334 369 334H116Q100 334 102 350L112 407Q120 453 145 487T204 545L266 586Q285 599 297 606T315 619T324 629T326 640Q326 648 317 651T282 655Q260 655 237 653T191 649Q182 648 172 649T163 664L172 717Q173 723 177 726T188 732Q214 740 247 746T315 752Z"  />
<glyph unicode="&#xB3;" horiz-adv-x="365" d="M270 585Q320 585 320 629Q320 639 312 645T277 652Q265 652 251 652T223 650T196 649T174 647H173Q159 647 161 661L172 719Q173 725 178 728T188 733Q214 741 244 746T307 751Q376 751 408 728T440 662Q440 620 421 587T376 542Q391 529 400 513T410 470Q410 431 397 404T360 360T305 336T238 328Q220 328 201 330T164 335T133 342T112 350Q109 352 106 354T104 362L114 418Q117 432 131 432H132Q141 431 154 430T181 429T209 428T235 427Q267 427 279 436T291 471Q291 495 254 495H169Q163 495 159 499T157 510L167 570Q169 576 174 580T185 585H270Z"  />
<glyph unicode="&#xB5;" horiz-adv-x="632" d="M676 560L585 48Q583 36 576 29T545 15Q507 5 451 -2T317 -9Q278 -9 247 -3L218 -172Q216 -180 209 -186T194 -192H41Q25 -192 25 -176V-172L154 560Q156 568 163 575T179 582H329Q337 582 341 577T346 564V560L285 214Q284 209 284 204T283 195Q283 169 298 158T344 147Q364 147 381 148T412 152L484 560Q486 568 493 575T508 582H658Q666 582 671 577T676 563V560Z"  />
<glyph unicode="&#xB6;" horiz-adv-x="674" d="M750 730Q750 728 750 727T749 724L590 -176Q588 -184 583 -189T570 -195H518Q511 -195 508 -191T504 -180V-176L651 658H587L440 -176Q438 -184 433 -189T420 -195H368Q361 -195 358 -191T354 -180V-176L426 234H334Q288 234 249 245T182 279T138 335T122 412Q122 423 123 434T126 457L137 520Q146 574 173 615T238 685T324 728T424 743H736Q750 743 750 730Z"  />
<glyph unicode="&#xB7;" horiz-adv-x="291" d="M318 447L293 308Q291 300 284 294T269 288H124Q116 288 111 292T106 305V308L131 447Q133 455 140 461T155 467H300Q308 467 313 463T318 450V447Z"  />
<glyph unicode="&#xBB;" horiz-adv-x="747" d="M770 285Q770 280 769 274T762 262L570 71Q563 64 556 62T539 60H384Q373 60 373 68Q373 74 380 81L595 293L463 498Q460 502 460 507Q460 520 474 520H604Q614 520 620 518T631 509L756 317Q763 306 766 300T770 285ZM440 285Q440 280 439 274T432 262L240 71Q233 64 226 62T209 60H54Q43 60 43 68Q43 74 50 81L265 293L133 498Q130 502 130 507Q130 520 144 520H274Q284 520 290 518T301 509L426 317Q433 306 436 300T440 285Z"  />
<glyph unicode="&#xBD;" horiz-adv-x="896" d="M270 744Q276 747 284 747H346Q362 747 360 731L292 350Q290 334 274 334H186Q170 334 172 350L221 625L166 604Q160 602 154 604T149 614L163 692Q164 701 174 706L270 744ZM816 736Q816 729 811 723L270 18Q262 7 258 4T245 0H122Q112 0 112 9Q112 15 117 22L658 726Q666 736 671 739T685 743H807Q816 743 816 736ZM889 306Q884 273 864 247T812 203L743 162Q716 146 697 134T673 103H832Q847 103 845 87L832 16Q830 0 814 0H561Q545 0 547 16L557 73Q565 119 590 153T649 211L711 252Q730 264 741 271T759 284T767 293T771 302Q773 312 765 316T727 321Q705 321 682 319T636 315Q627 314 617 315T608 330L617 383Q618 389 622 392T633 398Q659 406 692 412T760 418Q803 418 830 410T871 387T889 352T889 306Z"  />
<glyph unicode="&#x192;" horiz-adv-x="666" d="M708 768Q708 766 708 765T707 762L686 670Q684 662 677 656T660 650H592Q573 650 562 648T543 642T532 629T525 609L493 465H623Q640 465 640 450Q640 448 640 448T639 445L616 342Q614 334 607 328T590 321H460L389 8Q377 -46 353 -81T295 -138T223 -167T141 -175Q109 -175 78 -172T31 -165Q13 -161 13 -150Q13 -149 13 -148T14 -145L34 -53Q36 -45 43 -40T60 -34H129Q166 -34 178 -25T195 8L266 321H141Q124 321 124 337Q124 339 124 339T125 342L148 445Q150 453 157 459T174 465H300L332 609Q344 663 368 698T425 755T497 784T579 792Q611 792 643 789T690 782Q708 778 708 768Z"  />
<glyph unicode="&#x384;" horiz-adv-x="500" d="M446 821Q458 821 458 806L419 621Q418 615 415 610T403 604H288Q277 604 277 614Q277 616 277 617T278 621L305 806Q306 811 308 816T321 821H446Z"  />
<glyph unicode="&#x385;" horiz-adv-x="500" d="M454 821Q466 821 466 806L427 621Q426 615 423 610T411 604H302Q291 604 291 614Q291 616 291 617T292 621L319 806Q320 811 322 816T335 821H454ZM642 657Q640 649 632 643T616 637H500Q481 637 481 657L499 755Q501 763 508 769T524 775H640Q649 775 654 769T660 755L642 657ZM250 657Q248 649 241 643T225 637H109Q99 637 94 643T89 657L107 755Q109 763 117 769T133 775H249Q258 775 263 769T268 755L250 657Z"  />
<glyph unicode="&#x386;" horiz-adv-x="692" d="M676 20Q676 12 671 6T657 0H487Q479 0 475 5T470 19L467 158H289L236 19Q233 11 227 6T213 0H36Q22 0 22 13Q22 15 24 21L266 633Q281 670 302 693T351 730T411 747T479 752Q515 752 545 748T598 730T634 694T650 633L676 20ZM462 572Q462 579 461 582T453 586Q446 586 444 583T440 572L346 318H466L462 572ZM130 743Q142 743 142 728L103 543Q102 537 99 532T87 526H-28Q-39 526 -39 536Q-39 538 -39 539T-38 543L-11 728Q-10 733 -8 738T5 743H130Z"  />
<glyph unicode="&#x388;" horiz-adv-x="586" d="M659 721L638 599Q636 591 629 585T614 579H412Q385 579 373 569T355 529L342 456H588Q597 456 601 450T605 436L584 318Q582 310 576 304T561 298H315L300 215Q299 209 299 205T298 195Q298 178 307 172T339 165H541Q550 165 554 159T558 145L536 23Q533 6 513 3Q484 -1 437 -5T316 -9Q272 -9 232 -1T160 28T111 82T92 164Q92 176 93 188T97 215L152 529Q165 605 193 649T260 717T347 746T448 753Q521 753 568 749T643 741Q659 740 659 725V721ZM100 743Q112 743 112 728L73 543Q72 537 69 532T57 526H-58Q-69 526 -69 536Q-69 538 -69 539T-68 543L-41 728Q-40 733 -38 738T-25 743H100Z"  />
<glyph unicode="&#x389;" horiz-adv-x="746" d="M685 20Q683 12 676 6T661 0H498Q488 0 485 6T482 20L529 292H320L273 20Q271 12 264 6T249 0H86Q69 0 69 20L193 724Q195 732 202 737T217 743H380Q397 743 397 724L352 468H561L606 724Q608 732 614 737T629 743H792Q809 743 809 727L685 20ZM100 743Q112 743 112 728L73 543Q72 537 69 532T57 526H-58Q-69 526 -69 536Q-69 538 -69 539T-68 543L-41 728Q-40 733 -38 738T-25 743H100Z"  />
<glyph unicode="&#x38A;" horiz-adv-x="334" d="M380 743Q397 743 397 728V724L273 20Q271 12 266 6T249 0H85Q77 0 73 5T68 16Q68 17 68 18T69 20L193 724Q195 732 201 737T216 743H380ZM100 743Q112 743 112 728L73 543Q72 537 69 532T57 526H-58Q-69 526 -69 536Q-69 538 -69 539T-68 543L-41 728Q-40 733 -38 738T-25 743H100Z"  />
<glyph unicode="&#x38C;" horiz-adv-x="707" d="M744 507Q742 487 741 467T736 423L717 320Q700 229 667 166T588 64T482 8T352 -9Q299 -9 253 6T171 51T116 129T95 239Q95 274 103 320L122 423Q140 518 174 581T257 683T363 737T487 753Q539 753 585 739T667 695T723 619T744 507ZM537 485Q537 532 517 553T455 574Q402 574 373 539T328 423L309 320Q306 306 304 294T302 270Q302 216 320 193T384 170Q437 170 466 204T511 320L530 423Q533 441 535 456T537 485ZM100 743Q112 743 112 728L73 543Q72 537 69 532T57 526H-58Q-69 526 -69 536Q-69 538 -69 539T-68 543L-41 728Q-40 733 -38 738T-25 743H100Z"  />
<glyph unicode="&#x38E;" horiz-adv-x="684" d="M790 733Q790 728 787 722L579 377Q556 340 536 320T493 291L446 20Q444 12 437 6T422 0H259Q249 0 247 6T244 20L291 291Q272 299 258 319T235 377L149 722Q149 724 149 724T148 727Q148 733 152 738T165 743H342Q350 743 353 738T359 724L408 459Q410 449 416 449Q423 449 428 459L571 724Q575 732 580 737T594 743H779Q790 743 790 733ZM80 743Q92 743 92 728L53 543Q52 537 49 532T37 526H-78Q-89 526 -89 536Q-89 538 -89 539T-88 543L-61 728Q-60 733 -58 738T-45 743H80Z"  />
<glyph unicode="&#x38F;" horiz-adv-x="716" d="M459 575Q403 575 374 544T331 441L329 429Q326 413 324 396T321 361Q321 340 327 321T349 289Q354 285 357 283T360 273Q360 271 360 269T359 264L316 21Q313 0 292 0H101Q92 0 86 3T80 16Q80 17 80 18T81 21L101 135Q103 147 110 151T128 155H239L244 182Q206 195 182 216T144 263T125 317T119 374Q119 394 121 413T126 449L128 461Q143 543 172 599T245 690T348 740T481 755Q542 755 592 741T679 699T736 628T756 529Q756 497 750 461L748 449Q739 396 726 355T690 281T630 224T536 182L531 155H642Q653 155 657 151T661 135L641 21Q639 9 632 5T615 0H424Q413 0 410 5T406 21L449 264Q451 278 455 281T467 289Q486 301 498 317T518 353T530 391T537 429L539 441Q542 456 543 469T544 493Q544 537 524 556T459 575ZM100 743Q112 743 112 728L73 543Q72 537 69 532T57 526H-58Q-69 526 -69 536Q-69 538 -69 539T-68 543L-41 728Q-40 733 -38 738T-25 743H100Z"  />
<glyph unicode="&#x390;" horiz-adv-x="313" d="M256 22Q254 14 250 7T231 0H82Q70 0 67 6T63 22L158 561Q160 569 165 575T184 582H333Q345 582 348 576T351 561L256 22ZM366 854Q378 854 378 839L339 654Q338 648 335 643T323 637H214Q203 637 203 647Q203 649 203 650T204 654L231 839Q232 844 234 849T247 854H366ZM554 690Q552 682 544 676T528 670H412Q393 670 393 690L411 788Q413 796 420 802T436 808H552Q561 808 566 802T572 788L554 690ZM162 690Q160 682 153 676T137 670H21Q11 670 6 676T1 690L19 788Q21 796 29 802T45 808H161Q170 808 175 802T180 788L162 690Z"  />
<glyph unicode="&#x391;" horiz-adv-x="692" d="M676 20Q676 12 671 6T657 0H487Q479 0 475 5T470 19L467 158H289L236 19Q233 11 227 6T213 0H36Q22 0 22 13Q22 15 24 21L266 633Q281 670 302 693T351 730T411 747T479 752Q515 752 545 748T598 730T634 694T650 633L676 20ZM462 572Q462 579 461 582T453 586Q446 586 444 583T440 572L346 318H466L462 572Z"  />
<glyph unicode="&#x392;" horiz-adv-x="682" d="M734 581Q734 559 730 539Q724 505 712 479T686 433T655 400T625 380Q634 374 644 363T662 337T676 302T682 260Q682 254 682 248T680 235Q668 159 637 112T559 37T449 1T314 -9Q295 -9 269 -9T216 -7T164 -3T122 3Q94 8 82 18T69 52Q69 64 72 79L175 666Q178 686 183 699T198 720T220 733T251 741Q267 744 292 746T345 749T399 752T445 753Q508 753 561 744T653 715T712 662T734 581ZM532 536Q532 561 513 574T441 588Q438 588 427 588T402 588T377 587T362 587L336 445H433Q483 445 504 463T529 508L531 524Q532 528 532 536ZM487 255Q487 278 469 293T409 309H312L286 156H368Q426 156 451 176T483 228L485 237Q486 242 486 246T487 255Z"  />
<glyph unicode="&#x393;" horiz-adv-x="591" d="M272 20Q270 12 265 6T248 0H85Q79 0 74 3T68 15Q68 17 68 17T69 20L158 528Q171 604 200 648T269 716T356 746T454 753Q527 753 573 749T648 740Q654 739 660 736T666 725Q666 724 666 723T665 720L643 598Q641 590 637 584T620 578H418Q391 578 379 568T361 528L272 20Z"  />
<glyph unicode="&#x394;" horiz-adv-x="692" d="M36 0Q25 0 23 6T23 21L265 633Q280 670 301 693T350 730T410 747T478 752Q514 752 544 748T597 730T633 694T649 633L675 21Q677 0 657 0H36ZM461 572Q461 577 460 581T453 586Q446 586 444 583T439 572L293 176H469L461 572Z"  />
<glyph unicode="&#x395;" horiz-adv-x="586" d="M659 721L638 599Q636 591 629 585T614 579H412Q385 579 373 569T355 529L342 456H588Q597 456 601 450T605 436L584 318Q582 310 576 304T561 298H315L300 215Q299 209 299 205T298 195Q298 178 307 172T339 165H541Q550 165 554 159T558 145L536 23Q533 6 513 3Q484 -1 437 -5T316 -9Q272 -9 232 -1T160 28T111 82T92 164Q92 176 93 188T97 215L152 529Q165 605 193 649T260 717T347 746T448 753Q521 753 568 749T643 741Q659 740 659 725V721Z"  />
<glyph unicode="&#x396;" horiz-adv-x="632" d="M696 727L674 601Q672 593 664 577T629 528L357 194Q351 186 351 182Q351 175 362 175H588Q605 175 605 156L581 20Q579 12 572 6T557 0H81Q59 0 59 19Q59 21 59 22T60 26L78 131Q80 142 86 153T105 180L404 549Q410 556 410 562Q410 568 400 568H186Q176 568 173 574T170 588L194 724Q196 732 202 737T217 743H678Q686 743 691 741T696 731V727Z"  />
<glyph unicode="&#x397;" horiz-adv-x="746" d="M685 20Q683 12 676 6T661 0H498Q488 0 485 6T482 20L529 292H320L273 20Q271 12 264 6T249 0H86Q69 0 69 20L193 724Q195 732 202 737T217 743H380Q397 743 397 724L352 468H561L606 724Q608 732 614 737T629 743H792Q809 743 809 727L685 20Z"  />
<glyph unicode="&#x398;" horiz-adv-x="707" d="M477 317Q474 298 454 298H361Q343 298 343 313Q343 314 343 314T344 317L366 437Q369 456 389 456H482Q493 456 496 451T499 437L477 317ZM744 507Q742 487 741 467T736 423L717 320Q700 229 667 166T588 64T482 8T352 -9Q299 -9 253 6T171 51T116 129T95 239Q95 274 103 320L122 423Q140 518 174 581T257 683T363 737T487 753Q539 753 585 739T667 695T723 619T744 507ZM537 485Q537 532 517 553T455 574Q402 574 373 539T328 423L309 320Q306 306 304 294T302 270Q302 216 320 193T384 170Q437 170 466 204T511 320L530 423Q533 441 535 456T537 485Z"  />
<glyph unicode="&#x399;" horiz-adv-x="334" d="M380 743Q397 743 397 728V724L273 20Q271 12 266 6T249 0H85Q77 0 73 5T68 16Q68 17 68 18T69 20L193 724Q195 732 201 737T216 743H380H380Z"  />
<glyph unicode="&#x39A;" horiz-adv-x="713" d="M818 734Q818 728 812 721L530 373L684 21Q686 17 686 14Q686 0 670 0H474Q465 0 462 5T456 17L329 344L273 20Q271 12 264 6T249 0H86Q69 0 69 20L193 724Q195 732 202 737T217 743H380Q397 743 397 724L342 412L584 727Q589 734 595 738T609 743H806Q818 743 818 734Z"  />
<glyph unicode="&#x39B;" horiz-adv-x="692" d="M236 19Q233 11 227 6T213 0H36Q22 0 22 13Q22 15 24 21L266 633Q281 670 302 693T351 730T411 747T479 752Q515 752 545 748T598 730T634 694T650 633L676 20Q676 12 671 6T657 0H487Q479 0 475 5T470 19L462 572Q462 579 461 582T453 586Q446 586 444 583T440 572L236 19Z"  />
<glyph unicode="&#x39C;" horiz-adv-x="841" d="M901 713Q901 711 901 710T900 706L778 12Q776 4 771 2T759 0H595Q587 0 586 6T584 20L648 387Q648 389 648 390T649 393Q649 395 647 397L646 398Q644 398 642 395T631 382L528 249Q513 230 496 230H427Q408 230 401 249L343 386Q341 389 341 392T338 395H337Q335 397 334 397Q329 397 328 387L264 20Q262 12 257 6T246 0H81Q74 0 71 2T67 12L189 706Q191 721 203 732T233 743H337Q356 743 366 735T383 713L483 460Q488 448 492 448Q496 448 506 460L696 713Q707 727 720 735T752 743H870Q884 743 892 735T901 713Z"  />
<glyph unicode="&#x39D;" horiz-adv-x="746" d="M808 723L688 37Q685 22 672 11T644 0H520Q494 0 483 27L335 362Q333 367 331 368T326 370Q321 370 320 361L260 20Q258 12 251 6T236 0H86Q69 0 69 20L189 706Q191 721 204 732T233 743H355Q369 743 376 735T390 714L542 369Q546 360 549 360Q551 360 553 361T556 369L618 723Q620 731 627 737T642 743H792Q808 743 808 727V723Z"  />
<glyph unicode="&#x39E;" horiz-adv-x="620" d="M584 175Q593 175 597 169T602 155L578 20Q576 12 569 6T554 0H66Q48 0 48 20L72 155Q74 163 81 169T96 175H584ZM580 306Q579 298 572 292T557 286H163Q154 286 150 292T146 306L170 441Q172 449 179 455T194 461H588Q598 461 601 455T604 441L580 306ZM685 743Q694 743 698 737T702 723L678 588Q676 580 669 574T654 568H166Q148 568 148 588L172 723Q174 731 181 737T197 743H685Z"  />
<glyph unicode="&#x39F;" horiz-adv-x="707" d="M744 507Q742 487 741 467T736 423L717 320Q700 229 667 166T588 64T482 8T352 -9Q299 -9 253 6T171 51T116 129T95 239Q95 274 103 320L122 423Q140 518 174 581T257 683T363 737T487 753Q539 753 585 739T667 695T723 619T744 507ZM537 485Q537 532 517 553T455 574Q402 574 373 539T328 423L309 320Q306 306 304 294T302 270Q302 216 320 193T384 170Q437 170 466 204T511 320L530 423Q533 441 535 456T537 485Z"  />
<glyph unicode="&#x3A0;" horiz-adv-x="746" d="M792 743Q808 743 808 724L684 20Q682 12 676 6T661 0H498Q481 0 481 20L577 567H368L272 20Q270 12 264 6T249 0H86Q68 0 68 20L192 724Q194 732 201 737T217 743H792Z"  />
<glyph unicode="&#x3A1;" horiz-adv-x="678" d="M744 555Q744 476 718 417T646 319T535 261T394 242Q377 242 354 243T310 245L271 20Q269 12 262 6T247 0H87Q69 0 69 17L185 674Q191 710 206 722T254 740Q273 743 299 745T353 749T411 752T468 753Q520 753 569 742T658 707T720 646T744 555ZM537 527Q537 560 511 571T441 583Q438 583 428 583T405 583T383 582T370 582L340 412Q342 412 352 412T375 411T397 411T410 411Q470 411 503 440T537 527Z"  />
<glyph unicode="&#x3A3;" horiz-adv-x="627" d="M500 407Q508 391 508 378Q508 357 489 336L352 194Q346 188 346 181Q346 175 356 175H587Q596 175 600 170T604 156L580 20Q578 12 572 6T557 0H86Q75 0 67 5T58 21Q58 23 58 23T59 26L78 131Q80 142 85 153T104 180L273 362Q277 366 279 371Q279 375 277 381L172 563Q165 574 164 584T161 602Q161 609 162 612L181 717Q183 730 193 736T217 743H688Q698 743 701 737T704 723L680 587Q678 579 672 574T657 568H426Q414 568 412 560Q412 553 414 549L500 407Z"  />
<glyph unicode="&#x3A4;" horiz-adv-x="594" d="M675 596Q673 588 666 583T651 577H502L404 20Q402 12 395 6T380 0H217Q207 0 204 6T201 20L299 577H147Q130 577 130 596L153 724Q155 732 161 737T176 743H680Q688 743 693 739T698 727L675 596Z"  />
<glyph unicode="&#x3A5;" horiz-adv-x="684" d="M790 733Q790 728 787 722L579 377Q556 340 536 320T493 291L446 20Q444 12 437 6T422 0H259Q249 0 247 6T244 20L291 291Q272 299 258 319T235 377L149 722Q149 724 149 724T148 727Q148 733 152 738T165 743H342Q350 743 353 738T359 724L408 459Q410 449 416 449Q423 449 428 459L571 724Q575 732 580 737T594 743H779Q790 743 790 733Z"  />
<glyph unicode="&#x3A6;" horiz-adv-x="964" d="M799 383Q803 403 804 413T805 431Q805 450 799 465T778 492T738 509T675 517L629 257Q676 260 706 270T756 296T784 334T799 383ZM398 105Q330 106 274 120T178 161T117 231T95 333Q95 348 97 366T104 412Q117 490 151 540T237 620T354 661T499 675L508 731Q510 739 517 745T533 751H696Q706 751 709 745T712 731L703 675Q771 673 827 660T922 620T984 551T1006 448Q1006 433 1004 415T997 368Q983 291 949 241T864 161T746 119T602 105L586 14Q584 6 577 0T562 -6H399Q382 -6 382 12L398 105ZM302 397Q298 377 297 367T296 348Q296 329 302 314T322 286T362 267T425 257L471 517Q424 515 394 507T344 483T316 446T302 397Z"  />
<glyph unicode="&#x3A7;" horiz-adv-x="736" d="M818 733Q818 728 815 724L551 370L700 20Q701 18 701 14Q701 0 686 0H495Q486 0 481 5T473 18L397 196L270 20Q264 12 257 6T242 0H55Q44 0 44 10Q44 16 48 20L316 388L174 724Q173 726 173 729Q173 743 188 743H380Q388 743 393 737T401 724L474 554L592 724Q597 731 604 737T619 743H807Q818 743 818 733Z"  />
<glyph unicode="&#x3A8;" horiz-adv-x="924" d="M182 724Q184 732 191 737T206 743H370Q386 743 386 724L355 546Q350 520 348 500T345 466Q345 448 349 438T364 422T391 414T432 410L487 724Q489 732 496 737T511 743H675Q686 743 688 738T691 724L636 410Q670 412 690 416T724 434T745 474T761 546L792 724Q794 732 801 737T816 743H980Q996 743 996 724L962 525Q947 439 922 385T856 299T754 254T606 239L567 19Q565 11 559 6T544 0H380Q363 0 363 19L402 239Q333 241 284 253T203 291T157 356T142 449Q142 499 154 565L182 724Z"  />
<glyph unicode="&#x3A9;" horiz-adv-x="716" d="M459 573Q403 573 374 543T331 441Q326 416 324 397T321 361Q321 340 327 321T349 289Q354 285 357 283T360 273Q360 271 360 269T359 264L316 21Q313 0 292 0H101Q92 0 86 3T80 16Q80 17 80 18T81 21L101 135Q103 147 110 151T128 155H239L244 182Q208 195 184 214T146 258T127 311T121 370Q121 395 124 420T133 479Q147 558 178 610T256 694T362 739T491 753Q551 753 599 739T682 695T735 621T754 517Q754 499 752 479T744 429Q736 386 724 349T690 281T630 225T536 182L531 155H642Q653 155 657 151T661 135L641 21Q639 9 632 5T615 0H424Q413 0 410 5T406 21L449 264Q451 278 455 281T467 289Q486 301 498 317T518 353T530 391T537 429Q542 453 543 466T544 491Q544 535 524 554T459 573Z"  />
<glyph unicode="&#x3AA;" horiz-adv-x="334" d="M509 828Q506 808 483 808H367Q355 808 352 814T348 828L366 926Q368 934 373 940T391 946H507Q527 946 527 926L509 828ZM275 828Q273 819 269 814T250 808H135Q122 808 119 814T115 828L133 926Q135 934 141 940T159 946H274Q293 946 293 926L275 828ZM380 743Q397 743 397 728L273 20Q271 12 266 6T249 0H85Q77 0 73 5T68 16Q68 17 68 18T69 20L193 724Q195 732 201 737T216 743H380Z"  />
<glyph unicode="&#x3AB;" horiz-adv-x="684" d="M669 828Q666 808 643 808H527Q515 808 512 814T508 828L526 926Q528 934 533 940T551 946H667Q687 946 687 926L669 828ZM435 828Q433 819 429 814T410 808H295Q282 808 279 814T275 828L293 926Q295 934 301 940T319 946H434Q453 946 453 926L435 828ZM790 733Q790 728 787 722L579 377Q556 340 536 320T493 291L446 20Q444 12 437 6T422 0H259Q249 0 247 6T244 20L291 291Q272 299 258 319T235 377L149 722Q149 724 149 724T148 727Q148 733 152 738T165 743H342Q350 743 353 738T359 724L408 459Q410 449 416 449Q423 449 428 459L571 724Q575 732 580 737T594 743H779Q790 743 790 733Z"  />
<glyph unicode="&#x3AC;" horiz-adv-x="632" d="M579 22Q577 14 572 7T554 0H410Q398 0 395 6T391 22L394 39Q372 19 338 5T255 -9Q169 -9 125 46T80 197Q80 217 82 238T88 282L98 340Q110 410 135 458T195 535T270 578T355 591Q408 591 435 577T483 542L486 561Q488 569 493 575T512 582H656Q667 582 670 576T674 561L579 22ZM441 331Q444 350 444 366Q444 400 429 415T377 430Q342 430 320 405T286 320L276 262Q272 239 272 218Q272 183 286 168T328 152Q372 152 395 174T427 250L441 331ZM519 853Q531 853 531 838L492 653Q491 647 488 642T476 636H361Q350 636 350 646Q350 648 350 649T351 653L378 838Q379 843 381 848T394 853H519Z"  />
<glyph unicode="&#x3AD;" horiz-adv-x="540" d="M157 292Q131 309 121 335T111 387Q111 396 112 405T116 432Q132 520 198 555T384 590Q427 590 465 586T533 576T579 562T596 546L580 454Q578 446 575 443T560 439Q522 443 475 445T382 448Q344 448 326 436T308 389Q308 372 320 362T367 352H507Q517 352 519 348T521 337L505 247Q504 241 500 237T485 232H345Q322 232 307 227T284 212T272 191T269 166Q269 147 283 142T327 136Q369 136 413 138T498 144Q500 144 504 144T511 145Q519 145 521 143T523 136Q523 134 523 133T522 130L506 38Q504 30 485 22T434 8T362 -2T278 -6Q66 -6 66 133Q66 151 69 172T81 214T109 256T157 292ZM479 854Q491 854 491 839L452 654Q451 648 448 643T436 637H321Q310 637 310 647Q310 649 310 650T311 654L338 839Q339 844 341 849T354 854H479Z"  />
<glyph unicode="&#x3AE;" horiz-adv-x="632" d="M646 421Q646 401 643 378T636 334L546 -170Q544 -178 537 -185T521 -192H371Q360 -192 357 -187T353 -176Q353 -172 354 -170L445 341Q447 354 449 366T452 392Q452 415 442 423T405 431Q382 431 358 424T320 409L252 22Q250 13 243 7T225 0H82Q59 0 59 22L155 562Q157 570 163 576T178 582H315Q333 582 333 568Q333 566 333 565T332 562L327 536Q380 571 420 581T489 591Q573 591 609 549T646 421ZM520 854Q532 854 532 839L493 654Q492 648 489 643T477 637H362Q351 637 351 647Q351 649 351 650T352 654L379 839Q380 844 382 849T395 854H520Z"  />
<glyph unicode="&#x3AF;" horiz-adv-x="313" d="M256 22Q254 14 250 7T231 0H82Q70 0 67 6T63 22L158 561Q160 569 165 575T184 582H333Q345 582 348 576T351 561L256 22ZM368 854Q380 854 380 839L341 654Q340 648 337 643T325 637H210Q199 637 199 647Q199 649 199 650T200 654L227 839Q228 844 230 849T243 854H368Z"  />
<glyph unicode="&#x3B0;" horiz-adv-x="631" d="M342 151Q380 151 398 171T424 230L482 560Q484 568 490 575T508 582H658Q675 582 675 566Q675 564 675 563T674 560L614 223Q603 161 583 118T528 46T443 4T320 -9Q200 -9 147 44T94 188Q94 205 95 224T101 263L153 560Q155 568 160 575T177 582H327Q338 582 341 575T345 560L287 230Q284 216 284 204Q284 178 297 165T342 151ZM526 854Q538 854 538 839L499 654Q498 648 495 643T483 637H374Q363 637 363 647Q363 649 363 650T364 654L391 839Q392 844 394 849T407 854H526ZM714 690Q712 682 704 676T688 670H572Q553 670 553 690L571 788Q573 796 580 802T596 808H712Q721 808 726 802T732 788L714 690ZM322 690Q320 682 313 676T297 670H181Q171 670 166 676T161 690L179 788Q181 796 189 802T205 808H321Q330 808 335 802T340 788L322 690Z"  />
<glyph unicode="&#x3B1;" horiz-adv-x="632" d="M579 22Q577 14 572 7T554 0H410Q398 0 395 6T391 22L394 39Q372 19 338 5T255 -9Q169 -9 125 46T80 197Q80 217 82 238T88 282L98 340Q110 410 135 458T195 535T270 578T355 591Q408 591 435 577T483 542L486 561Q488 569 493 575T512 582H656Q667 582 670 576T674 561L579 22ZM441 331Q444 350 444 366Q444 400 429 415T377 430Q342 430 320 405T286 320L276 262Q272 239 272 218Q272 183 286 168T328 152Q372 152 395 174T427 250L441 331Z"  />
<glyph unicode="&#x3B2;" horiz-adv-x="667" d="M662 219Q652 159 625 116T559 46T475 5T380 -9Q320 -9 287 -4T247 7L216 -171Q214 -179 208 -185T194 -192H40Q30 -192 27 -186T23 -171L144 516Q192 789 484 789Q546 789 590 774T663 734T705 674T718 599Q718 527 689 476T609 399Q640 382 654 350T669 280Q669 271 668 259T662 219ZM272 150H370Q391 150 411 154T446 170T470 206T479 267Q479 298 460 311T402 325H375Q358 325 358 345L375 441Q377 449 384 455T399 461H426Q461 461 481 473T510 502T522 536T525 561Q525 573 522 584T512 605T490 619T455 624Q401 624 374 596T337 516L272 150Z"  />
<glyph unicode="&#x3B3;" horiz-adv-x="620" d="M376 -170Q374 -178 366 -185T350 -192H201Q192 -192 188 -185T183 -170L214 9Q194 21 181 44T164 106L119 560Q119 569 125 575T139 582H300Q309 582 313 576T318 561L329 196Q329 178 338 178Q346 178 354 196L493 561Q496 570 503 576T519 582H686Q692 582 696 578T701 568Q701 565 701 564T699 560L493 106Q475 66 453 43T407 8L376 -170H376Z"  />
<glyph unicode="&#x3B4;" horiz-adv-x="605" d="M537 558Q582 532 604 486T626 380Q626 369 624 349T621 320L611 262Q599 189 574 138T509 54T418 6T301 -9Q247 -9 206 6T137 48T95 115T81 201Q81 215 82 230T86 262L96 320Q113 422 157 482T268 568L198 623Q188 631 185 637T181 652Q181 659 182 663L198 753Q200 761 205 767T222 773H637Q648 773 650 767T653 753L635 650Q632 631 612 631H410L537 558ZM435 371Q435 404 422 417T379 430Q341 430 320 405T287 320L277 262Q275 251 274 242T272 224Q272 181 285 166T330 151Q368 151 388 174T420 262L430 320Q432 335 433 347T435 371Z"  />
<glyph unicode="&#x3B5;" horiz-adv-x="540" d="M157 292Q131 309 121 335T111 387Q111 396 112 405T116 432Q132 520 198 555T384 590Q427 590 465 586T533 576T579 562T596 546L580 454Q578 446 575 443T560 439Q522 443 475 445T382 448Q344 448 326 436T308 389Q308 372 320 362T367 352H507Q517 352 519 348T521 337L505 247Q504 241 500 237T485 232H345Q322 232 307 227T284 212T272 191T269 166Q269 147 283 142T327 136Q369 136 413 138T498 144Q500 144 503 144T508 145Q523 145 523 136Q523 134 523 133T522 130L506 38Q504 30 485 22T434 8T362 -2T278 -6Q66 -6 66 133Q66 151 69 172T81 214T109 256T157 292Z"  />
<glyph unicode="&#x3B6;" horiz-adv-x="473" d="M334 161Q440 129 440 18Q440 6 439 -7T435 -35Q424 -95 401 -129T346 -180T277 -201T201 -205Q181 -205 159 -203T119 -198T90 -189T78 -176Q78 -172 79 -170L95 -78Q97 -70 103 -65T117 -59Q124 -59 137 -60T164 -62T192 -65T217 -66Q239 -66 255 -61T272 -34Q272 -23 266 -17T250 -6T230 0T210 4Q182 10 157 24T112 63T82 120T70 197Q70 264 90 322T149 434T241 535T364 631H161Q144 631 144 651L162 753Q164 761 171 767T186 773H560Q570 773 573 767T576 753L558 651Q557 640 544 633Q494 600 444 554T354 454T288 343T263 230Q263 197 281 184T334 161Z"  />
<glyph unicode="&#x3B7;" horiz-adv-x="632" d="M646 421Q646 401 643 378T636 334L546 -170Q544 -178 537 -185T521 -192H371Q360 -192 357 -187T353 -176Q353 -172 354 -170L445 341Q447 354 449 366T452 392Q452 415 442 423T405 431Q382 431 358 424T320 409L252 22Q250 13 243 7T225 0H82Q59 0 59 22L155 562Q157 570 163 576T178 582H315Q333 582 333 568Q333 566 333 565T332 562L327 536Q380 571 420 581T489 591Q573 591 609 549T646 421Z"  />
<glyph unicode="&#x3B8;" horiz-adv-x="589" d="M596 271Q570 128 494 61T299 -7Q246 -7 206 9T140 55T100 127T87 221Q87 263 96 311L132 514Q157 656 231 722T427 789Q534 789 587 728T640 562Q640 542 638 520T632 474L596 271ZM416 329H289L282 291Q273 246 273 216Q273 185 284 171T322 157Q359 157 377 188T409 291L416 329ZM314 471H441L445 494Q449 517 451 535T453 567Q453 599 442 612T405 626Q367 626 349 596T318 494L314 471Z"  />
<glyph unicode="&#x3B9;" horiz-adv-x="313" d="M256 22Q254 14 250 7T231 0H82Q70 0 67 6T63 22L158 561Q160 569 165 575T184 582H333Q345 582 348 576T351 561L256 22H256Z"  />
<glyph unicode="&#x3BA;" horiz-adv-x="627" d="M689 582Q701 582 701 572Q701 566 696 561L468 302L596 22Q598 16 598 14Q598 9 595 5T583 0H403Q386 0 378 22L291 250L251 22Q249 14 242 7T227 0H77Q69 0 64 3T58 16Q58 18 58 19T59 22L154 562Q156 570 160 576T179 582H329Q337 582 342 579T347 568Q347 566 347 565T346 562L308 348L474 564Q483 576 489 579T503 582H689Z"  />
<glyph unicode="&#x3BB;" horiz-adv-x="621" d="M420 0Q402 0 402 19L387 381H379Q372 381 365 364L225 20Q222 12 216 6T202 0H33Q19 0 19 13Q19 19 21 22L231 463Q248 500 262 520T290 551T318 564T350 567H363L361 600Q358 642 314 642Q300 642 282 641T245 639T208 637T176 634Q155 634 155 650Q155 651 155 652T156 655L173 752Q174 760 191 766T233 778T286 786T338 789Q397 789 434 778T494 744T526 690T541 616L606 22Q606 0 583 0H420Z"  />
<glyph unicode="&#x3BC;" horiz-adv-x="632" d="M579 20Q577 12 571 6T556 0H417Q400 0 400 20L404 43Q374 23 336 8T245 -9L216 -172Q214 -180 209 -186T193 -192H41Q32 -192 28 -188T23 -177Q23 -175 23 -175T24 -172L153 560Q155 568 160 575T177 582H327Q338 582 341 576T345 560L285 221Q283 210 282 202T281 187Q281 167 290 159T323 150Q349 150 372 156T414 172L482 560Q484 568 489 575T506 582H656Q667 582 670 576T674 560L579 20H579Z"  />
<glyph unicode="&#x3BD;" horiz-adv-x="620" d="M702 568Q702 566 700 560L494 106Q476 67 455 44T411 9T363 -6T313 -9Q288 -9 263 -6T218 9T183 44T165 106L120 560Q120 569 125 575T140 582H301Q309 582 314 576T319 561L330 196Q330 178 338 178Q347 178 355 196L494 561Q497 570 503 576T520 582H687Q693 582 697 578T702 568Z"  />
<glyph unicode="&#x3BE;" horiz-adv-x="478" d="M417 627Q372 627 344 601T316 514Q316 483 331 475T371 466H466Q476 466 479 460T482 446L464 344Q462 336 456 330T441 323H343Q311 323 294 293T276 219Q276 207 279 199T291 185T313 173T347 161Q401 144 425 109T449 20Q449 7 448 -7T444 -36Q433 -96 410 -130T356 -180T288 -201T214 -205Q194 -205 172 -203T132 -198T103 -189T91 -176Q91 -172 92 -170L108 -78Q110 -70 116 -65T130 -59Q137 -59 150 -60T177 -62T205 -65T230 -66Q255 -66 270 -59T285 -29Q285 -16 269 -9T215 6Q186 12 161 24T118 56T88 106T77 178Q77 220 86 254T110 316T145 364T187 398Q166 423 154 458T142 533Q142 544 143 555T146 579Q157 641 182 681T246 746T335 779T445 789Q483 789 517 784T572 773Q588 769 588 752L568 639Q566 631 560 626T544 620Q518 622 486 624T417 627Z"  />
<glyph unicode="&#x3BF;" horiz-adv-x="605" d="M626 380Q626 369 624 349T621 320L611 262Q599 189 574 138T509 54T418 6T301 -9Q247 -9 206 6T137 48T95 115T81 201Q81 215 82 230T86 262L96 320Q109 394 135 445T201 529T292 576T407 591Q459 591 500 576T569 534T611 467T626 380ZM435 371Q435 404 422 417T379 430Q341 430 320 405T287 320L277 262Q275 251 274 242T272 224Q272 181 285 166T330 151Q368 151 388 174T420 262L430 320Q432 335 433 347T435 371Z"  />
<glyph unicode="&#x3C0;" horiz-adv-x="672" d="M663 440Q649 361 639 301T620 197T607 123T598 72L589 19Q587 12 585 6T572 0H409Q396 0 396 13Q396 17 397 20L471 441H344Q330 362 320 302T301 198T288 123T279 72L270 19Q268 12 266 6T253 0H91Q78 0 78 13Q78 17 79 20L153 440H118Q108 440 105 446T102 460L120 562Q122 570 128 576T143 582H728Q737 582 741 576T745 562L727 460Q725 452 718 446T703 440H663H663Z"  />
<glyph unicode="&#x3C1;" horiz-adv-x="616" d="M621 242Q598 110 517 51T311 -9Q273 -9 242 0L211 -171Q209 -179 203 -185T188 -192H38Q29 -192 24 -186T19 -171L110 340Q133 472 212 531T417 591Q525 591 581 533T638 372Q638 355 636 337T631 300L621 242ZM440 320Q444 343 444 364Q444 399 430 414T388 430Q353 430 331 405T297 320L287 262Q283 239 283 218Q283 183 297 167T339 151Q374 151 396 176T430 262L440 320Z"  />
<glyph unicode="&#x3C2;" horiz-adv-x="488" d="M276 246Q273 231 273 219Q273 207 276 199T288 185T310 173T344 161Q451 127 451 16Q451 4 450 -9T446 -36Q435 -96 412 -130T357 -180T288 -201T211 -205Q190 -205 169 -203T129 -198T100 -189T88 -176Q88 -172 89 -170L105 -78Q107 -66 113 -63T127 -59Q134 -59 147 -60T174 -62T202 -65T227 -66Q252 -66 267 -59T282 -29Q282 -15 266 -9T212 6Q151 18 116 62T81 189Q81 206 82 225T88 266L102 348Q124 475 196 533T384 591Q453 591 493 582T534 554L514 441Q511 422 493 422Q467 422 441 425T376 429Q339 429 320 407T290 328L276 246Z"  />
<glyph unicode="&#x3C3;" horiz-adv-x="605" d="M626 380Q626 369 624 349T621 320L611 262Q599 189 574 138T509 54T418 6T301 -9Q247 -9 206 6T137 48T95 115T81 201Q81 215 82 230T86 262L96 320Q109 394 135 445T201 529T292 576T407 591Q446 591 481 582H671Q680 582 684 576T688 562L670 460Q668 452 661 446T646 440H619Q626 413 626 380ZM435 371Q435 404 422 417T379 430Q341 430 320 405T287 320L277 262Q275 251 274 242T272 224Q272 181 285 166T330 151Q368 151 388 174T420 262L430 320Q432 335 433 347T435 371Z"  />
<glyph unicode="&#x3C4;" horiz-adv-x="487" d="M343 22Q341 14 334 7T318 0H169Q160 0 155 7T150 22L224 440H107Q97 440 94 446T91 460L109 563Q111 571 117 576T132 582H559Q568 582 572 577T576 563L558 460Q556 452 549 446T534 440H417L343 22H343Z"  />
<glyph unicode="&#x3C5;" horiz-adv-x="631" d="M342 151Q380 151 398 171T424 230L482 560Q484 568 490 575T508 582H658Q675 582 675 566Q675 564 675 563T674 560L614 223Q603 161 583 118T528 46T443 4T320 -9Q200 -9 147 44T94 188Q94 205 95 224T101 263L153 560Q155 568 160 575T177 582H327Q338 582 341 575T345 560L287 230Q284 216 284 204Q284 178 297 165T342 151Z"  />
<glyph unicode="&#x3C6;" horiz-adv-x="930" d="M932 232Q890 -9 627 -9Q615 -9 595 -7T560 -3L530 -171Q528 -179 524 -185T507 -192H357Q347 -192 343 -187T338 -175V-171L368 -3Q351 -5 331 -7T299 -9Q242 -9 201 6T133 50T93 117T80 203Q80 236 86 272L100 350Q111 413 137 459T202 534T292 577T405 591Q439 591 471 588L500 753Q502 761 508 767T526 773H677Q693 773 693 757V753L664 588Q698 591 733 591Q839 591 895 533T952 376Q952 344 946 310L932 232ZM758 330Q760 341 761 351T762 370Q762 399 750 415T705 432Q683 432 667 431T636 428L588 154Q602 152 619 151T655 149Q697 149 716 178T744 252L758 330ZM274 252Q270 233 270 213Q270 184 282 167T327 149Q345 149 362 150T396 154L444 428Q430 430 415 431T377 432Q334 432 315 404T288 330L274 252Z"  />
<glyph unicode="&#x3C7;" horiz-adv-x="610" d="M301 14L175 -184Q170 -192 160 -192H-1Q-16 -192 -16 -181Q-16 -176 -11 -169L239 203L125 557Q123 563 123 567Q123 572 126 577T139 582H292Q310 582 314 568L370 386L492 574Q497 582 507 582H669Q683 582 683 571Q683 564 679 559L432 196L552 -169Q552 -171 552 -172T553 -175Q553 -182 549 -187T534 -192H378Q368 -192 365 -184L301 14Z"  />
<glyph unicode="&#x3C8;" horiz-adv-x="860" d="M495 -171Q493 -179 488 -185T472 -192H322Q310 -192 307 -186T303 -171L334 0Q284 0 241 11T165 47T115 111T97 206Q97 237 103 275L153 560Q155 568 162 575T179 582H329Q338 582 341 576T345 560L291 255Q288 238 288 225Q288 188 308 176T362 163L466 751Q468 759 473 766T492 773H642Q654 773 656 766T658 751L554 163Q573 163 590 167T620 181T642 209T657 255L711 560Q713 568 718 575T735 582H885Q897 582 900 575T903 560L845 235Q831 160 802 114T730 43T636 9T526 0L495 -171Z"  />
<glyph unicode="&#x3C9;" horiz-adv-x="922" d="M607 253Q604 236 604 222Q604 200 612 188T641 176Q658 176 674 192T702 239T721 317T729 426Q729 459 727 492T722 560Q722 569 727 575T747 582H912Q921 582 926 569T935 534T940 483T942 423Q942 390 940 355T931 284Q917 207 896 152T841 60T760 7T647 -10Q578 -10 536 8T470 55Q435 26 388 8T278 -10Q225 -10 189 4T129 45T96 111T85 199Q85 256 97 324Q106 373 121 419T154 502T188 560T214 582H379Q398 582 398 568Q398 566 396 560Q382 527 369 496T345 434T325 371T310 301Q303 266 303 238Q303 176 343 176Q369 176 383 197T403 253L450 520Q452 529 458 535T476 542H637Q649 542 651 536T654 520L607 253Z"  />
<glyph unicode="&#x3CA;" horiz-adv-x="313" d="M471 657Q469 649 463 643T445 637H329Q317 637 314 641T310 657L328 755Q330 763 336 769T353 775H469Q483 775 486 769T489 755L471 657ZM237 657Q235 646 228 642T212 637H97Q85 637 81 643T77 657L95 755Q97 763 103 769T121 775H236Q247 775 251 769T255 755L237 657ZM256 22Q254 14 250 7T231 0H82Q70 0 67 6T63 22L158 561Q160 569 165 575T184 582H333Q345 582 348 576T351 561L256 22Z"  />
<glyph unicode="&#x3CB;" horiz-adv-x="631" d="M631 657Q629 649 623 643T605 637H489Q477 637 474 641T470 657L488 755Q490 763 496 769T513 775H629Q643 775 646 769T649 755L631 657ZM397 657Q395 646 387 642T372 637H257Q245 637 241 643T237 657L255 755Q257 763 263 769T281 775H396Q407 775 411 769T415 755L397 657ZM342 151Q380 151 398 171T424 230L482 560Q484 568 490 575T508 582H658Q675 582 675 566Q675 564 675 563T674 560L614 223Q603 161 583 118T528 46T443 4T320 -9Q200 -9 147 44T94 188Q94 205 95 224T101 263L153 560Q155 568 160 575T177 582H327Q338 582 341 575T345 560L287 230Q284 216 284 204Q284 178 297 165T342 151Z"  />
<glyph unicode="&#x3CC;" horiz-adv-x="605" d="M517 853Q529 853 529 838L490 653Q489 647 486 642T474 636H359Q348 636 348 646Q348 648 348 649T349 653L376 838Q377 843 379 848T392 853H517ZM626 380Q626 369 624 349T621 320L611 262Q599 189 574 138T509 54T418 6T301 -9Q247 -9 206 6T137 48T95 115T81 201Q81 215 82 230T86 262L96 320Q109 394 135 445T201 529T292 576T407 591Q459 591 500 576T569 534T611 467T626 380ZM435 371Q435 404 422 417T379 430Q341 430 320 405T287 320L277 262Q275 251 274 242T272 224Q272 181 285 166T330 151Q368 151 388 174T420 262L430 320Q432 335 433 347T435 371Z"  />
<glyph unicode="&#x3CD;" horiz-adv-x="631" d="M342 151Q380 151 398 171T424 230L482 560Q484 568 490 575T508 582H658Q675 582 675 566Q675 564 675 563T674 560L614 223Q603 161 583 118T528 46T443 4T320 -9Q200 -9 147 44T94 188Q94 205 95 224T101 263L153 560Q155 568 160 575T177 582H327Q338 582 341 575T345 560L287 230Q284 216 284 204Q284 178 297 165T342 151ZM527 854Q539 854 539 839L500 654Q499 648 496 643T484 637H369Q358 637 358 647Q358 649 358 650T359 654L386 839Q387 844 389 849T402 854H527Z"  />
<glyph unicode="&#x3CE;" horiz-adv-x="922" d="M607 253Q604 236 604 222Q604 200 612 188T641 176Q658 176 674 192T702 239T721 317T729 426Q729 459 727 492T722 560Q722 569 727 575T747 582H912Q921 582 926 569T935 534T940 483T942 423Q942 390 940 355T931 284Q917 207 896 152T841 60T760 7T647 -10Q578 -10 536 8T470 55Q435 26 388 8T278 -10Q225 -10 189 4T129 45T96 111T85 199Q85 256 97 324Q106 373 121 419T154 502T188 560T214 582H379Q398 582 398 568Q398 566 396 560Q382 527 369 496T345 434T325 371T310 301Q303 266 303 238Q303 176 343 176Q369 176 383 197T403 253L450 520Q452 529 458 535T476 542H637Q649 542 651 536T654 520L607 253ZM670 854Q682 854 682 839L643 654Q642 648 639 643T627 637H512Q501 637 501 647Q501 649 501 650T502 654L529 839Q530 844 532 849T545 854H670Z"  />
<glyph unicode="&#x2013;" horiz-adv-x="309" d="M367 249Q365 241 359 236T344 230H44Q25 230 28 249L44 339Q46 347 52 353T67 359H367Q375 359 380 353T383 339L367 249H367Z"  />
<glyph unicode="&#x2014;" horiz-adv-x="599" d="M657 249Q655 241 649 236T634 230H44Q25 230 28 249L44 339Q46 347 52 353T67 359H657Q665 359 670 353T673 339L657 249H657Z"  />
<glyph unicode="&#x2018;" horiz-adv-x="277" d="M391 766Q391 761 388 754L289 524Q281 505 266 505H122Q112 505 112 513Q112 518 115 524L238 754Q243 764 247 768T260 773H383Q391 773 391 766Z"  />
<glyph unicode="&#x2019;" horiz-adv-x="277" d="M390 765Q390 760 387 754L264 524Q259 514 255 510T242 505H119Q111 505 111 512Q111 516 114 524L213 754Q221 773 236 773H380Q390 773 390 765Z"  />
<glyph unicode="&#x201A;" horiz-adv-x="277" d="M304 168Q304 163 301 159L155 -79Q150 -87 144 -93T129 -99H25Q9 -99 9 -85Q9 -81 10 -79L119 159Q123 167 129 173T144 179H291Q304 179 304 168Z"  />
<glyph unicode="&#x201C;" horiz-adv-x="515" d="M629 766Q629 761 626 754L527 524Q519 505 504 505H360Q350 505 350 513Q350 518 353 524L475 754Q480 764 484 768T497 773H621Q629 773 629 766ZM390 766Q390 761 387 754L289 524Q281 505 266 505H122Q112 505 112 513Q112 518 115 524L237 754Q242 764 246 768T259 773H382Q390 773 390 766Z"  />
<glyph unicode="&#x201D;" horiz-adv-x="515" d="M628 765Q628 760 625 754L502 524Q497 514 493 510T480 505H357Q349 505 349 512Q349 516 352 524L451 754Q459 773 474 773H618Q628 773 628 765ZM389 765Q389 760 386 754L264 524Q259 514 255 510T242 505H119Q111 505 111 512Q111 516 114 524L213 754Q221 773 236 773H379Q389 773 389 765Z"  />
<glyph unicode="&#x201E;" horiz-adv-x="515" d="M540 168Q540 163 537 159L391 -79Q386 -87 380 -93T365 -99H261Q245 -99 245 -85Q245 -81 246 -79L355 159Q359 167 365 173T380 179H527Q540 179 540 168ZM295 168Q295 163 292 159L146 -79Q141 -87 135 -93T120 -99H16Q0 -99 0 -85Q0 -81 1 -79L110 159Q114 167 120 173T135 179H282Q295 179 295 168Z"  />
<glyph unicode="&#x2020;" horiz-adv-x="455" d="M530 581L508 454Q505 438 486 438H400L325 14Q323 6 319 0T306 -6H144Q131 -6 131 9V14L206 438H124Q108 438 108 451V454L130 581Q133 596 152 596H234L262 754Q264 762 269 767T282 773H443Q450 773 453 769T456 758V754L428 596H514Q530 596 530 584V581Z"  />
<glyph unicode="&#x2021;" horiz-adv-x="455" d="M530 581L508 454Q505 438 486 438H400L386 360H472Q489 360 489 348V345L466 218Q463 202 445 202H359L325 14Q323 6 319 0T306 -6H144Q131 -6 131 9V14L165 202H83Q66 202 66 215V218L89 345Q92 360 110 360H192L206 438H124Q108 438 108 451V454L130 581Q133 596 152 596H234L262 754Q264 762 269 767T282 773H443Q450 773 453 769T456 758V754L428 596H514Q530 596 530 584V581Z"  />
<glyph unicode="&#x2022;" horiz-adv-x="418" d="M440 367Q440 332 427 301T390 247T335 211T269 197Q234 197 203 210T149 247T113 301T99 367Q99 402 112 433T149 487T203 524T269 538Q304 538 335 525T389 488T426 433T440 367Z"  />
<glyph unicode="&#x2026;" horiz-adv-x="833" d="M813 159L789 20Q787 12 780 6T765 0H619Q602 0 602 17V20L626 159Q628 167 635 173T651 179H797Q813 179 813 163V159ZM538 159L514 20Q512 12 505 6T490 0H344Q327 0 327 17V20L351 159Q353 167 360 173T376 179H522Q538 179 538 163V159ZM263 159L239 20Q237 12 230 6T215 0H69Q52 0 52 17V20L76 159Q78 167 85 173T101 179H247Q263 179 263 163V159Z"  />
<glyph unicode="&#x2030;" horiz-adv-x="1223" d="M1235 281Q1235 270 1234 259T1231 235L1219 167Q1202 71 1157 31T1036 -9Q974 -9 942 26T909 123Q909 134 910 144T913 167L925 235Q934 286 950 319T989 373T1043 401T1110 410Q1173 410 1204 376T1235 281ZM879 281Q879 270 878 259T875 235L863 167Q846 71 801 31T680 -9Q618 -9 586 26T553 123Q553 134 554 144T557 167L569 235Q578 286 594 319T633 373T687 401T754 410Q817 410 848 376T879 281ZM852 736Q852 730 846 723L308 22Q300 11 294 6T280 0H158Q147 0 147 10Q147 15 152 22L690 723Q699 734 705 738T720 743H843Q852 743 852 736ZM448 624Q448 613 447 602T444 578L432 510Q415 414 370 374T249 334Q187 334 155 369T122 466Q122 477 123 487T126 510L138 578Q147 629 163 662T202 716T256 744T323 753Q386 753 417 719T448 624ZM1120 279Q1120 299 1113 305T1092 312Q1082 312 1074 309T1060 298T1049 275T1040 235L1028 167Q1026 153 1025 143T1023 125Q1023 103 1030 96T1052 89Q1072 89 1083 103T1103 167L1115 235Q1117 249 1118 260T1120 279ZM764 279Q764 299 757 305T736 312Q726 312 718 309T704 298T693 275T684 235L672 167Q670 153 669 143T667 125Q667 103 674 96T696 89Q716 89 727 103T747 167L759 235Q761 249 762 260T764 279ZM333 622Q333 642 326 648T305 655Q295 655 287 652T273 641T262 618T253 578L241 510Q239 496 238 486T236 468Q236 446 243 439T265 432Q285 432 296 446T316 510L328 578Q330 592 331 603T333 622Z"  />
<glyph unicode="&#x2039;" horiz-adv-x="425" d="M477 512Q477 506 470 499L255 287L387 82Q390 77 390 73Q390 60 376 60H246Q236 60 230 62T219 71L94 263Q87 274 84 280T80 295Q80 300 81 306T88 318L280 509Q287 516 294 518T311 520H466Q477 520 477 512Z"  />
<glyph unicode="&#x203A;" horiz-adv-x="425" d="M440 285Q440 280 439 274T432 262L240 71Q233 64 226 62T209 60H54Q43 60 43 68Q43 74 50 81L265 293L133 498Q130 502 130 507Q130 520 144 520H274Q284 520 290 518T301 509L426 317Q433 306 436 300T440 285Z"  />
<glyph unicode="&#x20AC;" horiz-adv-x="666" d="M707 719Q707 717 707 716T706 713L684 592Q680 573 661 573H660Q630 576 599 578T531 580Q508 580 490 577T456 563T429 535T408 487H600Q610 487 610 480Q610 477 609 475L584 413Q581 405 577 403T566 401H386L376 345H539Q550 345 550 336Q550 333 548 327L525 274Q522 268 518 264T506 259H367Q367 228 372 209T389 180T418 167T458 163Q495 163 526 165T589 171Q608 171 608 157Q608 156 608 155T607 152L585 31Q580 12 537 2T421 -9Q365 -9 318 7T235 54T180 131T160 237Q160 242 160 247T161 259H121Q104 259 104 279L112 325Q114 333 121 339T136 345H172L179 401H146Q129 401 129 421L137 467Q139 475 146 481T161 487H196Q229 626 319 689T542 753Q566 753 595 751T649 745T690 734T707 719Z"  />
<glyph unicode="&#x2122;" horiz-adv-x="847" d="M903 351Q903 341 892 341H799Q788 341 788 351V589Q788 607 786 618T779 635T762 643T733 645V351Q733 341 722 341H628Q618 341 618 351V645Q603 645 590 644T563 642V351Q563 341 552 341H459Q448 341 448 351V699Q448 721 455 729T481 739Q531 744 582 746T675 748Q732 748 775 743T846 722T889 674T903 589V351ZM418 661Q418 649 406 649H330V352Q330 341 318 341H223Q211 341 211 352V649H133Q121 649 121 661V731Q121 736 124 739T133 743H406Q411 743 414 740T418 731V661Z"  />

</font>
</defs>
</svg>
