<?xml  version="1.0" encoding="UTF-8"?>
<!DOCTYPE svg PUBLIC "-//W3C//DTD SVG 1.0//EN" "http://www.w3.org/TR/2001/REC-SVG-20010904/DTD/svg10.dtd" >
<svg xmlns="http://www.w3.org/2000/svg" >
<metadata>
<version>1.0</version>
<id><![CDATA[Neo Sans W01 Black Italic]]></id>
<vendor>Monotype Imaging Inc.</vendor>
<credits>
<name>Fonts.com WebFonts</name>
<URL>http://webfonts.fonts.com</URL>
<role>Home of the Web fonts</role>
</credits>
<license>
<URL>http://webfonts.fonts.com/Legal</URL>
</license>
<copyright><![CDATA[Copyright 2004 Monotype Imaging Inc. All Rights Reserved. Neo Sans is designed by Sebastian Lester.]]></copyright>
<trademark><![CDATA[Neo Sans is a trademark of Monotype Imaging Inc. and may be registered in certain jurisdictions.]]></trademark>
<licensee>
<name></name>
</licensee>
</metadata>
<defs >
<font horiz-adv-x="577" id="9e9a0b19-a155-47d9-b07d-83f320fdb1d5">
<font-face font-family="" panose-1="2 11 10 4 3 5 4 9 2 4" ascent="1025" descent="-216" units-per-em="1000" alphabetic="0">
</font-face>
<missing-glyph horiz-adv-x="240" />

<glyph unicode="&#xA;" />
<glyph unicode="&#xD;" horiz-adv-x="0" />
<glyph unicode=" " horiz-adv-x="240" />
<glyph unicode="!" horiz-adv-x="291" d="M378 753L266 262Q264 254 257 248T242 241H136Q128 241 123 246T118 259V262L180 753Q181 761 189 767T205 773H361Q378 773 378 757V753ZM267 159L243 20Q241 12 234 6T219 0H73Q57 0 57 16V20L81 159Q83 167 90 173T105 179H251Q267 179 267 163V159Z"  />
<glyph unicode="&quot;" horiz-adv-x="504" d="M619 765Q619 760 616 754L494 524Q489 514 485 510T472 505H349Q341 505 341 512Q341 516 344 524L442 754Q450 773 465 773H609Q619 773 619 765ZM381 765Q381 760 378 754L256 524Q251 514 247 510T234 505H111Q103 505 103 512Q103 516 106 524L204 754Q212 773 227 773H371Q381 773 381 765Z"  />
<glyph unicode="#" horiz-adv-x="715" d="M763 549Q763 548 763 547T762 545L735 456Q730 443 715 443H637L598 298H677Q683 298 688 294T693 285Q693 284 693 283T692 281L665 195Q663 189 658 185T645 180H567L524 19Q522 11 517 6T503 0H378Q364 0 364 14Q364 15 364 16T365 19L407 180H311L268 19Q266 11 261 6T247 0H120Q106 0 106 14Q106 16 106 16T107 19L150 180H73Q67 180 63 183T58 191Q58 192 58 193T59 195L86 283Q88 289 93 293T106 298H182L220 443H143Q129 443 129 454Q129 455 129 455T130 458L156 547Q158 554 164 557T177 561H251L294 724Q296 732 302 737T316 743H443Q456 743 456 729Q456 726 455 724L411 561H508L552 724Q554 732 560 737T574 743H699Q712 743 712 730Q712 726 711 724L667 561H748Q754 561 758 558T763 549ZM381 443L342 298H439L477 443H381Z"  />
<glyph unicode="$" horiz-adv-x="666" d="M694 708L672 584Q670 576 665 571T651 565H649Q606 569 554 573T424 578Q403 578 386 571T368 538Q368 527 377 518T412 493L533 421Q579 394 606 352T633 255Q633 203 616 160T567 83T492 28T398 -1L381 -98Q379 -106 372 -112T357 -118H228Q212 -118 212 -102V-98L228 -5Q193 -2 164 3T109 17Q93 22 93 34V37L114 160Q116 168 122 174T137 180H139Q170 177 221 171T338 165Q368 165 389 177T411 224Q411 235 403 245T372 269L243 354Q198 383 178 428T157 519Q157 565 172 603T214 670T278 718T360 745L377 833Q379 841 386 847T401 853H530Q546 853 546 837V833L530 749Q576 745 617 740T678 728Q684 726 689 722T694 711V708Z"  />
<glyph unicode="%" horiz-adv-x="867" d="M879 281Q879 270 878 259T875 235L863 167Q846 71 801 31T680 -9Q618 -9 586 26T553 123Q553 134 554 144T557 167L569 235Q578 286 594 319T633 373T687 401T754 410Q817 410 848 376T879 281ZM852 736Q852 730 846 723L308 22Q300 11 294 6T280 0H158Q147 0 147 10Q147 15 152 22L690 723Q699 734 705 738T720 743H843Q852 743 852 736ZM448 624Q448 613 447 602T444 578L432 510Q415 414 370 374T249 334Q187 334 155 369T122 466Q122 477 123 487T126 510L138 578Q147 629 163 662T202 716T256 744T323 753Q386 753 417 719T448 624ZM764 279Q764 299 757 305T736 312Q726 312 718 309T704 298T693 275T684 235L672 167Q670 153 669 143T667 125Q667 103 674 96T696 89Q716 89 727 103T747 167L759 235Q761 249 762 260T764 279ZM333 622Q333 642 326 648T305 655Q295 655 287 652T273 641T262 618T253 578L241 510Q239 496 238 486T236 468Q236 446 243 439T265 432Q285 432 296 446T316 510L328 578Q330 592 331 603T333 622Z"  />
<glyph unicode="&amp;" horiz-adv-x="746" d="M746 345Q737 288 714 236T654 139L741 26Q744 23 744 16Q744 0 728 0H557Q551 0 549 2T541 9L521 33Q480 13 436 2T338 -9Q286 -9 239 -1T156 29T99 89T78 187Q78 226 92 257T129 313T182 358T244 396L237 406Q205 451 194 487T182 551Q182 610 205 649T266 711T352 743T450 753Q505 753 547 740T616 706T658 657T672 600Q672 560 660 529T628 473T579 427T520 387L480 362L564 252Q575 272 583 295T595 345L597 358Q599 366 605 372T620 378H733Q742 378 745 373T748 359V358L746 345ZM493 582Q493 600 480 611T438 622Q358 622 358 546Q358 532 363 518T386 483L392 476L419 492Q432 500 445 508T469 527T486 550T493 582ZM331 280Q299 262 286 238T272 188Q272 162 291 144T356 125Q403 125 439 140L331 280Z"  />
<glyph unicode="&apos;" horiz-adv-x="233" d="M381 765Q381 760 378 754L256 524Q251 514 247 510T234 505H111Q103 505 103 512Q103 516 106 524L204 754Q212 773 227 773H371Q381 773 381 765Z"  />
<glyph unicode="(" horiz-adv-x="389" d="M488 735Q488 728 480 717Q376 571 325 417T273 84Q273 6 284 -56T314 -169Q317 -175 317 -182Q317 -195 303 -195H183Q172 -195 164 -192T151 -181Q118 -112 100 -43T81 113Q81 197 94 280T135 441T204 593T302 729Q310 737 318 740T338 743H478Q488 743 488 735Z"  />
<glyph unicode=")" horiz-adv-x="389" d="M405 428Q405 346 392 264T352 103T285 -47T189 -181Q181 -189 178 -192T164 -195H7Q-4 -195 -4 -186Q-4 -180 3 -169Q56 -94 95 -21T161 130T201 290T214 463Q214 541 203 603T173 717Q171 725 171 729Q171 743 185 743H306Q317 743 322 740T333 729Q368 664 386 590T405 428Z"  />
<glyph unicode="*" horiz-adv-x="485" d="M556 561Q556 549 540 544L429 512L499 418Q505 410 505 403Q505 395 498 391L435 345Q430 342 425 342Q416 342 409 352L343 449L277 352Q270 342 261 342Q255 342 251 345L187 391Q180 395 180 403Q180 410 186 418L256 512L146 544Q139 546 134 550T129 561Q129 564 130 566L155 642Q158 652 168 652Q171 652 173 652T179 650L290 613L287 728V729Q287 737 291 743T303 749H383Q391 749 394 743T398 728L397 613L506 650Q509 651 511 651T517 652Q527 652 530 642L555 566Q556 564 556 561Z"  />
<glyph unicode="+" horiz-adv-x="666" d="M646 336Q646 328 640 324T626 320H470V165Q470 157 466 151T454 145H344Q336 145 332 151T328 165V320H173Q165 320 159 324T153 336V446Q153 454 159 458T173 462H328V618Q328 626 332 632T344 638H454Q462 638 466 632T470 618V462H626Q634 462 640 458T646 446V336H646Z"  />
<glyph unicode="&#x2c;" horiz-adv-x="291" d="M295 168Q295 163 292 159L146 -79Q141 -87 135 -93T120 -99H16Q0 -99 0 -85Q0 -81 1 -79L110 159Q114 167 120 173T135 179H282Q295 179 295 168Z"  />
<glyph unicode="-" horiz-adv-x="282" d="M320 352L302 250Q300 242 294 237T279 231H86Q69 231 69 247V250L87 352Q89 360 95 365T110 371H303Q320 371 320 355V352Z"  />
<glyph unicode="." horiz-adv-x="291" d="M267 159L243 20Q241 12 234 6T218 0H73Q56 0 56 17V20L80 159Q82 167 89 173T105 179H250Q267 179 267 162V159Z"  />
<glyph unicode="/" horiz-adv-x="425" d="M541 730Q541 729 539 723L211 22Q207 14 201 7T187 0H29Q14 0 14 14Q14 16 16 22L345 723Q349 731 354 737T368 743H526Q541 743 541 730Z"  />
<glyph unicode="0" horiz-adv-x="666" d="M691 516Q691 471 682 420L665 323Q649 230 621 167T551 64T454 8T328 -9Q219 -9 160 51T100 228Q100 272 109 323L126 420Q142 515 172 579T244 681T341 736T463 753Q575 753 633 692T691 516ZM488 509Q488 554 473 567T432 581Q416 581 402 576T374 553T350 505T330 420L313 323Q308 294 306 272T303 233Q303 189 318 176T359 162Q377 162 392 167T419 189T441 237T461 323L478 420Q483 449 485 470T488 509Z"  />
<glyph unicode="1" horiz-adv-x="666" d="M266 171L331 541L206 499Q198 496 194 496Q184 496 186 508L211 650Q213 657 215 660T226 667L411 739Q420 743 435 743H550Q568 743 565 724L468 171H587Q595 171 600 165T603 151L580 20Q578 12 572 6T557 0H116Q108 0 103 6T99 20L122 151Q124 159 131 165T146 171H266Z"  />
<glyph unicode="2" horiz-adv-x="666" d="M697 588Q697 515 658 460T557 368L466 314Q410 281 377 258T325 218T301 190T293 171H595Q612 171 612 154V151L589 20Q587 12 580 6T565 0H99Q83 0 83 16V20L101 126Q115 209 155 269T264 376L361 440Q403 467 428 484T468 514T488 537T493 560Q493 575 475 583T406 592Q358 592 308 588T209 580H207Q193 580 193 596V600L210 697Q212 705 218 709T232 716Q280 732 338 742T459 753Q522 753 567 740T641 705T683 652T697 588Z"  />
<glyph unicode="3" horiz-adv-x="666" d="M695 589Q695 520 665 466T570 379Q597 363 618 333T639 259Q639 186 614 135T547 52T447 6T324 -9Q293 -9 262 -6T201 1T147 12T106 25Q100 27 95 31T90 42V45L107 143Q110 162 129 162H131Q177 159 234 156T337 152Q393 152 415 177T438 256Q438 278 424 290T370 303H204Q188 303 188 319V323L207 430Q209 438 215 443T230 449H396Q447 449 469 478T492 555Q492 576 476 583T422 591Q370 591 314 588T209 580H207Q192 580 192 595V599L209 697Q211 705 218 709T233 717Q271 731 330 742T451 753Q502 753 546 744T624 714T676 663T695 589Z"  />
<glyph unicode="4" horiz-adv-x="666" d="M678 289L658 175Q656 167 649 161T634 155H576L553 20Q551 12 544 6T529 0H365Q350 0 350 16V20L373 155H94Q78 155 78 171V175L98 288Q101 305 114 318L511 734Q517 740 523 741T537 743H660Q676 743 676 727V723L603 309H661Q678 309 678 292V289ZM441 498Q441 502 440 502H439L267 318Q263 314 263 310Q263 309 264 309H408L441 496V498Z"  />
<glyph unicode="5" horiz-adv-x="666" d="M711 724L689 600Q687 592 680 587T665 581H393L364 471H405Q469 471 515 458T591 419T634 359T648 279Q648 271 648 263T646 246L645 236Q632 107 549 49T317 -9Q265 -9 214 -1T121 24Q114 26 109 30T104 42V45L121 144Q123 152 129 157T144 163H146Q163 161 187 159T236 156T280 153T311 152Q348 152 371 156T409 170T429 196T438 236L439 246Q440 251 440 255T440 264Q440 295 421 306T346 317H171Q156 317 156 331Q156 332 156 333T157 335L257 724Q259 732 265 737T280 743H694Q711 743 711 727V724Z"  />
<glyph unicode="6" horiz-adv-x="666" d="M705 708Q705 707 705 706T704 703L685 598Q682 577 664 577H659Q624 582 576 586T482 591Q451 591 430 587T393 569T369 534T353 476L352 470Q359 471 371 473T397 476T425 479T450 480Q549 480 607 435T665 303Q665 229 643 171T580 73T479 12T346 -9Q292 -9 249 6T176 50T130 119T113 210Q113 224 114 239T118 270L151 460Q166 544 195 600T268 691T365 739T482 753Q552 753 601 745T686 727Q705 722 705 708ZM466 290Q466 322 449 332T399 343Q381 343 361 341T328 337L317 270Q314 250 313 237T311 210Q311 169 326 156T369 142Q398 142 417 156T447 191T462 239T466 290Z"  />
<glyph unicode="7" horiz-adv-x="666" d="M719 717L703 625Q701 613 695 602T681 580L337 20Q332 11 326 6T310 0H132Q115 0 115 13Q115 17 118 22L471 576V577Q471 579 468 580T463 582H222Q205 582 205 598V601L226 724Q228 732 235 737T250 743H697Q719 743 719 721V717Z"  />
<glyph unicode="8" horiz-adv-x="666" d="M707 581Q707 453 600 385Q623 365 638 328T654 253Q654 184 629 135T560 53T459 6T339 -9H324Q266 -9 222 6T147 46T102 105T86 177Q86 240 117 295T200 385Q177 408 162 438T147 504Q147 575 172 623T240 700T339 741T459 753H471Q583 753 645 706T707 581ZM511 550Q511 576 496 590T443 605H433Q384 605 361 577T338 503Q338 479 352 466T401 452H423Q468 452 489 479T511 550ZM460 258Q460 280 447 297T398 314H376Q350 314 333 304T305 278T290 241T285 197Q285 171 300 155T351 139H366Q392 139 410 149T439 175T455 213T460 258Z"  />
<glyph unicode="9" horiz-adv-x="666" d="M694 534Q694 520 693 505T689 474L656 284Q641 200 612 144T539 53T442 5T325 -9Q255 -9 206 -1T121 17Q102 22 102 36Q102 37 102 38T103 41L122 146Q125 167 143 167H148Q183 162 231 158T325 153Q356 153 377 157T414 175T438 210T454 268L455 274Q447 272 435 271T410 268T382 265T357 264Q258 264 200 309T142 441Q142 515 164 573T227 671T327 732T461 753Q515 753 558 738T631 694T677 625T694 534ZM496 534Q496 575 481 588T438 602Q409 602 390 588T360 553T345 505T341 454Q341 422 358 412T408 401Q426 401 446 403T479 407L490 474Q493 494 494 507T496 534Z"  />
<glyph unicode=":" horiz-adv-x="290" d="M332 530L308 391Q306 383 299 377T283 371H138Q121 371 121 388V391L145 530Q147 538 154 544T170 550H315Q332 550 332 533V530ZM267 159L243 20Q241 12 234 6T218 0H73Q56 0 56 17V20L80 159Q82 167 89 173T105 179H250Q267 179 267 162V159Z"  />
<glyph unicode=";" horiz-adv-x="290" d="M332 530L308 391Q306 383 299 377T283 371H137Q121 371 121 387V391L145 530Q147 538 154 544T169 550H315Q332 550 332 533V530ZM265 166Q265 162 262 158L117 -80Q112 -88 107 -94T93 -100H-15Q-31 -100 -31 -87Q-31 -84 -29 -80L80 158Q84 166 90 172T104 178H251Q265 178 265 166Z"  />
<glyph unicode="&lt;" horiz-adv-x="666" d="M608 148Q608 136 596 136H428Q412 136 402 146L168 359Q150 375 150 391Q150 409 168 424L402 636Q408 641 414 644T428 647H596Q608 647 608 635Q608 629 602 623L345 391L602 160Q608 154 608 148Z"  />
<glyph unicode="=" horiz-adv-x="666" d="M640 471Q640 463 634 459T620 455H188Q180 455 174 459T168 471V581Q168 589 174 593T188 597H620Q628 597 634 593T640 581V471ZM640 201Q640 193 634 189T620 185H188Q180 185 174 189T168 201V311Q168 319 174 323T188 327H620Q628 327 634 323T640 311V201Z"  />
<glyph unicode="&gt;" horiz-adv-x="666" d="M644 391Q644 375 626 359L392 146Q382 136 366 136H198Q186 136 186 148Q186 154 192 160L450 391L192 623Q186 629 186 635Q186 647 198 647H366Q374 647 380 644T392 636L626 424Q644 409 644 391Z"  />
<glyph unicode="?" horiz-adv-x="492" d="M564 644Q564 595 545 552T487 464L354 311Q341 296 335 286T324 260Q320 246 309 246H170Q165 246 162 250T159 258V259L165 294Q168 312 172 326T181 353T195 379T214 407L319 545Q326 554 331 563T336 583Q336 594 327 598T295 602Q285 602 267 601T228 598T190 594T162 591H159Q146 591 146 606V611L166 728Q169 745 189 751Q224 762 267 769T357 776Q453 776 508 743T564 644ZM316 159L292 20Q290 12 283 6T267 0H121Q105 0 105 16V20L129 159Q131 167 138 173T153 179H299Q316 179 316 162V159Z"  />
<glyph unicode="@" horiz-adv-x="778" d="M789 395Q789 386 789 377T787 358Q778 270 742 210T652 113T527 59T378 42Q342 42 312 49T259 72T224 112T211 171Q211 176 211 180T212 190L215 208L236 323Q245 370 265 403T315 456T382 486T461 496Q493 496 528 492T595 480Q619 475 619 454Q619 449 618 446L559 153Q588 159 612 176T653 221T682 282T697 358Q698 366 698 373T699 388Q699 427 687 463T650 526T584 570T486 586Q223 586 175 344L142 179Q140 170 139 161T137 144Q136 136 136 129T135 114Q135 37 188 -3T364 -44Q402 -44 442 -42T518 -36H520Q527 -36 527 -44V-47L522 -92Q520 -103 511 -104Q478 -108 440 -111T357 -115Q289 -115 232 -102T132 -60T67 11T43 113Q43 121 43 128T45 144L50 179L85 350Q100 424 134 482T221 581T342 643T495 665Q571 665 626 643T718 584T771 498T789 395ZM474 383Q463 385 456 386T439 387Q406 387 391 374T367 319L344 209L342 193Q342 191 342 189T341 184Q341 164 354 157T399 150Q407 150 414 150T428 151L474 383Z"  />
<glyph unicode="A" horiz-adv-x="692" d="M676 20Q676 12 671 6T657 0H487Q479 0 475 5T470 19L467 158H289L236 19Q233 11 227 6T213 0H36Q22 0 22 13Q22 15 24 21L266 633Q281 670 302 693T351 730T411 747T479 752Q515 752 545 748T598 730T634 694T650 633L676 21V20ZM462 572Q462 579 461 582T453 586Q446 586 444 583T440 572L346 318H466L462 572Z"  />
<glyph unicode="B" horiz-adv-x="682" d="M734 581Q734 559 730 539L727 522Q722 494 711 471T685 430T655 400T625 380Q634 374 644 363T662 337T676 302T682 260Q682 254 682 248T680 235L678 222Q667 151 636 106T558 36T449 1T314 -9Q295 -9 269 -9T216 -7T164 -3T122 3Q94 8 82 18T69 52Q69 64 72 79L175 666Q182 706 198 721T251 741Q267 744 292 746T345 749T399 752T445 753Q508 753 561 744T653 715T712 662T734 581ZM532 536Q532 561 513 574T441 588Q438 588 427 588T402 588T377 587T362 587L336 445H433Q483 445 504 463T529 508L531 524Q532 528 532 536ZM487 255Q487 278 469 293T409 309H312L286 156H368Q426 156 451 176T483 228L485 237Q486 242 486 246T487 255Z"  />
<glyph unicode="C" horiz-adv-x="555" d="M643 712L620 584Q617 565 599 565H596Q566 568 533 571T457 574Q437 574 418 569T381 548T351 502T328 423L309 320Q303 284 303 259Q303 231 310 214T328 186T354 173T386 169Q429 169 462 172T527 178H530Q545 178 545 164V159L522 31Q520 21 515 17T497 9Q476 2 440 -3T355 -9Q299 -9 252 6T169 53T115 130T95 239Q95 274 103 320L122 423Q139 517 171 580T250 682T356 737T486 753Q533 753 569 747T624 734Q632 731 637 728T643 717V712Z"  />
<glyph unicode="D" horiz-adv-x="697" d="M733 503Q733 465 726 427L707 317Q677 145 582 68T324 -9Q252 -9 194 -4T98 8Q85 10 79 16T72 35Q72 42 73 47L188 697Q192 717 201 725T227 736Q267 743 327 748T459 753Q522 753 572 737T659 690T714 611T733 503ZM527 489Q527 543 502 561T428 579Q423 579 415 579T397 579T381 578T371 578L298 165Q301 165 308 165T324 164T341 164T355 164Q385 164 409 171T451 195T481 242T502 317L521 427Q527 463 527 489Z"  />
<glyph unicode="E" horiz-adv-x="586" d="M659 721L638 599Q636 591 629 585T614 579H412Q385 579 373 569T355 529L342 456H588Q605 456 605 439V436L584 318Q582 310 576 304T561 298H315L300 215Q299 209 299 205T298 195Q298 178 307 172T339 165H541Q558 165 558 148V145L536 23Q533 6 513 3Q484 -1 437 -5T316 -9Q272 -9 232 -1T160 28T111 82T92 164Q92 176 93 188T97 215L152 529Q165 605 193 649T260 717T347 746T448 753Q521 753 568 749T643 741Q659 740 659 725V721Z"  />
<glyph unicode="F" horiz-adv-x="591" d="M665 720L643 598Q641 590 635 584T620 578H418Q391 578 379 568T361 528L348 456H594Q611 456 611 439V436L590 318Q588 310 582 304T567 298H321L272 20Q270 12 263 6T248 0H85Q69 0 69 16V20L158 528Q171 604 200 648T269 716T356 746T454 753Q527 753 573 749T648 740Q665 738 665 724V720Z"  />
<glyph unicode="G" horiz-adv-x="657" d="M725 712Q725 711 725 710T724 707L701 581Q698 565 685 565H682Q653 567 600 570T490 574Q452 574 425 568T379 544T347 498T326 424L307 318Q301 280 301 255Q301 226 307 209T324 181T348 168T376 165Q406 165 432 168L468 373Q470 381 476 387T490 393H648Q665 393 665 376V373L606 38Q604 27 599 22T581 15Q536 6 477 -1T345 -9Q303 -9 259 4T178 46T118 123T94 240Q94 258 95 278T101 319L120 424Q140 533 180 598T271 697T381 742T494 753Q572 753 625 744T708 726Q716 724 720 722T725 712Z"  />
<glyph unicode="H" horiz-adv-x="746" d="M809 724L685 20Q683 12 676 6T661 0H498Q482 0 482 16V20L529 292H320L273 20Q271 12 264 6T249 0H86Q69 0 69 17V20L193 724Q195 732 202 737T217 743H380Q397 743 397 727V724L352 468H561L606 724Q608 732 614 737T629 743H792Q809 743 809 727V724Z"  />
<glyph unicode="I" horiz-adv-x="334" d="M380 743Q388 743 393 739T397 724L273 20Q271 12 266 6T249 0H85Q76 0 72 6T69 20L193 724Q195 732 201 737T216 743H380H380Z"  />
<glyph unicode="J" horiz-adv-x="334" d="M396 723L269 2Q259 -56 240 -93T193 -153T132 -183T58 -192Q37 -192 15 -191T-32 -185Q-49 -182 -49 -171Q-49 -169 -49 -168T-48 -165L-29 -56Q-27 -48 -20 -42T-5 -36H32Q49 -36 55 -27T65 2L192 723Q194 731 201 737T217 743H380Q396 743 396 727V723Z"  />
<glyph unicode="K" horiz-adv-x="713" d="M818 734Q818 728 812 721L530 373L684 21Q686 17 686 14Q686 0 670 0H474Q465 0 462 5T456 17L329 344L273 20Q271 12 264 6T249 0H86Q69 0 69 17V20L193 724Q195 732 202 737T217 743H380Q397 743 397 727V724L342 412L584 727Q589 734 595 738T609 743H806Q818 743 818 734Z"  />
<glyph unicode="L" horiz-adv-x="522" d="M525 145L503 23Q500 6 480 3Q451 -2 407 -5T322 -9Q280 -9 240 -1T168 26T117 79T98 163Q98 175 99 188T103 215L192 723Q194 731 201 737T217 743H380Q396 743 396 727V723L307 215Q306 210 306 206T305 196Q305 179 314 172T346 165H508Q525 165 525 148V145Z"  />
<glyph unicode="M" horiz-adv-x="841" d="M901 713Q901 711 901 710T900 706L778 12Q776 4 771 2T759 0H595Q590 0 587 4T584 15V20L648 387Q648 389 648 390T649 393Q649 397 647 397Q646 397 644 395H643Q641 395 637 390T631 382L528 249Q513 230 496 230H427Q410 230 401 249L343 386Q341 389 341 392T338 395H337Q335 397 334 397Q329 397 328 387L264 20Q262 12 257 6T246 0H81Q76 0 72 1T67 9V12L189 706Q192 721 205 732T233 743H337Q356 743 366 735T383 713L483 460Q488 448 492 448Q496 448 506 460L696 713Q707 727 720 735T752 743H870Q884 743 892 735T901 713Z"  />
<glyph unicode="N" horiz-adv-x="746" d="M808 723L688 37Q685 22 672 11T644 0H520Q494 0 483 27L335 362Q333 367 331 368T326 370Q321 370 320 361L260 20Q258 12 251 6T236 0H86Q69 0 69 17V20L189 706Q192 721 205 732T233 743H355Q369 743 376 735T390 714L542 369Q546 360 549 360Q551 360 553 361T556 369L618 723Q620 731 627 737T642 743H792Q808 743 808 727V723Z"  />
<glyph unicode="O" horiz-adv-x="707" d="M744 507Q744 487 743 467T736 423L717 320Q700 229 667 166T588 64T482 8T352 -9Q299 -9 253 6T171 51T116 129T95 239Q95 274 103 320L122 423Q140 518 174 581T257 683T363 737T487 753Q539 753 585 739T667 695T723 619T744 507ZM537 485Q537 532 517 553T455 574Q402 574 373 539T328 423L309 320Q306 302 304 287T302 258Q302 211 322 191T384 170Q437 170 466 204T511 320L530 423Q533 441 535 456T537 485Z"  />
<glyph unicode="P" horiz-adv-x="678" d="M744 555Q744 476 718 417T646 319T535 261T394 242Q377 242 354 243T310 245L271 20Q269 12 262 6T247 0H87Q79 0 74 4T69 15V17V18L185 674Q192 710 206 722T254 740Q273 743 299 745T353 749T411 752T468 753Q520 753 569 742T658 707T720 646T744 555ZM537 527Q537 560 511 571T441 583Q438 583 428 583T405 583T383 582T370 582L340 412Q342 412 352 412T375 411T397 411T410 411Q470 411 503 440T537 527Z"  />
<glyph unicode="Q" horiz-adv-x="707" d="M744 507Q744 487 743 467T736 423L717 320Q703 246 679 191T621 96T544 34T450 0L447 -17Q446 -20 446 -25Q446 -36 462 -36H545Q567 -36 567 -50V-52L549 -154Q546 -170 521 -177Q493 -184 461 -188T394 -192Q365 -192 339 -186T294 -166T263 -127T251 -67Q251 -56 252 -44T256 -18L260 4Q188 25 142 83T95 239Q95 274 103 320L122 423Q140 518 174 581T257 683T363 737T487 753Q539 753 585 739T667 695T723 619T744 507ZM537 485Q537 532 517 553T455 574Q402 574 373 539T328 423L309 320Q306 302 304 287T302 258Q302 211 322 191T384 170Q437 170 466 204T511 320L530 423Q533 441 535 456T537 485Z"  />
<glyph unicode="R" horiz-adv-x="708" d="M742 558Q742 515 732 475T702 402T651 341T578 298L675 26Q676 24 676 19Q676 0 656 0H480Q472 0 469 6T464 20L380 264Q363 264 348 264T315 266L272 20Q270 12 263 6T248 0H86Q69 0 69 17V20L184 674Q190 710 205 722T253 740Q284 745 340 749T463 753Q523 753 574 742T662 708T721 647T742 558ZM537 529Q537 557 517 569T448 582Q428 582 406 582T370 580L342 421Q350 420 359 420T377 420H415Q475 420 506 444T537 529Z"  />
<glyph unicode="S" horiz-adv-x="606" d="M671 709L649 584Q646 565 628 565H626Q611 566 584 568T526 572T461 576T401 578Q380 578 362 570T344 536Q344 525 353 517T388 493L510 421Q564 389 587 348T610 254Q610 184 583 134T511 53T406 6T283 -9Q221 -9 173 -2T86 17Q79 19 74 23T69 34V37L90 160Q92 168 98 174T113 180H115Q130 178 156 176T210 171T267 167T315 165Q345 165 366 177T388 224Q388 235 380 245T349 269L220 354Q176 383 155 427T134 519Q134 586 158 631T224 703T320 741T434 753Q464 753 496 751T560 745T616 737T656 728Q662 726 666 723T671 712V709Z"  />
<glyph unicode="T" horiz-adv-x="594" d="M698 724L675 596Q673 588 666 583T651 577H502L404 20Q402 12 395 6T380 0H217Q201 0 201 16V20L299 577H147Q130 577 130 593V596L153 724Q155 732 161 737T176 743H680Q688 743 693 739T698 727V724Z"  />
<glyph unicode="U" horiz-adv-x="731" d="M773 743Q798 743 794 718L718 282Q703 194 674 138T600 49T497 4T364 -9Q321 -9 276 4T193 45T132 119T108 229Q108 257 114 292L190 723Q192 731 197 737T215 743H377Q397 743 393 723L316 282Q314 268 313 257T311 234Q311 193 331 178T394 162Q447 162 475 188T515 282L592 723Q594 731 601 737T616 743H773H773Z"  />
<glyph unicode="V" horiz-adv-x="716" d="M813 732Q813 729 811 723L570 111Q555 74 534 51T485 14T425 -4T356 -9Q320 -9 290 -4T237 14T201 50T186 111L159 723V724Q159 732 165 737T179 743H348Q356 743 361 738T366 724L373 171Q373 164 374 161T382 157Q388 157 391 160T396 171L599 724Q602 732 608 737T622 743H800Q813 743 813 732Z"  />
<glyph unicode="W" horiz-adv-x="917" d="M1026 734Q1026 733 1026 733T1025 730L823 85Q814 57 802 41T774 15T742 3T709 0H636Q603 0 583 17T558 77L528 329Q527 335 527 336T522 338Q518 338 516 337T511 329L393 77Q373 33 347 17T279 0H221Q205 0 189 3T159 15T138 39T130 79V85L156 730Q156 738 162 740T174 743H340Q352 743 352 726V724L324 281V275Q324 268 328 268Q332 268 339 281L432 483Q443 508 459 517T499 526H604Q627 526 639 517T655 483L678 281Q679 275 679 272T683 268Q690 268 693 281L821 724Q826 743 839 743H1011Q1016 743 1021 741T1026 734Z"  />
<glyph unicode="X" horiz-adv-x="736" d="M818 733Q818 728 815 724L551 370L700 20Q701 18 701 14Q701 0 686 0H495Q486 0 481 5T473 18L397 196L270 20Q264 12 257 6T242 0H55Q44 0 44 10Q44 16 48 20L316 388L174 724Q173 726 173 729Q173 743 188 743H380Q388 743 393 737T401 724L474 554L592 724Q597 731 604 737T619 743H807Q818 743 818 733Z"  />
<glyph unicode="Y" horiz-adv-x="684" d="M790 733Q790 728 787 722L579 377Q556 340 536 320T493 291L446 20Q444 12 437 6T422 0H259Q244 0 244 16V20L291 291Q272 299 258 319T235 377L149 722Q149 724 149 724T148 727Q148 733 152 738T165 743H342Q350 743 353 738T359 724L408 459Q410 449 416 449Q423 449 428 459L571 724Q575 732 580 737T594 743H779Q790 743 790 733Z"  />
<glyph unicode="Z" horiz-adv-x="632" d="M696 727L674 601Q672 593 664 577T629 528L357 194Q351 186 351 182Q351 175 362 175H588Q605 175 605 159V156L581 20Q579 12 572 6T557 0H81Q59 0 59 19Q59 21 59 22T60 26L78 131Q80 142 86 153T105 180L404 549Q410 556 410 562Q410 568 400 568H186Q170 568 170 584V588L194 724Q196 732 202 737T217 743H678Q686 743 691 741T696 731V727Z"  />
<glyph unicode="[" horiz-adv-x="394" d="M489 725L469 612Q467 604 461 599T446 594H356L243 -45H334Q350 -45 350 -60V-63L330 -176Q327 -194 308 -194H40Q33 -194 30 -190T26 -179V-175L185 724Q187 732 192 737T205 743H472Q489 743 489 728V725Z"  />
<glyph unicode="\" horiz-adv-x="425" d="M408 19Q408 11 402 6T388 0H251Q243 0 237 6T230 21L147 723V725Q147 733 153 738T167 743H304Q312 743 318 737T326 723L408 21V19H408Z"  />
<glyph unicode="]" horiz-adv-x="394" d="M465 724L306 -175Q304 -183 299 -188T286 -194H18Q2 -194 2 -179V-176L22 -63Q25 -45 44 -45H135L248 594H158Q141 594 141 609V612L161 725Q163 733 169 738T184 743H451Q458 743 461 739T465 728V724Z"  />
<glyph unicode="^" horiz-adv-x="666" d="M683 576Q683 566 671 566H512Q498 566 493 569T480 580L409 657L338 580Q330 572 325 569T306 566H148Q136 566 136 576Q136 581 141 588L250 735Q258 746 264 749T286 753H532Q546 753 553 750T568 735L678 588Q683 581 683 576Z"  />
<glyph unicode="_" horiz-adv-x="561" d="M584 -50L574 -108Q572 -116 566 -120T551 -124H-33Q-50 -124 -50 -111V-108L-40 -50Q-38 -42 -32 -38T-17 -34H567Q584 -34 584 -47V-50Z"  />
<glyph unicode="`" horiz-adv-x="472" d="M425 642Q425 633 414 633H295Q284 633 281 636T273 644L168 764Q165 768 165 771Q165 779 177 779H325Q336 779 341 776T351 764L422 650Q425 645 425 642Z"  />
<glyph unicode="a" horiz-adv-x="612" d="M655 542Q655 537 654 534L564 20Q562 12 557 6T543 0H418Q400 0 400 17V20L404 51Q364 20 328 6T250 -9Q214 -9 182 4T127 41T90 102T76 186Q76 200 78 215T82 244L99 345Q111 417 139 464T207 539T297 579T405 591Q459 591 514 584T624 566Q638 563 646 559T655 542ZM443 428Q430 430 414 431T383 432Q341 432 320 411T288 330L269 223Q267 216 267 210T267 198Q267 171 279 162T313 152Q336 152 360 161T399 179L443 428Z"  />
<glyph unicode="b" horiz-adv-x="616" d="M641 385Q641 372 640 358T636 330L622 252Q598 120 525 56T313 -9Q245 -9 189 -1T94 16Q75 21 68 26T63 48L188 753Q190 761 197 767T212 773H362Q370 773 375 769T380 756V753L350 584Q371 587 386 589T423 591Q478 591 519 575T587 531T627 466T641 385ZM449 374Q449 403 436 417T391 432Q373 432 355 431T322 428L274 154Q288 152 303 151T341 149Q383 149 402 176T430 252L444 330Q446 343 447 353T449 374Z"  />
<glyph unicode="c" horiz-adv-x="475" d="M534 554L514 441Q512 433 506 428T491 422H489Q463 424 438 426T376 429Q360 429 347 425T322 410T303 379T290 328L277 253Q273 230 273 210Q273 176 287 165T327 153Q364 153 390 155T443 159H445Q461 159 461 144V140L441 28Q439 18 434 14T417 7Q391 1 357 -4T277 -9Q229 -9 192 6T130 49T93 114T80 196Q80 210 81 224T85 253L98 328Q122 467 194 529T383 591Q428 591 462 586T517 575Q525 573 529 570T534 559V554Z"  />
<glyph unicode="d" horiz-adv-x="616" d="M694 753L569 48Q567 34 560 28T529 16Q488 8 428 0T300 -9Q249 -9 208 6T138 50T94 116T78 201Q78 213 79 225T83 252L97 330Q109 399 133 448T194 529T283 576T403 591Q415 591 436 589T473 584L503 753Q505 761 511 767T526 773H675Q683 773 688 769T694 756V753ZM445 428Q430 430 413 431T378 432Q336 432 316 403T288 330L274 252Q270 233 270 213Q270 184 283 167T328 149Q350 149 366 150T397 154L445 428Z"  />
<glyph unicode="e" horiz-adv-x="602" d="M623 376Q623 362 622 348T618 319L608 259Q606 249 599 243T583 237H272Q269 219 269 206Q269 187 275 176T291 159T317 151T351 149Q371 149 398 149T452 151T504 154T543 157H547Q562 157 562 144V140L546 50Q544 38 539 32T521 22Q470 6 418 -1T302 -9Q260 -9 221 4T150 43T100 109T81 202Q81 214 82 226T85 253L96 319Q108 393 135 445T203 529T295 576T410 591Q464 591 504 574T571 528T610 460T623 376ZM443 383Q443 409 430 425T382 442Q340 442 320 414T290 343H438Q443 366 443 383Z"  />
<glyph unicode="f" horiz-adv-x="409" d="M426 789Q446 789 467 786T508 779Q521 777 524 773T525 760L509 668Q507 659 503 654T485 648H445Q425 648 416 641T402 605L398 582H472Q483 582 487 578T489 561L471 461Q468 440 447 440H373L296 4Q285 -56 267 -92T221 -147T158 -173T79 -180Q59 -180 38 -177T-3 -170Q-11 -168 -16 -164T-20 -151L-4 -59Q-2 -50 2 -45T19 -39H53Q78 -39 88 -33T103 4L179 440L113 450Q93 452 96 474L111 561Q114 582 136 582H204L208 605Q218 664 237 700T283 756T346 782T426 789Z"  />
<glyph unicode="g" horiz-adv-x="605" d="M556 2Q546 -56 525 -95T467 -159T380 -193T260 -204Q194 -204 145 -194T70 -174Q52 -167 55 -146L70 -64Q72 -56 75 -50T93 -45Q106 -47 128 -49T177 -53T232 -56T286 -57Q329 -57 346 -45T369 2L372 19Q353 15 335 14T299 12Q245 12 204 27T134 71T92 136T77 219Q77 233 78 246T82 273L92 330Q105 404 132 454T198 534T288 578T401 591Q469 591 527 585T621 568Q642 563 647 558T651 538L556 2ZM444 427Q430 429 413 430T373 432Q331 432 312 408T283 330L273 273Q271 261 270 251T269 231Q269 202 282 186T327 170Q345 170 365 171T400 175L444 427Z"  />
<glyph unicode="h" horiz-adv-x="632" d="M647 418Q647 406 646 394T642 368L581 21Q579 13 575 7T557 0H406Q397 0 392 4T389 21L446 343Q451 367 451 376T452 391Q452 414 438 422T389 431Q372 431 355 430T323 424L252 22Q250 14 246 7T228 0H77Q69 0 63 5T59 22L188 753Q190 761 194 767T211 773H364Q372 773 377 770T381 753L349 575Q369 582 397 586T460 591Q548 591 597 545T647 418Z"  />
<glyph unicode="i" horiz-adv-x="313" d="M373 775Q381 775 387 772T391 755L374 657Q372 649 368 643T348 637H190Q176 637 173 643T171 657L188 755Q190 763 195 769T215 775H373ZM334 582Q342 582 348 579T352 561L257 22Q255 14 250 7T231 0H82Q74 0 68 4T64 22L159 561Q161 569 166 575T185 582H334Z"  />
<glyph unicode="j" horiz-adv-x="312" d="M372 775Q380 775 386 771T390 755L373 657Q371 649 366 643T347 637H190Q182 637 176 641T172 657L189 755Q191 763 196 769T215 775H372ZM334 582Q342 582 348 578T352 561L249 -21Q239 -76 223 -111T182 -168T124 -197T48 -206Q25 -206 3 -204T-45 -197Q-54 -195 -58 -191T-61 -176L-45 -83Q-43 -75 -39 -69T-20 -63H23Q41 -63 46 -52T56 -21L159 561Q161 569 166 575T185 582H334Z"  />
<glyph unicode="k" horiz-adv-x="627" d="M689 582Q700 582 701 575T696 561L468 302L596 22Q600 14 597 7T583 0H403Q386 0 378 22L291 250L251 22Q249 14 242 7T227 0H77Q69 0 63 5T59 22L188 753Q190 761 194 767T213 773H363Q372 773 377 769T380 753L308 348L474 564Q483 576 489 579T503 582H689Z"  />
<glyph unicode="l" horiz-adv-x="304" d="M364 773Q384 773 381 753L252 22Q250 9 244 5T228 0H77Q55 0 59 22L188 753Q190 761 195 767T213 773H364H364Z"  />
<glyph unicode="m" horiz-adv-x="902" d="M917 427Q917 404 914 382T906 337L851 22Q849 14 842 7T826 0H676Q668 0 664 5T659 18V22L719 363Q722 379 722 392Q722 408 714 417T680 426Q669 426 652 424T617 415Q616 401 615 389T611 363L551 22Q549 14 543 7T527 0H376Q368 0 364 5T359 18V22L419 363Q421 371 422 378T423 393Q423 407 416 416T387 426Q373 426 355 421T320 408L252 22Q250 14 244 7T228 0H77Q69 0 64 5T59 19V22L155 562Q157 570 163 576T178 582H313Q330 582 330 565V562L327 535Q361 570 398 580T475 591Q511 591 541 576T589 538Q611 553 629 563T664 580T699 588T737 591Q781 591 814 578T871 542T905 490T917 427Z"  />
<glyph unicode="n" horiz-adv-x="632" d="M646 421Q646 401 643 378T636 334L581 22Q579 14 572 7T556 0H406Q393 0 390 7T389 22L445 341Q447 354 449 366T452 392Q452 415 442 423T405 431Q382 431 358 424T320 409L252 22Q250 13 243 7T225 0H82Q71 0 64 5T59 22L155 562Q157 570 163 576T178 582H315Q336 582 332 562L327 536Q380 571 420 581T489 591Q573 591 609 549T646 421Z"  />
<glyph unicode="o" horiz-adv-x="605" d="M626 380Q626 369 624 349T621 320L611 262Q599 189 574 138T509 54T418 6T301 -9Q247 -9 206 6T137 48T95 115T81 201Q81 215 82 230T86 262L96 320Q109 394 135 445T201 529T292 576T407 591Q459 591 500 576T569 534T611 467T626 380ZM435 371Q435 404 422 417T379 430Q341 430 320 405T287 320L277 262Q275 247 274 235T272 212Q272 177 286 164T330 151Q368 151 388 174T420 262L430 320Q432 335 433 347T435 371Z"  />
<glyph unicode="p" horiz-adv-x="616" d="M642 391Q642 363 636 330L622 252Q599 122 527 57T316 -9Q304 -9 283 -8T246 -4L217 -171Q215 -179 211 -185T193 -192H43Q35 -192 29 -188T25 -171L149 534Q151 547 159 554T191 568Q233 579 281 585T378 591Q429 591 477 582T561 549T620 488T642 391ZM449 375Q449 402 436 417T387 432Q360 432 348 431T322 428L274 153Q289 151 306 150T341 149Q383 149 402 178T430 252L444 330Q449 358 449 375Z"  />
<glyph unicode="q" horiz-adv-x="616" d="M626 566Q646 561 651 555T655 534L531 -171Q529 -179 525 -185T508 -192H359Q350 -192 344 -187T340 -171L369 -3Q353 -5 337 -7T306 -9Q258 -9 217 3T144 41T96 104T78 194Q78 208 79 222T83 252L97 330Q110 401 136 451T200 532T290 577T406 591Q474 591 531 583T626 566ZM445 428Q431 430 416 431T378 432Q336 432 316 404T288 330L274 252Q272 241 271 232T270 214Q270 185 283 167T328 149Q346 149 364 150T397 154L445 428Z"  />
<glyph unicode="r" horiz-adv-x="417" d="M438 433Q406 433 376 428T319 410L251 22Q249 14 245 7T227 0H77Q69 0 63 5T59 22L154 562Q156 570 160 576T178 582H318Q326 582 331 578T334 562L331 538Q349 556 367 566T403 581T437 588T466 590H477Q490 590 493 584T494 570L473 453Q471 445 468 439T452 433H438H438Z"  />
<glyph unicode="s" horiz-adv-x="516" d="M540 438Q538 429 534 423T517 418Q506 419 485 422T439 427T390 432T348 434Q333 434 320 431T307 415Q307 405 313 399T343 378L406 341Q438 322 458 303T490 265T506 227T511 188Q511 133 490 96T433 35T350 1T250 -9Q196 -9 146 -2T64 15Q46 21 49 37L67 140Q69 151 74 157T95 161Q117 158 141 155T189 150T233 147T265 145Q274 145 283 146T299 150T312 161T317 179Q317 187 312 193T293 207L212 255Q156 288 134 323T112 404Q112 460 133 496T188 553T268 582T361 591Q419 591 464 584T543 566Q552 563 556 559T559 544L540 438Z"  />
<glyph unicode="t" horiz-adv-x="432" d="M478 582Q490 582 495 578T498 562L480 460Q478 452 474 446T457 440H381L333 171Q330 157 330 150Q330 140 335 137T354 133H400Q408 133 414 129T418 114L402 20Q400 12 395 7T377 0Q374 0 365 -1T343 -4T315 -7T286 -9Q253 -9 226 -3T179 19T148 60T137 121Q137 133 138 146T142 173L189 440L125 455Q117 457 112 461T108 477L123 561Q125 569 129 575T148 582H214L228 663Q230 671 237 676T253 684L406 710Q428 713 425 691L406 582H478Z"  />
<glyph unicode="u" horiz-adv-x="632" d="M653 582Q664 582 671 578T676 560L580 20Q578 12 574 6T557 0H420Q412 0 407 4T403 20L408 46Q355 11 315 1T248 -9Q205 -9 175 4T127 42T100 98T91 168Q91 188 93 207T99 248L154 560Q156 568 161 575T179 582H329Q350 582 346 560L290 241Q287 226 285 214T283 191Q283 165 294 158T330 151Q353 151 377 158T415 173L483 560Q485 569 490 575T510 582H653Z"  />
<glyph unicode="v" horiz-adv-x="620" d="M702 568Q702 566 700 560L494 106Q476 67 455 44T411 9T363 -6T313 -9Q288 -9 263 -6T218 9T183 44T165 106L120 560V562Q120 570 126 576T140 582H301Q309 582 314 576T319 561L330 196Q330 178 338 178Q349 178 355 196L494 561Q497 570 504 576T520 582H687Q693 582 697 578T702 568Z"  />
<glyph unicode="w" horiz-adv-x="871" d="M946 570Q946 566 945 564L774 89Q756 39 732 20T673 0H598Q564 0 541 22T512 86L490 269Q489 276 485 276Q479 276 476 269L390 86Q371 45 348 23T290 0H213Q179 0 155 20T130 89L125 564Q125 572 131 577T144 582H301Q315 582 315 566V565L305 222Q305 214 310 214Q316 214 320 222L414 427Q422 445 435 456T478 468H558Q587 468 595 457T606 427L628 222Q629 214 635 214Q640 214 643 222L755 565Q761 582 775 582H934Q946 582 946 570Z"  />
<glyph unicode="x" horiz-adv-x="647" d="M698 571Q698 565 694 561L481 287L613 22Q615 16 615 14Q615 9 612 5T600 0H428Q420 0 415 6T405 22L335 163L227 21Q219 11 213 6T198 0H47Q37 0 37 11Q37 17 41 21L264 308L139 561Q137 567 137 569Q137 575 141 578T151 582H320Q331 582 335 576T345 561L408 433L504 561Q519 582 533 582H688Q698 582 698 571Z"  />
<glyph unicode="y" horiz-adv-x="623" d="M705 567Q705 564 703 560L428 -34Q410 -74 389 -105T337 -158T266 -191T165 -203Q150 -203 131 -202T94 -198T59 -192T33 -185Q25 -182 20 -179T14 -169V-166L31 -69Q33 -61 40 -55T57 -48H58Q86 -50 125 -53T193 -56Q214 -56 229 -48T254 -18L268 15H255Q220 15 201 30T176 84L118 560V563Q118 582 143 582H304Q312 582 315 576T320 562L338 218Q339 201 346 201H354L497 563Q504 582 522 582H687Q694 582 699 578T705 567Z"  />
<glyph unicode="z" horiz-adv-x="541" d="M591 555L575 464Q572 447 567 439T550 418L334 171Q329 164 329 161Q329 156 337 156H505Q520 156 520 143V140L499 20Q497 12 490 6T475 0H74Q64 0 58 6T52 22V27L67 111Q69 124 73 133T89 155L316 414Q322 420 322 424Q322 429 314 429H146Q132 429 132 442V445L153 562Q155 570 162 576T177 582H570Q580 582 585 576T591 560V555Z"  />
<glyph unicode="{" horiz-adv-x="417" d="M530 724L510 611Q508 603 502 598T487 593H435Q410 593 401 582T386 538L365 422Q356 371 329 333T251 272Q286 255 301 227T317 161Q317 152 316 143T313 122L292 6Q289 -12 289 -23Q289 -37 296 -43T321 -49H373Q390 -49 390 -64V-67L370 -180Q368 -188 362 -193T347 -198H285Q231 -198 194 -192T134 -172T101 -133T91 -74Q91 -57 92 -37T99 6L120 122Q121 127 121 131T122 141Q122 166 111 184T81 216L101 328Q129 344 147 367T172 422L193 538Q203 597 219 636T265 698T339 732T451 742H513Q530 742 530 727V724Z"  />
<glyph unicode="|" horiz-adv-x="304" d="M317 -172Q317 -180 311 -187T296 -194H145Q137 -194 130 -187T123 -172V723Q123 731 130 737T145 743H296Q304 743 310 737T317 723V-172H317Z"  />
<glyph unicode="}" horiz-adv-x="417" d="M412 216Q384 200 366 177T341 122L320 6Q309 -53 293 -92T248 -154T174 -188T62 -198H0Q-17 -198 -17 -183V-180L3 -67Q5 -59 11 -54T26 -49H78Q103 -49 112 -38T127 6L148 122Q157 173 184 211T262 272Q227 289 212 317T196 383Q196 392 197 401T200 422L221 538Q224 556 224 567Q224 581 217 587T192 593H140Q123 593 123 608V611L143 724Q145 732 151 737T166 742H228Q282 742 319 736T379 716T412 677T422 618Q422 601 421 581T414 538L393 422Q392 417 392 413T391 403Q391 378 402 360T432 328L412 216Z"  />
<glyph unicode="~" horiz-adv-x="666" d="M673 485Q673 396 631 360T508 323Q485 323 459 331T414 350L354 385Q338 394 327 396T308 399Q294 399 289 392T283 370V351Q283 330 263 330H155Q133 330 133 351V370Q133 416 144 448T178 499T230 527T299 536Q315 536 340 532T383 516L453 476Q469 467 480 464T500 460Q523 460 523 486V509Q523 530 544 530H651Q673 530 673 509V485H673Z"  />
<glyph unicode="&#xA0;" horiz-adv-x="240" />
<glyph unicode="&#xA1;" horiz-adv-x="291" d="M337 562L313 423Q311 415 304 409T289 403H143Q126 403 126 419Q126 422 127 423L151 562Q153 570 160 576T175 582H321Q337 582 337 566V562ZM276 320L214 -171Q212 -179 205 -185T189 -191H33Q25 -191 20 -187T15 -175Q15 -172 16 -171L128 320Q130 328 136 334T152 341H258Q266 341 271 336T276 323V320Z"  />
<glyph unicode="&#xA2;" horiz-adv-x="666" d="M628 554L608 441Q606 433 600 428T585 422H583Q557 424 532 426T470 429Q453 429 440 425T416 410T398 380T384 328L371 253Q369 239 368 227T366 205Q366 173 380 163T421 153Q458 153 484 155T537 159H539Q555 159 555 143V140L535 28Q533 18 528 14T511 7Q495 3 477 0T435 -6L423 -73Q421 -81 415 -87T400 -93H279Q262 -93 262 -76V-73L276 7Q228 31 201 80T174 195Q174 209 175 223T179 253L192 328Q212 440 260 499T377 580L390 652Q392 660 398 666T413 672H534Q551 672 551 655V652L540 587Q563 585 581 582T611 575Q628 570 628 559V554Z"  />
<glyph unicode="&#xA3;" horiz-adv-x="666" d="M722 715Q722 711 721 708L698 580Q695 562 678 562H675Q645 565 600 569T510 573Q489 573 475 570T450 560T434 539T424 503L415 453H567Q584 453 584 437V434L563 315Q561 307 555 301T540 295H387L374 221Q371 202 363 186T347 158H603Q620 158 620 142V139L599 20Q597 12 590 6T575 0H118Q110 0 106 5T102 18V22L118 112Q120 122 123 127T132 137Q138 143 145 152T158 173T170 197T178 221L191 295H142Q127 295 127 311V315L148 434Q150 442 156 447T171 453H219L227 501Q239 573 263 620T325 696T416 735T541 747Q564 747 588 745T635 740T676 734T705 729Q722 725 722 715Z"  />
<glyph unicode="&#xA4;" horiz-adv-x="666" d="M662 552Q662 544 655 537L569 451Q588 411 588 371Q588 326 567 286L651 201Q658 194 658 186Q658 180 653 175L588 109Q583 104 577 104Q569 104 562 111L475 198Q440 182 399 182Q355 182 318 201L232 115Q229 112 225 110T216 107Q211 107 206 112L141 178Q136 183 136 190Q136 198 143 205L229 290Q209 328 209 371Q209 410 226 447L139 534Q132 541 132 549Q132 555 137 560L203 625Q208 630 214 630Q222 630 229 623L313 539Q353 560 399 560Q443 560 480 541L565 627Q572 634 580 634Q586 634 591 629L657 563Q662 558 662 552ZM477 375Q477 407 456 428T402 450Q370 450 348 429T326 375Q326 343 348 321T402 298Q434 298 455 320T477 375Z"  />
<glyph unicode="&#xA5;" horiz-adv-x="666" d="M787 732Q787 730 783 722L637 501H717Q734 501 734 485V482L719 396Q717 388 711 383T696 377H555L494 282H679Q695 282 695 267V263L680 177Q677 158 658 158H472L448 20Q446 12 441 6T427 0H259Q244 0 244 16V20L268 158H83Q66 158 66 174V177L81 263Q83 271 90 276T105 282H290L263 377H121Q105 377 105 392V396L120 482Q122 490 128 495T143 501H224L155 722Q154 724 154 727Q154 734 159 738T172 743H348Q356 743 359 738T365 725L422 480L565 725Q570 733 575 738T588 743H774Q787 743 787 732Z"  />
<glyph unicode="&#xA6;" horiz-adv-x="304" d="M317 364Q317 356 311 349T297 342H145Q137 342 130 349T123 364V708Q123 716 130 722T145 728H297Q305 728 311 722T317 708V364ZM317 -189Q317 -197 311 -204T297 -211H145Q137 -211 130 -204T123 -189V155Q123 163 130 169T145 175H297Q305 175 311 169T317 155V-189Z"  />
<glyph unicode="&#xA7;" horiz-adv-x="607" d="M672 708L650 583Q648 576 644 571T631 566H630Q607 567 579 569T521 573T461 576T402 577Q381 577 362 571T343 538Q343 527 353 518T389 493L511 421Q565 389 588 347T611 255Q611 210 597 174T553 102Q561 88 566 67T571 23Q571 -42 549 -87T487 -161T391 -203T267 -216Q236 -216 205 -214T146 -209T92 -201T48 -190Q41 -188 36 -184T31 -173V-170L53 -45Q55 -37 61 -32T76 -26H78Q128 -31 177 -36T278 -41H280Q294 -41 307 -39T331 -30T348 -12T355 16Q355 28 346 38T314 62L186 142Q134 174 114 215T93 304Q93 325 96 347T107 391T125 432T151 467Q144 482 140 503T136 547Q136 612 160 652T225 714T317 745T423 753Q453 753 487 751T554 745T613 737T655 728Q661 726 666 722T672 711V708ZM444 245Q444 265 434 278T398 307L314 358Q300 366 288 375T270 392Q259 373 254 358T249 329Q249 308 260 294T287 270L372 218Q410 196 425 179Q434 192 439 210T444 245Z"  />
<glyph unicode="&#xA8;" horiz-adv-x="472" d="M567 755L550 657Q548 649 540 643T523 637H407Q399 637 394 641T389 654V657L406 755Q408 763 416 769T432 775H548Q556 775 561 771T567 758V755ZM333 755L316 657Q314 649 306 643T290 637H174Q166 637 161 641T155 654V657L172 755Q174 763 182 769T199 775H315Q323 775 328 771T333 758V755Z"  />
<glyph unicode="&#xA9;" horiz-adv-x="750" d="M780 374Q780 304 754 243T681 137T574 65T442 39Q372 39 311 65T205 136T133 243T107 374Q107 444 133 505T204 613T311 686T442 713Q512 713 573 686T681 613T753 506T780 374ZM724 374Q724 432 702 483T641 573T552 634T442 657Q384 657 333 635T244 574T184 484T162 374Q162 316 184 265T244 176T333 116T442 94Q500 94 551 116T641 176T701 265T724 374ZM546 183Q546 177 543 175T533 170Q519 166 500 163T455 160Q368 160 323 207T278 351V403Q278 500 323 547T455 594Q481 594 501 591T533 584Q540 582 543 580T546 572V495Q546 484 535 484H533Q515 486 500 487T455 489Q444 489 434 486T416 473T403 447T398 403V351Q398 323 403 306T416 280T434 268T455 265Q481 265 498 266T533 270H535Q546 270 546 259V183Z"  />
<glyph unicode="&#xAA;" horiz-adv-x="379" d="M454 641Q454 626 451 610L414 405Q413 399 412 396T405 390Q334 372 262 372Q192 372 156 400T119 473Q119 515 135 540T178 577T238 593T305 597H326L328 610Q329 615 329 623Q329 638 321 643T295 648Q282 648 267 648T236 646T209 645T189 643H187Q177 643 177 654V657L188 719Q189 725 194 729T205 735Q213 738 227 741T257 747T288 751T311 753Q339 753 365 747T410 728T442 693T454 641ZM294 531Q268 531 253 521T238 482Q238 467 249 463T277 458Q285 458 291 459T302 461L315 531H294Z"  />
<glyph unicode="&#xAB;" horiz-adv-x="747" d="M807 512Q807 506 800 499L585 287L717 82Q720 77 720 73Q720 60 706 60H576Q566 60 560 62T549 71L424 263Q417 274 414 280T410 295Q410 300 411 306T418 318L610 509Q617 516 624 518T641 520H796Q807 520 807 512ZM477 512Q477 506 470 499L255 287L387 82Q390 77 390 73Q390 60 376 60H246Q236 60 230 62T219 71L94 263Q87 274 84 280T80 295Q80 300 81 306T88 318L280 509Q287 516 294 518T311 520H466Q477 520 477 512Z"  />
<glyph unicode="&#xAC;" horiz-adv-x="666" d="M616 193Q616 185 611 179T598 173H491Q483 173 479 179T474 193V456H164Q156 456 150 460T144 472V581Q144 589 150 593T164 597H596Q604 597 610 593T616 581V193H616Z"  />
<glyph unicode="&#xAD;" horiz-adv-x="282" d="M320 352L302 250Q300 242 294 237T279 231H86Q69 231 69 247V250L87 352Q89 360 95 365T110 371H303Q320 371 320 355V352Z"  />
<glyph unicode="&#xAE;" horiz-adv-x="598" d="M671 484Q671 425 649 374T588 284T497 223T387 201Q328 201 277 223T187 283T127 373T104 484Q104 542 126 594T187 684T276 744T387 767Q445 767 497 745T587 684T648 594T671 484ZM617 484Q617 531 599 573T550 646T476 695T387 713Q340 713 299 695T226 646T177 573T159 484Q159 437 177 395T226 322T298 273T387 255Q434 255 476 273T549 322T599 395T617 484ZM530 330Q530 321 521 321H439Q433 321 429 329Q421 343 411 362T392 399Q381 419 371 441H347V331Q347 321 337 321H263Q253 321 253 331V621Q253 640 258 646T281 655Q287 656 298 656T322 658T350 659T375 660Q442 660 480 636T518 550V541Q518 507 502 487T463 456L528 336Q530 332 530 330ZM428 550Q428 567 418 575T383 583H344V508H383Q407 508 417 517T428 541V550Z"  />
<glyph unicode="&#xAF;" horiz-adv-x="472" d="M542 771Q550 771 555 768T559 752L543 664Q541 652 535 648T520 644H181Q173 644 168 648T164 664L180 752Q182 760 186 765T203 771H542H542Z"  />
<glyph unicode="&#xB0;" horiz-adv-x="368" d="M443 594Q443 561 431 533T397 483T347 449T285 436Q252 436 224 448T173 482T139 532T126 594Q126 627 138 655T173 706T223 740T285 753Q318 753 346 741T396 706T430 656T443 594ZM351 594Q351 621 332 641T285 661Q258 661 239 641T219 594Q219 567 238 548T285 529Q312 529 331 548T351 594Z"  />
<glyph unicode="&#xB1;" horiz-adv-x="666" d="M594 336Q594 328 588 324T574 320H425V173Q425 165 421 159T409 153H299Q291 153 287 159T283 173V320H136Q128 320 122 324T116 336V446Q116 454 122 458T136 462H283V611Q283 619 287 625T299 631H409Q417 631 421 625T425 611V462H574Q582 462 588 458T594 446V336ZM594 -9Q594 -17 588 -21T574 -25H136Q128 -25 122 -21T116 -9V77Q116 85 122 89T136 93H574Q582 93 588 89T594 77V-9Z"  />
<glyph unicode="&#xB2;" horiz-adv-x="371" d="M315 752Q354 752 379 745T419 726T440 699T446 665Q446 583 367 537L298 496Q271 480 252 468T228 437H387Q402 437 400 421L387 350Q385 334 369 334H116Q100 334 102 350L112 407Q120 453 145 487T204 545L266 586Q285 599 297 606T315 619T324 629T326 640Q326 648 317 651T282 655Q260 655 237 653T191 649Q182 648 172 649T163 664L172 717Q173 723 177 726T188 732Q214 740 247 746T315 752Z"  />
<glyph unicode="&#xB3;" horiz-adv-x="365" d="M270 585Q320 585 320 629Q320 639 312 645T277 652Q265 652 251 652T223 650T196 649T174 647H173Q159 647 161 661L172 719Q173 725 178 728T188 733Q214 741 244 746T307 751Q376 751 408 728T440 662Q440 620 421 587T376 542Q391 529 400 513T410 470Q410 431 397 404T360 360T305 336T238 328Q220 328 201 330T164 335T133 342T112 350Q109 352 106 354T104 362L114 418Q117 432 131 432H132Q141 431 154 430T181 429T209 428T235 427Q267 427 279 436T291 471Q291 495 254 495H169Q163 495 159 499T157 510L167 570Q169 576 174 580T185 585H270Z"  />
<glyph unicode="&#xB4;" horiz-adv-x="472" d="M587 773Q587 768 581 764L434 644Q427 639 423 636T408 633H279Q271 633 271 639Q271 644 277 650L388 764Q396 772 401 775T418 779H576Q587 779 587 773Z"  />
<glyph unicode="&#xB5;" horiz-adv-x="632" d="M676 560L585 48Q583 36 576 29T545 15Q507 5 451 -2T317 -9Q278 -9 247 -3L218 -172Q216 -180 209 -186T194 -192H41Q25 -192 25 -176V-172L154 560Q156 568 163 575T179 582H329Q337 582 341 577T346 564V560L285 214Q284 209 284 204T283 195Q283 169 298 158T344 147Q364 147 381 148T412 152L484 560Q486 568 493 575T508 582H658Q666 582 671 577T676 563V560Z"  />
<glyph unicode="&#xB6;" horiz-adv-x="674" d="M750 730Q750 728 750 727T749 724L590 -176Q588 -184 583 -189T570 -195H518Q511 -195 508 -191T504 -180V-176L651 658H587L440 -176Q438 -184 433 -189T420 -195H368Q361 -195 358 -191T354 -180V-176L426 234H334Q288 234 249 245T182 279T138 335T122 412Q122 423 123 434T126 457L137 520Q146 574 173 615T238 685T324 728T424 743H736Q750 743 750 730Z"  />
<glyph unicode="&#xB7;" horiz-adv-x="291" d="M318 447L293 308Q291 300 284 294T269 288H124Q116 288 111 292T106 305V308L131 447Q133 455 140 461T155 467H300Q308 467 313 463T318 450V447Z"  />
<glyph unicode="&#xB8;" horiz-adv-x="451" d="M345 -42Q345 -47 339 -51L192 -171Q185 -176 181 -179T165 -182H37Q29 -182 29 -176Q29 -171 35 -165L146 -51Q154 -43 160 -40T177 -36H335Q345 -36 345 -42Z"  />
<glyph unicode="&#xB9;" horiz-adv-x="290" d="M260 744Q266 747 274 747H336Q352 747 350 731L282 350Q280 334 264 334H176Q160 334 162 350L211 625L156 604Q150 602 144 604T139 614L153 692Q154 701 164 706L260 744Z"  />
<glyph unicode="&#xBA;" horiz-adv-x="404" d="M476 619Q476 597 472 578L466 547Q448 454 401 414T269 373Q203 373 165 409T127 507Q127 528 131 547L137 578Q147 630 164 663T205 717T262 745T336 753Q399 753 437 718T476 619ZM350 611Q350 632 342 640T317 648Q296 648 283 633T262 578L256 547Q253 529 253 516Q253 494 261 486T287 477Q308 477 320 492T340 547L346 578Q348 588 349 596T350 611Z"  />
<glyph unicode="&#xBB;" horiz-adv-x="747" d="M770 285Q770 280 769 274T762 262L570 71Q563 64 556 62T539 60H384Q373 60 373 68Q373 74 380 81L595 293L463 498Q460 502 460 507Q460 520 474 520H604Q614 520 620 518T631 509L756 317Q763 306 766 300T770 285ZM440 285Q440 280 439 274T432 262L240 71Q233 64 226 62T209 60H54Q43 60 43 68Q43 74 50 81L265 293L133 498Q130 502 130 507Q130 520 144 520H274Q284 520 290 518T301 509L426 317Q433 306 436 300T440 285Z"  />
<glyph unicode="&#xBC;" horiz-adv-x="820" d="M270 744Q276 747 284 747H346Q362 747 360 731L292 350Q290 334 274 334H186Q170 334 172 350L221 625L166 604Q160 602 154 604T149 614L163 692Q164 701 174 706L270 744ZM816 736Q816 729 811 723L270 18Q262 7 258 4T245 0H122Q112 0 112 9Q112 15 117 22L658 726Q666 736 671 739T685 743H807Q816 743 816 736ZM795 100Q793 84 776 84H749L737 16Q736 9 733 5T720 0H631Q615 0 617 16L629 84H483Q468 84 470 100L481 161Q483 172 491 180L707 406Q716 413 724 413H792Q809 413 805 397L766 177H793Q809 177 806 162L795 100ZM666 266L584 177H651L666 266Z"  />
<glyph unicode="&#xBD;" horiz-adv-x="896" d="M270 744Q276 747 284 747H346Q362 747 360 731L292 350Q290 334 274 334H186Q170 334 172 350L221 625L166 604Q160 602 154 604T149 614L163 692Q164 701 174 706L270 744ZM816 736Q816 729 811 723L270 18Q262 7 258 4T245 0H122Q112 0 112 9Q112 15 117 22L658 726Q666 736 671 739T685 743H807Q816 743 816 736ZM889 306Q884 273 864 247T812 203L743 162Q716 146 697 134T673 103H832Q847 103 845 87L832 16Q830 0 814 0H561Q545 0 547 16L557 73Q565 119 590 153T649 211L711 252Q730 264 741 271T759 284T767 293T771 302Q773 312 765 316T727 321Q705 321 682 319T636 315Q627 314 617 315T608 330L617 383Q618 389 622 392T633 398Q659 406 692 412T760 418Q803 418 830 410T871 387T889 352T889 306Z"  />
<glyph unicode="&#xBE;" horiz-adv-x="901" d="M897 736Q897 729 892 723L351 18Q343 7 339 4T326 0H203Q193 0 193 9Q193 15 198 22L739 726Q747 736 752 739T766 743H888Q897 743 897 736ZM876 100Q874 84 857 84H830L818 16Q817 9 814 5T801 0H712Q696 0 698 16L710 84H564Q549 84 551 100L562 161Q564 172 572 180L788 406Q797 413 805 413H873Q890 413 886 397L847 177H874Q890 177 887 162L876 100ZM747 266L665 177H732L747 266ZM279 585Q329 585 329 629Q329 639 321 645T286 652Q274 652 260 652T232 650T205 649T183 647H182Q168 647 170 661L181 719Q182 725 187 728T197 733Q223 741 253 746T316 751Q385 751 417 728T449 662Q449 620 430 587T385 542Q400 529 409 513T419 470Q419 431 406 404T369 360T314 336T247 328Q229 328 210 330T173 335T142 342T121 350Q118 352 115 354T113 362L123 418Q126 432 140 432H141Q150 431 163 430T190 429T218 428T244 427Q276 427 288 436T300 471Q300 495 263 495H178Q172 495 168 499T166 510L176 570Q178 576 183 580T194 585H279Z"  />
<glyph unicode="&#xBF;" horiz-adv-x="492" d="M494 562L470 423Q468 415 461 409T446 403H300Q292 403 287 407T282 420Q282 422 283 423L307 562Q309 570 316 576T332 582H478Q494 582 494 566V562ZM453 -29L433 -146Q429 -163 410 -169Q375 -180 331 -187T242 -194Q146 -194 91 -161T35 -62Q35 -13 54 30T112 118L245 271Q258 286 264 296T275 322Q278 336 290 336H429Q434 336 437 332T440 324V323L434 288Q431 270 427 256T418 229T404 203T385 175L280 37Q273 28 268 19T263 -1Q263 -12 271 -16T304 -20Q314 -20 332 -19T371 -16T409 -12T437 -9H439Q453 -9 453 -24V-29Z"  />
<glyph unicode="&#xC0;" horiz-adv-x="692" d="M676 20Q676 12 671 6T657 0H487Q479 0 475 5T470 19L467 158H289L236 19Q233 11 227 6T213 0H36Q22 0 22 13Q22 15 24 21L266 633Q281 670 302 693T351 730T411 747T479 752Q515 752 545 748T598 730T634 694T650 633L676 21V20ZM462 572Q462 579 461 582T453 586Q446 586 444 583T440 572L346 318H466L462 572ZM613 804Q613 795 602 795H483Q472 795 469 798T461 806L356 926Q353 930 353 933Q353 941 365 941H513Q524 941 529 938T539 926L610 812Q613 807 613 804Z"  />
<glyph unicode="&#xC1;" horiz-adv-x="692" d="M676 20Q676 12 671 6T657 0H487Q479 0 475 5T470 19L467 158H289L236 19Q233 11 227 6T213 0H36Q22 0 22 13Q22 15 24 21L266 633Q281 670 302 693T351 730T411 747T479 752Q515 752 545 748T598 730T634 694T650 633L676 21V20ZM462 572Q462 579 461 582T453 586Q446 586 444 583T440 572L346 318H466L462 572ZM709 935Q709 930 703 926L556 806Q549 801 545 798T530 795H401Q393 795 393 801Q393 806 399 812L510 926Q518 934 523 937T540 941H698Q709 941 709 935Z"  />
<glyph unicode="&#xC2;" horiz-adv-x="692" d="M676 20Q676 12 671 6T657 0H487Q479 0 475 5T470 19L467 158H289L236 19Q233 11 227 6T213 0H36Q22 0 22 13Q22 15 24 21L266 633Q281 670 302 693T351 730T411 747T479 752Q515 752 545 748T598 730T634 694T650 633L676 21V20ZM462 572Q462 579 461 582T453 586Q446 586 444 583T440 572L346 318H466L462 572ZM695 804Q695 795 685 795H565Q554 795 551 797T543 806L497 865L431 806Q424 800 420 798T405 795H277Q269 795 269 801Q269 806 275 812L381 926Q389 934 394 937T411 941H601Q612 941 617 938T627 926L693 812Q695 809 695 804Z"  />
<glyph unicode="&#xC3;" horiz-adv-x="692" d="M676 20Q676 12 671 6T657 0H487Q479 0 475 5T470 19L467 158H289L236 19Q233 11 227 6T213 0H36Q22 0 22 13Q22 15 24 21L266 633Q281 670 302 693T351 730T411 747T479 752Q515 752 545 748T598 730T634 694T650 633L676 21V20ZM462 572Q462 579 461 582T453 586Q446 586 444 583T440 572L346 318H466L462 572ZM700 950Q717 950 714 933L711 915Q699 844 663 816T565 788Q539 788 519 794T481 812L450 833Q428 848 414 848Q406 848 400 844T391 828L388 811Q385 794 369 794H285Q268 794 271 811L274 828Q286 897 324 926T424 955Q449 955 469 949T504 932L536 911Q548 903 556 899T572 895Q590 895 594 916L597 933Q600 950 617 950H700Z"  />
<glyph unicode="&#xC4;" horiz-adv-x="692" d="M676 20Q676 12 671 6T657 0H487Q479 0 475 5T470 19L467 158H289L236 19Q233 11 227 6T213 0H36Q22 0 22 13Q22 15 24 21L266 633Q281 670 302 693T351 730T411 747T479 752Q515 752 545 748T598 730T634 694T650 633L676 21V20ZM462 572Q462 579 461 582T453 586Q446 586 444 583T440 572L346 318H466L462 572ZM719 916L702 818Q700 810 692 804T675 798H559Q551 798 546 802T541 815V818L558 916Q560 924 568 930T584 936H700Q708 936 713 932T719 919V916ZM485 916L468 818Q466 810 458 804T442 798H326Q318 798 313 802T307 815V818L324 916Q326 924 334 930T351 936H467Q475 936 480 932T485 919V916Z"  />
<glyph unicode="&#xC5;" horiz-adv-x="692" d="M676 20Q676 12 671 6T657 0H487Q479 0 475 5T470 19L467 158H289L236 19Q233 11 227 6T213 0H36Q22 0 22 13Q22 15 24 21L266 633Q281 670 302 693T351 730T411 747T479 752Q515 752 545 748T598 730T634 694T650 633L676 21V20ZM462 572Q462 579 461 582T453 586Q446 586 444 583T440 572L346 318H466L462 572ZM619 903Q619 878 610 856T584 817T545 791T497 781Q472 781 450 790T412 816T387 855T378 903Q378 928 387 950T412 989T450 1015T497 1025Q522 1025 544 1016T583 990T609 951T619 903ZM539 904Q539 921 527 933T498 945Q481 945 470 933T458 904Q458 887 469 874T498 861Q515 861 527 874T539 904Z"  />
<glyph unicode="&#xC6;" horiz-adv-x="944" d="M1017 723L995 594Q993 586 986 580T971 574H743L722 456H946Q963 456 963 439V436L942 318Q940 310 934 304T919 298H695L680 215Q679 210 679 206T678 196Q678 179 688 172T720 165H899Q916 165 916 148V145L894 23Q891 6 871 3Q856 1 840 -1T804 -5T756 -8T693 -9Q650 -9 611 -3T541 20T492 70T474 157H290L237 19Q234 11 228 6T214 0H36Q22 0 22 13Q22 15 24 21L265 628Q280 665 301 687T350 722T410 739T478 743H1001Q1017 743 1017 728V723ZM456 576Q448 576 445 572T437 558L347 318H495L541 576H456Z"  />
<glyph unicode="&#xC7;" horiz-adv-x="555" d="M643 712L620 584Q617 565 599 565H596Q566 568 533 571T457 574Q437 574 418 569T381 548T351 502T328 423L309 320Q303 284 303 259Q303 231 310 214T328 186T354 173T386 169Q429 169 462 172T527 178H530Q546 178 546 164Q546 163 546 162T545 159L522 31Q520 21 515 17T497 9Q476 2 440 -3T355 -9Q299 -9 252 6T169 53T115 130T95 239Q95 274 103 320L122 423Q139 517 171 580T250 682T356 737T486 753Q534 753 569 747T624 734Q632 731 637 728T643 717V712ZM433 -42Q433 -47 427 -51L280 -171Q273 -176 269 -179T253 -182H125Q117 -182 117 -176Q117 -171 123 -165L234 -51Q242 -43 248 -40T265 -36H423Q433 -36 433 -42Z"  />
<glyph unicode="&#xC8;" horiz-adv-x="586" d="M659 721L638 599Q636 591 629 585T614 579H412Q385 579 373 569T355 529L342 456H588Q605 456 605 439V436L584 318Q582 310 576 304T561 298H315L300 215Q299 209 299 205T298 195Q298 178 307 172T339 165H541Q558 165 558 148V145L536 23Q533 6 513 3Q484 -1 437 -5T316 -9Q272 -9 232 -1T160 28T111 82T92 164Q92 176 93 188T97 215L152 529Q165 605 193 649T260 717T347 746T448 753Q521 753 568 749T643 741Q659 740 659 725V721ZM546 804Q546 795 535 795H416Q405 795 402 798T394 806L289 926Q286 930 286 933Q286 941 298 941H446Q457 941 462 938T472 926L543 812Q546 807 546 804Z"  />
<glyph unicode="&#xC9;" horiz-adv-x="586" d="M659 721L638 599Q636 591 629 585T614 579H412Q385 579 373 569T355 529L342 456H588Q605 456 605 439V436L584 318Q582 310 576 304T561 298H315L300 215Q299 209 299 205T298 195Q298 178 307 172T339 165H541Q558 165 558 148V145L536 23Q533 6 513 3Q484 -1 437 -5T316 -9Q272 -9 232 -1T160 28T111 82T92 164Q92 176 93 188T97 215L152 529Q165 605 193 649T260 717T347 746T448 753Q521 753 568 749T643 741Q659 740 659 725V721ZM670 935Q670 930 664 926L517 806Q510 801 506 798T491 795H362Q354 795 354 801Q354 806 360 812L471 926Q479 934 484 937T501 941H659Q670 941 670 935Z"  />
<glyph unicode="&#xCA;" horiz-adv-x="586" d="M659 721L638 599Q636 591 629 585T614 579H412Q385 579 373 569T355 529L342 456H588Q605 456 605 439V436L584 318Q582 310 576 304T561 298H315L300 215Q299 209 299 205T298 195Q298 178 307 172T339 165H541Q558 165 558 148V145L536 23Q533 6 513 3Q484 -1 437 -5T316 -9Q272 -9 232 -1T160 28T111 82T92 164Q92 176 93 188T97 215L152 529Q165 605 193 649T260 717T347 746T448 753Q521 753 568 749T643 741Q659 740 659 725V721ZM657 804Q657 795 647 795H527Q516 795 513 797T505 806L459 865L393 806Q386 800 382 798T367 795H239Q231 795 231 801Q231 806 237 812L343 926Q351 934 356 937T373 941H563Q574 941 579 938T589 926L655 812Q657 809 657 804Z"  />
<glyph unicode="&#xCB;" horiz-adv-x="586" d="M659 721L638 599Q636 591 629 585T614 579H412Q385 579 373 569T355 529L342 456H588Q605 456 605 439V436L584 318Q582 310 576 304T561 298H315L300 215Q299 209 299 205T298 195Q298 178 307 172T339 165H541Q558 165 558 148V145L536 23Q533 6 513 3Q484 -1 437 -5T316 -9Q272 -9 232 -1T160 28T111 82T92 164Q92 176 93 188T97 215L152 529Q165 605 193 649T260 717T347 746T448 753Q521 753 568 749T643 741Q659 740 659 725V721ZM655 916L638 818Q636 810 628 804T611 798H495Q487 798 482 802T477 815V818L494 916Q496 924 504 930T520 936H636Q644 936 649 932T655 919V916ZM421 916L404 818Q402 810 394 804T378 798H262Q254 798 249 802T243 815V818L260 916Q262 924 270 930T287 936H403Q411 936 416 932T421 919V916Z"  />
<glyph unicode="&#xCC;" horiz-adv-x="334" d="M380 743Q388 743 393 739T397 724L273 20Q271 12 266 6T249 0H85Q76 0 72 6T69 20L193 724Q195 732 201 737T216 743H380H380ZM421 804Q421 795 410 795H291Q280 795 277 798T269 806L164 926Q161 930 161 933Q161 941 173 941H321Q332 941 337 938T347 926L418 812Q421 807 421 804Z"  />
<glyph unicode="&#xCD;" horiz-adv-x="334" d="M380 743Q388 743 393 739T397 724L273 20Q271 12 266 6T249 0H85Q76 0 72 6T69 20L193 724Q195 732 201 737T216 743H380H380ZM519 935Q519 930 513 926L366 806Q359 801 355 798T340 795H211Q203 795 203 801Q203 806 209 812L320 926Q328 934 333 937T350 941H508Q519 941 519 935Z"  />
<glyph unicode="&#xCE;" horiz-adv-x="334" d="M380 743Q388 743 393 739T397 724L273 20Q271 12 266 6T249 0H85Q76 0 72 6T69 20L193 724Q195 732 201 737T216 743H380H380ZM523 804Q523 795 513 795H393Q382 795 379 797T371 806L325 865L259 806Q252 800 248 798T233 795H105Q97 795 97 801Q97 806 103 812L209 926Q217 934 222 937T239 941H429Q440 941 445 938T455 926L521 812Q523 809 523 804Z"  />
<glyph unicode="&#xCF;" horiz-adv-x="334" d="M380 743Q388 743 393 739T397 724L273 20Q271 12 266 6T249 0H85Q76 0 72 6T69 20L193 724Q195 732 201 737T216 743H380H380ZM527 916L510 818Q508 810 500 804T483 798H367Q359 798 354 802T349 815V818L366 916Q368 924 376 930T392 936H508Q516 936 521 932T527 919V916ZM293 916L276 818Q274 810 266 804T250 798H134Q126 798 121 802T115 815V818L132 916Q134 924 142 930T159 936H275Q283 936 288 932T293 919V916Z"  />
<glyph unicode="&#xD0;" horiz-adv-x="697" d="M733 503Q733 465 726 427L707 317Q678 145 583 68T324 -9Q252 -9 194 -4T98 8Q85 10 79 16T72 35Q72 42 73 47L117 298H67Q50 298 50 315V318L71 437Q73 445 79 450T94 456H145L188 697Q192 717 201 725T227 736Q267 743 327 748T459 753Q522 753 572 737T659 690T714 611T733 503ZM527 489Q527 543 502 561T428 579Q423 579 415 579T397 579T381 578T371 578L349 456H402Q418 456 418 441V437L397 318Q395 310 389 304T375 298H322L298 165Q301 165 308 165T324 164T341 164T355 164Q385 164 409 171T451 195T481 242T502 317L521 427Q527 463 527 489Z"  />
<glyph unicode="&#xD1;" horiz-adv-x="746" d="M808 723L688 37Q685 22 672 11T644 0H520Q494 0 483 27L335 362Q333 367 331 368T326 370Q321 370 320 361L260 20Q258 12 251 6T236 0H86Q69 0 69 17V20L189 706Q192 721 205 732T233 743H355Q369 743 376 735T390 714L542 369Q546 360 549 360Q551 360 553 361T556 369L618 723Q620 731 627 737T642 743H792Q808 743 808 727V723ZM728 950Q745 950 742 933L739 915Q727 844 691 816T593 788Q567 788 547 794T509 812L478 833Q456 848 442 848Q434 848 428 844T419 828L416 811Q413 794 397 794H313Q296 794 299 811L302 828Q314 897 352 926T452 955Q477 955 497 949T532 932L564 911Q576 903 584 899T600 895Q618 895 622 916L625 933Q628 950 645 950H728Z"  />
<glyph unicode="&#xD2;" horiz-adv-x="707" d="M744 507Q744 487 743 467T736 423L717 320Q700 229 667 166T588 64T482 8T352 -9Q299 -9 253 6T171 51T116 129T95 239Q95 274 103 320L122 423Q140 518 174 581T257 683T363 737T487 753Q539 753 585 739T667 695T723 619T744 507ZM537 485Q537 532 517 553T455 574Q402 574 373 539T328 423L309 320Q306 302 304 287T302 258Q302 211 322 191T384 170Q437 170 466 204T511 320L530 423Q533 441 535 456T537 485ZM590 804Q590 795 579 795H460Q449 795 446 798T438 806L333 926Q330 930 330 933Q330 941 342 941H490Q501 941 506 938T516 926L587 812Q590 807 590 804Z"  />
<glyph unicode="&#xD3;" horiz-adv-x="707" d="M744 507Q744 487 743 467T736 423L717 320Q700 229 667 166T588 64T482 8T352 -9Q299 -9 253 6T171 51T116 129T95 239Q95 274 103 320L122 423Q140 518 174 581T257 683T363 737T487 753Q539 753 585 739T667 695T723 619T744 507ZM537 485Q537 532 517 553T455 574Q402 574 373 539T328 423L309 320Q306 302 304 287T302 258Q302 211 322 191T384 170Q437 170 466 204T511 320L530 423Q533 441 535 456T537 485ZM707 935Q707 930 701 926L554 806Q547 801 543 798T528 795H399Q391 795 391 801Q391 806 397 812L508 926Q516 934 521 937T538 941H696Q707 941 707 935Z"  />
<glyph unicode="&#xD4;" horiz-adv-x="707" d="M744 507Q744 487 743 467T736 423L717 320Q700 229 667 166T588 64T482 8T352 -9Q299 -9 253 6T171 51T116 129T95 239Q95 274 103 320L122 423Q140 518 174 581T257 683T363 737T487 753Q539 753 585 739T667 695T723 619T744 507ZM537 485Q537 532 517 553T455 574Q402 574 373 539T328 423L309 320Q306 302 304 287T302 258Q302 211 322 191T384 170Q437 170 466 204T511 320L530 423Q533 441 535 456T537 485ZM706 804Q706 795 696 795H576Q565 795 562 797T554 806L508 865L442 806Q435 800 431 798T416 795H288Q280 795 280 801Q280 806 286 812L392 926Q400 934 405 937T422 941H612Q623 941 628 938T638 926L704 812Q706 809 706 804Z"  />
<glyph unicode="&#xD5;" horiz-adv-x="707" d="M744 507Q744 487 743 467T736 423L717 320Q700 229 667 166T588 64T482 8T352 -9Q299 -9 253 6T171 51T116 129T95 239Q95 274 103 320L122 423Q140 518 174 581T257 683T363 737T487 753Q539 753 585 739T667 695T723 619T744 507ZM537 485Q537 532 517 553T455 574Q402 574 373 539T328 423L309 320Q306 302 304 287T302 258Q302 211 322 191T384 170Q437 170 466 204T511 320L530 423Q533 441 535 456T537 485ZM723 951Q740 951 737 934L734 916Q722 845 686 817T588 789Q562 789 542 795T504 813L473 834Q451 849 437 849Q429 849 423 845T414 829L411 812Q408 795 392 795H308Q291 795 294 812L297 829Q309 898 347 927T447 956Q472 956 492 950T527 933L559 912Q571 904 579 900T595 896Q613 896 617 917L620 934Q623 951 640 951H723Z"  />
<glyph unicode="&#xD6;" horiz-adv-x="707" d="M744 507Q744 487 743 467T736 423L717 320Q700 229 667 166T588 64T482 8T352 -9Q299 -9 253 6T171 51T116 129T95 239Q95 274 103 320L122 423Q140 518 174 581T257 683T363 737T487 753Q539 753 585 739T667 695T723 619T744 507ZM537 485Q537 532 517 553T455 574Q402 574 373 539T328 423L309 320Q306 302 304 287T302 258Q302 211 322 191T384 170Q437 170 466 204T511 320L530 423Q533 441 535 456T537 485ZM709 916L692 818Q690 810 682 804T665 798H549Q541 798 536 802T531 815V818L548 916Q550 924 558 930T574 936H690Q698 936 703 932T709 919V916ZM475 916L458 818Q456 810 448 804T432 798H316Q308 798 303 802T297 815V818L314 916Q316 924 324 930T341 936H457Q465 936 470 932T475 919V916Z"  />
<glyph unicode="&#xD7;" horiz-adv-x="666" d="M618 516Q618 508 610 500L500 390L609 280Q617 272 617 265Q617 260 612 255L535 177Q530 172 525 172Q517 172 509 180L399 290L289 180Q281 172 274 172Q269 172 264 177L186 255Q181 260 181 265Q181 272 189 280L299 390L189 500Q181 508 181 516Q181 521 186 526L264 604Q269 609 274 609Q281 609 289 601L399 490L509 601Q517 609 525 609Q530 609 535 604L613 526Q618 521 618 516Z"  />
<glyph unicode="&#xD8;" horiz-adv-x="707" d="M826 745Q826 743 822 737L721 624Q744 575 744 507Q744 487 743 467T736 423L717 320Q700 229 667 166T588 64T482 8T352 -9Q307 -9 267 1T194 34L166 3Q155 -9 142 -9H24Q15 -9 15 -1Q15 5 20 10L119 121Q108 146 102 175T95 239Q95 274 103 320L122 423Q140 518 174 581T257 683T363 737T487 753Q532 753 572 743T646 711L675 743Q684 753 697 753H815Q826 753 826 745ZM510 559Q492 574 455 574Q402 574 373 539T328 423L312 337L510 559ZM329 185Q348 170 384 170Q437 170 466 204T511 320L527 407L329 185Z"  />
<glyph unicode="&#xD9;" horiz-adv-x="731" d="M773 743Q798 743 794 718L718 282Q703 194 674 138T600 49T497 4T364 -9Q321 -9 276 4T193 45T132 119T108 229Q108 257 114 292L190 723Q192 731 197 737T215 743H377Q397 743 393 723L316 282Q314 268 313 257T311 234Q311 193 331 178T394 162Q447 162 475 188T515 282L592 723Q594 731 601 737T616 743H773H773ZM615 803Q615 794 604 794H485Q474 794 471 797T463 805L358 925Q355 929 355 932Q355 940 367 940H515Q526 940 531 937T541 925L612 811Q615 806 615 803Z"  />
<glyph unicode="&#xDA;" horiz-adv-x="731" d="M773 743Q798 743 794 718L718 282Q703 194 674 138T600 49T497 4T364 -9Q321 -9 276 4T193 45T132 119T108 229Q108 257 114 292L190 723Q192 731 197 737T215 743H377Q397 743 393 723L316 282Q314 268 313 257T311 234Q311 193 331 178T394 162Q447 162 475 188T515 282L592 723Q594 731 601 737T616 743H773H773ZM724 935Q724 930 718 926L571 806Q564 801 560 798T545 795H416Q408 795 408 801Q408 806 414 812L525 926Q533 934 538 937T555 941H713Q724 941 724 935Z"  />
<glyph unicode="&#xDB;" horiz-adv-x="731" d="M773 743Q798 743 794 718L718 282Q703 194 674 138T600 49T497 4T364 -9Q321 -9 276 4T193 45T132 119T108 229Q108 257 114 292L190 723Q192 731 197 737T215 743H377Q397 743 393 723L316 282Q314 268 313 257T311 234Q311 193 331 178T394 162Q447 162 475 188T515 282L592 723Q594 731 601 737T616 743H773H773ZM715 804Q715 795 705 795H585Q574 795 571 797T563 806L517 865L451 806Q444 800 440 798T425 795H297Q289 795 289 801Q289 806 295 812L401 926Q409 934 414 937T431 941H621Q632 941 637 938T647 926L713 812Q715 809 715 804Z"  />
<glyph unicode="&#xDC;" horiz-adv-x="731" d="M773 743Q798 743 794 718L718 282Q703 194 674 138T600 49T497 4T364 -9Q321 -9 276 4T193 45T132 119T108 229Q108 257 114 292L190 723Q192 731 197 737T215 743H377Q397 743 393 723L316 282Q314 268 313 257T311 234Q311 193 331 178T394 162Q447 162 475 188T515 282L592 723Q594 731 601 737T616 743H773H773ZM725 916L708 818Q706 810 698 804T681 798H565Q557 798 552 802T547 815V818L564 916Q566 924 574 930T590 936H706Q714 936 719 932T725 919V916ZM491 916L474 818Q472 810 464 804T448 798H332Q324 798 319 802T313 815V818L330 916Q332 924 340 930T357 936H473Q481 936 486 932T491 919V916Z"  />
<glyph unicode="&#xDD;" horiz-adv-x="684" d="M790 733Q790 728 787 722L579 377Q556 340 536 320T493 291L446 20Q444 12 437 6T422 0H259Q244 0 244 16V20L291 291Q272 299 258 319T235 377L149 722Q149 724 149 724T148 727Q148 733 152 738T165 743H342Q350 743 353 738T359 724L408 459Q410 449 416 449Q423 449 428 459L571 724Q575 732 580 737T594 743H779Q790 743 790 733ZM704 934Q704 929 698 925L551 805Q544 800 540 797T525 794H396Q388 794 388 800Q388 805 394 811L505 925Q513 933 518 936T535 940H693Q704 940 704 934Z"  />
<glyph unicode="&#xDE;" horiz-adv-x="678" d="M726 473Q726 391 701 332T630 233T521 176T381 157Q364 157 340 157T293 158L269 20Q267 12 262 6T249 0H87Q79 0 74 5T69 17V20L193 724Q196 743 215 743H377Q393 743 393 728V724L383 669Q393 669 413 669T449 670Q504 670 554 659T643 624T703 563T726 473ZM521 441Q521 475 495 487T423 499H353L323 327H393Q453 327 487 353T521 441Z"  />
<glyph unicode="&#xDF;" horiz-adv-x="680" d="M723 590Q723 530 694 478T609 399Q644 377 659 343T674 277Q674 210 654 157T595 67T503 11T380 -9Q366 -9 348 -8T314 -3Q298 1 298 14V17L319 136Q322 150 333 150H370Q433 150 456 179T480 269Q480 301 461 313T402 325H375Q359 325 359 341V345L376 441Q378 452 384 456T399 461H426Q483 461 504 487T525 568Q525 592 509 604T454 616Q398 616 373 594T338 516L251 21Q249 13 243 7T228 0H74Q66 0 62 5T58 17V21L145 516Q158 591 185 642T254 724T353 768T483 781Q547 781 592 764T667 720T709 659T723 590Z"  />
<glyph unicode="&#xE0;" horiz-adv-x="612" d="M655 542Q655 537 654 534L564 20Q562 12 557 6T543 0H418Q400 0 400 17V20L404 51Q364 20 328 6T250 -9Q214 -9 182 4T127 41T90 102T76 186Q76 200 78 215T82 244L99 345Q111 417 139 464T207 539T297 579T405 591Q459 591 514 584T624 566Q638 563 646 559T655 542ZM443 428Q430 430 414 431T383 432Q341 432 320 411T288 330L269 223Q267 216 267 210T267 198Q267 171 279 162T313 152Q336 152 360 161T399 179L443 428ZM534 642Q534 633 523 633H404Q393 633 390 636T382 644L277 764Q274 768 274 771Q274 779 286 779H434Q445 779 450 776T460 764L531 650Q534 645 534 642Z"  />
<glyph unicode="&#xE1;" horiz-adv-x="612" d="M655 542Q655 537 654 534L564 20Q562 12 557 6T543 0H418Q400 0 400 17V20L404 51Q364 20 328 6T250 -9Q214 -9 182 4T127 41T90 102T76 186Q76 200 78 215T82 244L99 345Q111 417 139 464T207 539T297 579T405 591Q459 591 514 584T624 566Q638 563 646 559T655 542ZM443 428Q430 430 414 431T383 432Q341 432 320 411T288 330L269 223Q267 216 267 210T267 198Q267 171 279 162T313 152Q336 152 360 161T399 179L443 428ZM649 773Q649 768 643 764L496 644Q489 639 485 636T470 633H341Q333 633 333 639Q333 644 339 650L450 764Q458 772 463 775T480 779H638Q649 779 649 773Z"  />
<glyph unicode="&#xE2;" horiz-adv-x="612" d="M655 542Q655 537 654 534L564 20Q562 12 557 6T543 0H418Q400 0 400 17V20L404 51Q364 20 328 6T250 -9Q214 -9 182 4T127 41T90 102T76 186Q76 200 78 215T82 244L99 345Q111 417 139 464T207 539T297 579T405 591Q459 591 514 584T624 566Q638 563 646 559T655 542ZM443 428Q430 430 414 431T383 432Q341 432 320 411T288 330L269 223Q267 216 267 210T267 198Q267 171 279 162T313 152Q336 152 360 161T399 179L443 428ZM636 642Q636 633 626 633H506Q495 633 492 635T484 644L438 703L372 644Q365 638 361 636T346 633H218Q210 633 210 639Q210 644 216 650L322 764Q330 772 335 775T352 779H542Q553 779 558 776T568 764L634 650Q636 647 636 642Z"  />
<glyph unicode="&#xE3;" horiz-adv-x="612" d="M655 542Q655 537 654 534L564 20Q562 12 557 6T543 0H418Q400 0 400 17V20L404 51Q364 20 328 6T250 -9Q214 -9 182 4T127 41T90 102T76 186Q76 200 78 215T82 244L99 345Q111 417 139 464T207 539T297 579T405 591Q459 591 514 584T624 566Q638 563 646 559T655 542ZM443 428Q430 430 414 431T383 432Q341 432 320 411T288 330L269 223Q267 216 267 210T267 198Q267 171 279 162T313 152Q336 152 360 161T399 179L443 428ZM635 789Q652 789 649 772L646 754Q634 683 598 655T500 627Q474 627 454 633T416 651L385 672Q363 687 349 687Q341 687 335 683T326 667L323 650Q320 633 304 633H220Q203 633 206 650L209 667Q221 736 259 765T359 794Q384 794 404 788T439 771L471 750Q483 742 491 738T507 734Q525 734 529 755L532 772Q535 789 552 789H635Z"  />
<glyph unicode="&#xE4;" horiz-adv-x="612" d="M655 542Q655 537 654 534L564 20Q562 12 557 6T543 0H418Q400 0 400 17V20L404 51Q364 20 328 6T250 -9Q214 -9 182 4T127 41T90 102T76 186Q76 200 78 215T82 244L99 345Q111 417 139 464T207 539T297 579T405 591Q459 591 514 584T624 566Q638 563 646 559T655 542ZM443 428Q430 430 414 431T383 432Q341 432 320 411T288 330L269 223Q267 216 267 210T267 198Q267 171 279 162T313 152Q336 152 360 161T399 179L443 428ZM628 756L611 658Q609 650 601 644T584 638H468Q460 638 455 642T450 655V658L467 756Q469 764 477 770T493 776H609Q617 776 622 772T628 759V756ZM394 756L377 658Q375 650 367 644T351 638H235Q227 638 222 642T216 655V658L233 756Q235 764 243 770T260 776H376Q384 776 389 772T394 759V756Z"  />
<glyph unicode="&#xE5;" horiz-adv-x="612" d="M655 542Q655 537 654 534L564 20Q562 12 557 6T543 0H418Q400 0 400 17V20L404 51Q364 20 328 6T250 -9Q214 -9 182 4T127 41T90 102T76 186Q76 200 78 215T82 244L99 345Q111 417 139 464T207 539T297 579T405 591Q459 591 514 584T624 566Q638 563 646 559T655 542ZM443 428Q430 430 414 431T383 432Q341 432 320 411T288 330L269 223Q267 216 267 210T267 198Q267 171 279 162T313 152Q336 152 360 161T399 179L443 428ZM564 752Q564 727 555 705T529 666T490 640T442 630Q417 630 395 639T357 665T332 704T323 752Q323 777 332 799T357 838T395 864T442 874Q467 874 489 865T528 839T554 800T564 752ZM484 753Q484 770 472 782T443 794Q426 794 415 782T403 753Q403 736 414 723T443 710Q460 710 472 723T484 753Z"  />
<glyph unicode="&#xE6;" horiz-adv-x="897" d="M918 376Q918 362 917 348T913 319L903 259Q901 249 894 243T878 237H567Q564 219 564 206Q564 187 570 176T586 159T612 151T646 149Q666 149 693 149T747 151T799 154T838 157H842Q857 157 857 144V140L841 50Q839 38 834 32T816 22Q765 6 713 -1T597 -9Q525 -9 473 27Q430 13 387 2T292 -9Q180 -9 124 34T68 150Q68 215 93 254T158 313T250 340T355 346H394L399 374Q400 379 400 383T401 391Q401 417 386 424T347 432Q323 432 297 432T248 430T205 428T175 425H174H173Q157 425 157 441V445L175 542Q178 559 198 566Q225 574 269 582T375 591Q482 591 538 537Q570 563 610 577T705 591Q759 591 799 574T866 528T905 460T918 376ZM738 383Q738 409 725 425T677 442Q635 442 615 414T585 343H733Q738 366 738 383ZM337 242Q295 242 274 225T252 164Q252 139 268 132T316 125Q328 125 340 125T361 128L381 242H337Z"  />
<glyph unicode="&#xE7;" horiz-adv-x="475" d="M535 559Q535 556 534 554L514 441Q512 433 506 428T491 422H489Q463 424 438 426T376 429Q360 429 347 425T323 410T304 379T290 328L277 253Q273 230 273 210Q273 176 287 165T327 153Q364 153 390 155T443 159H445Q452 159 457 155T462 144Q462 142 462 142T461 140L441 28Q439 18 434 14T417 7Q391 1 357 -4T277 -9Q229 -9 192 6T130 49T93 114T80 196Q80 210 81 224T85 253L98 328Q122 467 194 529T383 591Q428 591 462 586T517 575Q525 573 530 570T535 559ZM346 -42Q346 -47 340 -51L193 -171Q186 -176 182 -179T166 -182H38Q30 -182 30 -176Q30 -171 36 -165L147 -51Q155 -43 161 -40T178 -36H336Q346 -36 346 -42Z"  />
<glyph unicode="&#xE8;" horiz-adv-x="602" d="M623 376Q623 362 622 348T618 319L608 259Q606 249 599 243T583 237H272Q269 219 269 206Q269 187 275 176T291 159T317 151T351 149Q371 149 398 149T452 151T504 154T543 157H547Q562 157 562 144V140L546 50Q544 38 539 32T521 22Q470 6 418 -1T302 -9Q260 -9 221 4T150 43T100 109T81 202Q81 214 82 226T85 253L96 319Q108 393 135 445T203 529T295 576T410 591Q464 591 504 574T571 528T610 460T623 376ZM443 383Q443 409 430 425T382 442Q340 442 320 414T290 343H438Q443 366 443 383ZM496 642Q496 633 485 633H366Q355 633 352 636T344 644L239 764Q236 768 236 771Q236 779 248 779H396Q407 779 412 776T422 764L493 650Q496 645 496 642Z"  />
<glyph unicode="&#xE9;" horiz-adv-x="602" d="M623 376Q623 362 622 348T618 319L608 259Q606 249 599 243T583 237H272Q269 219 269 206Q269 187 275 176T291 159T317 151T351 149Q371 149 398 149T452 151T504 154T543 157H547Q562 157 562 144V140L546 50Q544 38 539 32T521 22Q470 6 418 -1T302 -9Q260 -9 221 4T150 43T100 109T81 202Q81 214 82 226T85 253L96 319Q108 393 135 445T203 529T295 576T410 591Q464 591 504 574T571 528T610 460T623 376ZM443 383Q443 409 430 425T382 442Q340 442 320 414T290 343H438Q443 366 443 383ZM641 773Q641 768 635 764L488 644Q481 639 477 636T462 633H333Q325 633 325 639Q325 644 331 650L442 764Q450 772 455 775T472 779H630Q641 779 641 773Z"  />
<glyph unicode="&#xEA;" horiz-adv-x="602" d="M623 376Q623 362 622 348T618 319L608 259Q606 249 599 243T583 237H272Q269 219 269 206Q269 187 275 176T291 159T317 151T351 149Q371 149 398 149T452 151T504 154T543 157H547Q562 157 562 144V140L546 50Q544 38 539 32T521 22Q470 6 418 -1T302 -9Q260 -9 221 4T150 43T100 109T81 202Q81 214 82 226T85 253L96 319Q108 393 135 445T203 529T295 576T410 591Q464 591 504 574T571 528T610 460T623 376ZM443 383Q443 409 430 425T382 442Q340 442 320 414T290 343H438Q443 366 443 383ZM629 642Q629 633 619 633H499Q488 633 485 635T477 644L431 703L365 644Q358 638 354 636T339 633H211Q203 633 203 639Q203 644 209 650L315 764Q323 772 328 775T345 779H535Q546 779 551 776T561 764L627 650Q629 647 629 642Z"  />
<glyph unicode="&#xEB;" horiz-adv-x="602" d="M623 376Q623 362 622 348T618 319L608 259Q606 249 599 243T583 237H272Q269 219 269 206Q269 187 275 176T291 159T317 151T351 149Q371 149 398 149T452 151T504 154T543 157H547Q562 157 562 144V140L546 50Q544 38 539 32T521 22Q470 6 418 -1T302 -9Q260 -9 221 4T150 43T100 109T81 202Q81 214 82 226T85 253L96 319Q108 393 135 445T203 529T295 576T410 591Q464 591 504 574T571 528T610 460T623 376ZM443 383Q443 409 430 425T382 442Q340 442 320 414T290 343H438Q443 366 443 383ZM630 755L613 657Q611 649 603 643T586 637H470Q462 637 457 641T452 654V657L469 755Q471 763 479 769T495 775H611Q619 775 624 771T630 758V755ZM396 755L379 657Q377 649 369 643T353 637H237Q229 637 224 641T218 654V657L235 755Q237 763 245 769T262 775H378Q386 775 391 771T396 758V755Z"  />
<glyph unicode="&#xEC;" horiz-adv-x="313" d="M352 561L257 22Q255 14 247 7T231 0H82Q74 0 69 5T64 19V22L159 561Q161 569 169 575T185 582H334Q342 582 347 577T352 564V561ZM371 642Q371 633 360 633H241Q230 633 227 636T219 644L114 764Q111 768 111 771Q111 779 123 779H271Q282 779 287 776T297 764L368 650Q371 645 371 642Z"  />
<glyph unicode="&#xED;" horiz-adv-x="313" d="M352 561L257 22Q255 14 247 7T231 0H82Q74 0 69 5T64 19V22L159 561Q161 569 169 575T185 582H334Q342 582 347 577T352 564V561ZM481 773Q481 768 475 764L328 644Q321 639 317 636T302 633H173Q165 633 165 639Q165 644 171 650L282 764Q290 772 295 775T312 779H470Q481 779 481 773Z"  />
<glyph unicode="&#xEE;" horiz-adv-x="313" d="M352 561L257 22Q255 14 247 7T231 0H82Q74 0 69 5T64 19V22L159 561Q161 569 169 575T185 582H334Q342 582 347 577T352 564V561ZM484 642Q484 633 474 633H354Q343 633 340 635T332 644L286 703L220 644Q213 638 209 636T194 633H66Q58 633 58 639Q58 644 64 650L170 764Q178 772 183 775T200 779H390Q401 779 406 776T416 764L482 650Q484 647 484 642Z"  />
<glyph unicode="&#xEF;" horiz-adv-x="313" d="M352 561L257 22Q255 14 247 7T231 0H82Q74 0 69 5T64 19V22L159 561Q161 569 169 575T185 582H334Q342 582 347 577T352 564V561ZM489 755L472 657Q470 649 462 643T445 637H329Q321 637 316 641T311 654V657L328 755Q330 763 338 769T354 775H470Q478 775 483 771T489 758V755ZM255 755L238 657Q236 649 228 643T212 637H96Q88 637 83 641T77 654V657L94 755Q96 763 104 769T121 775H237Q245 775 250 771T255 758V755Z"  />
<glyph unicode="&#xF0;" horiz-adv-x="605" d="M626 392Q626 366 624 340T616 287L612 266Q584 122 509 57T300 -9Q249 -9 208 6T139 48T95 115T80 202Q80 231 86 266L90 287Q105 367 131 420T196 504T285 548T397 561Q417 561 431 554Q412 577 391 592T340 623L264 572Q255 566 250 566Q244 566 240 572L220 600Q218 604 218 606Q218 611 222 615T231 624L273 652L230 667Q225 669 221 672T216 680Q216 681 218 687L260 765Q264 772 268 774T277 776Q282 776 285 775Q317 767 344 757T397 736L479 791Q487 796 493 796Q499 796 504 791L525 763Q527 761 527 757Q527 748 515 741L461 704Q545 654 585 574T626 392ZM430 342Q430 376 416 389T373 402Q355 402 341 397T316 379T297 344T282 287L278 266Q272 234 272 213Q272 179 286 165T329 151Q368 151 388 176T420 266L424 287Q430 320 430 342Z"  />
<glyph unicode="&#xF1;" horiz-adv-x="632" d="M646 421Q646 401 643 378T636 334L581 22Q579 14 572 7T556 0H406Q393 0 390 7T389 22L445 341Q447 354 449 366T452 392Q452 415 442 423T405 431Q382 431 358 424T320 409L252 22Q250 13 243 7T225 0H82Q71 0 64 5T59 22L155 562Q157 570 163 576T178 582H315Q336 582 332 562L327 536Q380 571 420 581T489 591Q573 591 609 549T646 421ZM646 789Q663 789 660 772L657 754Q645 683 609 655T511 627Q485 627 465 633T427 651L396 672Q374 687 360 687Q352 687 346 683T337 667L334 650Q331 633 315 633H231Q214 633 217 650L220 667Q232 736 270 765T370 794Q395 794 415 788T450 771L482 750Q494 742 502 738T518 734Q536 734 540 755L543 772Q546 789 563 789H646Z"  />
<glyph unicode="&#xF2;" horiz-adv-x="605" d="M626 380Q626 369 624 349T621 320L611 262Q599 189 574 138T509 54T418 6T301 -9Q247 -9 206 6T137 48T95 115T81 201Q81 215 82 230T86 262L96 320Q109 394 135 445T201 529T292 576T407 591Q459 591 500 576T569 534T611 467T626 380ZM435 371Q435 404 422 417T379 430Q341 430 320 405T287 320L277 262Q275 247 274 235T272 212Q272 177 286 164T330 151Q368 151 388 174T420 262L430 320Q432 335 433 347T435 371ZM516 642Q516 633 505 633H386Q375 633 372 636T364 644L259 764Q256 768 256 771Q256 779 268 779H416Q427 779 432 776T442 764L513 650Q516 645 516 642Z"  />
<glyph unicode="&#xF3;" horiz-adv-x="605" d="M626 380Q626 369 624 349T621 320L611 262Q599 189 574 138T509 54T418 6T301 -9Q247 -9 206 6T137 48T95 115T81 201Q81 215 82 230T86 262L96 320Q109 394 135 445T201 529T292 576T407 591Q459 591 500 576T569 534T611 467T626 380ZM435 371Q435 404 422 417T379 430Q341 430 320 405T287 320L277 262Q275 247 274 235T272 212Q272 177 286 164T330 151Q368 151 388 174T420 262L430 320Q432 335 433 347T435 371ZM626 773Q626 768 620 764L473 644Q466 639 462 636T447 633H318Q310 633 310 639Q310 644 316 650L427 764Q435 772 440 775T457 779H615Q626 779 626 773Z"  />
<glyph unicode="&#xF4;" horiz-adv-x="605" d="M626 380Q626 369 624 349T621 320L611 262Q599 189 574 138T509 54T418 6T301 -9Q247 -9 206 6T137 48T95 115T81 201Q81 215 82 230T86 262L96 320Q109 394 135 445T201 529T292 576T407 591Q459 591 500 576T569 534T611 467T626 380ZM435 371Q435 404 422 417T379 430Q341 430 320 405T287 320L277 262Q275 247 274 235T272 212Q272 177 286 164T330 151Q368 151 388 174T420 262L430 320Q432 335 433 347T435 371ZM628 642Q628 633 618 633H498Q487 633 484 635T476 644L430 703L364 644Q357 638 353 636T338 633H210Q202 633 202 639Q202 644 208 650L314 764Q322 772 327 775T344 779H534Q545 779 550 776T560 764L626 650Q628 647 628 642Z"  />
<glyph unicode="&#xF5;" horiz-adv-x="605" d="M626 380Q626 369 624 349T621 320L611 262Q599 189 574 138T509 54T418 6T301 -9Q247 -9 206 6T137 48T95 115T81 201Q81 215 82 230T86 262L96 320Q109 394 135 445T201 529T292 576T407 591Q459 591 500 576T569 534T611 467T626 380ZM435 371Q435 404 422 417T379 430Q341 430 320 405T287 320L277 262Q275 247 274 235T272 212Q272 177 286 164T330 151Q368 151 388 174T420 262L430 320Q432 335 433 347T435 371ZM634 789Q651 789 648 772L645 754Q633 683 597 655T499 627Q473 627 453 633T415 651L384 672Q362 687 348 687Q340 687 334 683T325 667L322 650Q319 633 303 633H219Q202 633 205 650L208 667Q220 736 258 765T358 794Q383 794 403 788T438 771L470 750Q482 742 490 738T506 734Q524 734 528 755L531 772Q534 789 551 789H634Z"  />
<glyph unicode="&#xF6;" horiz-adv-x="605" d="M626 380Q626 369 624 349T621 320L611 262Q599 189 574 138T509 54T418 6T301 -9Q247 -9 206 6T137 48T95 115T81 201Q81 215 82 230T86 262L96 320Q109 394 135 445T201 529T292 576T407 591Q459 591 500 576T569 534T611 467T626 380ZM435 371Q435 404 422 417T379 430Q341 430 320 405T287 320L277 262Q275 247 274 235T272 212Q272 177 286 164T330 151Q368 151 388 174T420 262L430 320Q432 335 433 347T435 371ZM632 755L615 657Q613 649 605 643T588 637H472Q464 637 459 641T454 654V657L471 755Q473 763 481 769T497 775H613Q621 775 626 771T632 758V755ZM398 755L381 657Q379 649 371 643T355 637H239Q231 637 226 641T220 654V657L237 755Q239 763 247 769T264 775H380Q388 775 393 771T398 758V755Z"  />
<glyph unicode="&#xF7;" horiz-adv-x="666" d="M497 562Q497 554 491 548T476 542H330Q322 542 316 548T310 562V684Q310 692 316 698T330 704H476Q484 704 490 698T497 684V562ZM640 336Q640 328 634 324T620 320H188Q180 320 174 324T168 336V446Q168 454 174 458T188 462H620Q628 462 634 458T640 446V336ZM497 81Q497 73 491 67T476 61H330Q322 61 316 67T310 81V203Q310 211 316 217T330 223H476Q484 223 490 217T497 203V81Z"  />
<glyph unicode="&#xF8;" horiz-adv-x="605" d="M684 610Q684 607 679 600L592 505Q626 452 626 380Q626 366 625 351T621 320L611 262Q586 117 509 54T301 -9Q215 -9 159 30L108 -25Q101 -32 98 -33T90 -35H32Q23 -35 23 -29Q23 -24 28 -19L115 75Q81 125 81 201Q81 215 82 230T86 262L96 320Q109 394 135 445T201 529T292 576T407 591Q451 591 486 581T549 550L600 606Q606 613 609 614T618 616H676Q684 616 684 610ZM424 414Q411 430 379 430Q341 430 320 405T287 320L277 262L275 251L424 414ZM283 167Q291 158 302 155T330 151Q368 151 388 174T420 262L430 320L432 329L283 167Z"  />
<glyph unicode="&#xF9;" horiz-adv-x="632" d="M653 582Q664 582 671 578T676 560L580 20Q578 12 574 6T557 0H420Q412 0 407 4T403 20L408 46Q355 11 315 1T248 -9Q205 -9 175 4T127 42T100 98T91 168Q91 188 93 207T99 248L154 560Q156 568 161 575T179 582H329Q350 582 346 560L290 241Q287 226 285 214T283 191Q283 165 294 158T330 151Q353 151 377 158T415 173L483 560Q485 569 490 575T510 582H653ZM527 642Q527 633 516 633H397Q386 633 383 636T375 644L270 764Q267 768 267 771Q267 779 279 779H427Q438 779 443 776T453 764L524 650Q527 645 527 642Z"  />
<glyph unicode="&#xFA;" horiz-adv-x="632" d="M653 582Q664 582 671 578T676 560L580 20Q578 12 574 6T557 0H420Q412 0 407 4T403 20L408 46Q355 11 315 1T248 -9Q205 -9 175 4T127 42T100 98T91 168Q91 188 93 207T99 248L154 560Q156 568 161 575T179 582H329Q350 582 346 560L290 241Q287 226 285 214T283 191Q283 165 294 158T330 151Q353 151 377 158T415 173L483 560Q485 569 490 575T510 582H653ZM653 773Q653 768 647 764L500 644Q493 639 489 636T474 633H345Q337 633 337 639Q337 644 343 650L454 764Q462 772 467 775T484 779H642Q653 779 653 773Z"  />
<glyph unicode="&#xFB;" horiz-adv-x="632" d="M653 582Q664 582 671 578T676 560L580 20Q578 12 574 6T557 0H420Q412 0 407 4T403 20L408 46Q355 11 315 1T248 -9Q205 -9 175 4T127 42T100 98T91 168Q91 188 93 207T99 248L154 560Q156 568 161 575T179 582H329Q350 582 346 560L290 241Q287 226 285 214T283 191Q283 165 294 158T330 151Q353 151 377 158T415 173L483 560Q485 569 490 575T510 582H653ZM641 642Q641 633 631 633H511Q500 633 497 635T489 644L443 703L377 644Q370 638 366 636T351 633H223Q215 633 215 639Q215 644 221 650L327 764Q335 772 340 775T357 779H547Q558 779 563 776T573 764L639 650Q641 647 641 642Z"  />
<glyph unicode="&#xFC;" horiz-adv-x="632" d="M653 582Q664 582 671 578T676 560L580 20Q578 12 574 6T557 0H420Q412 0 407 4T403 20L408 46Q355 11 315 1T248 -9Q205 -9 175 4T127 42T100 98T91 168Q91 188 93 207T99 248L154 560Q156 568 161 575T179 582H329Q350 582 346 560L290 241Q287 226 285 214T283 191Q283 165 294 158T330 151Q353 151 377 158T415 173L483 560Q485 569 490 575T510 582H653ZM648 755L631 657Q629 649 621 643T604 637H488Q480 637 475 641T470 654V657L487 755Q489 763 497 769T513 775H629Q637 775 642 771T648 758V755ZM414 755L397 657Q395 649 387 643T371 637H255Q247 637 242 641T236 654V657L253 755Q255 763 263 769T280 775H396Q404 775 409 771T414 758V755Z"  />
<glyph unicode="&#xFD;" horiz-adv-x="623" d="M705 567Q705 564 703 560L428 -34Q410 -74 389 -105T337 -158T266 -191T165 -203Q150 -203 131 -202T94 -198T59 -192T33 -185Q25 -182 20 -179T14 -169V-166L31 -69Q33 -61 40 -55T57 -48H58Q86 -50 125 -53T193 -56Q214 -56 229 -48T254 -18L268 15H255Q220 15 201 30T176 84L118 560V563Q118 582 143 582H304Q312 582 315 576T320 562L338 218Q339 201 346 201H354L497 563Q504 582 522 582H687Q694 582 699 578T705 567ZM655 773Q655 768 649 764L502 644Q495 639 491 636T476 633H347Q339 633 339 639Q339 644 345 650L456 764Q464 772 469 775T486 779H644Q655 779 655 773Z"  />
<glyph unicode="&#xFE;" horiz-adv-x="616" d="M641 385Q641 371 639 356T635 326L622 253Q611 189 590 140T535 58T449 8T326 -9Q320 -9 309 -9T286 -7T263 -4T246 -1L216 -171Q214 -179 208 -185T194 -192H44Q36 -192 30 -187T24 -174V-171L187 753Q189 761 194 767T208 773H361Q369 773 374 769T379 756V753L350 588Q383 591 418 591Q467 591 508 578T579 539T624 475T641 385ZM448 371Q448 403 435 417T390 432Q368 432 354 431T322 428L274 153Q288 151 304 150T341 149Q383 149 402 177T430 252L444 329Q446 341 447 351T448 371Z"  />
<glyph unicode="&#xFF;" horiz-adv-x="623" d="M705 567Q705 564 703 560L428 -34Q410 -74 389 -105T337 -158T266 -191T165 -203Q150 -203 131 -202T94 -198T59 -192T33 -185Q25 -182 20 -179T14 -169V-166L31 -69Q33 -61 40 -55T57 -48H58Q86 -50 125 -53T193 -56Q214 -56 229 -48T254 -18L268 15H255Q220 15 201 30T176 84L118 560V563Q118 582 143 582H304Q312 582 315 576T320 562L338 218Q339 201 346 201H354L497 563Q504 582 522 582H687Q694 582 699 578T705 567ZM648 755L631 657Q629 649 621 643T604 637H488Q480 637 475 641T470 654V657L487 755Q489 763 497 769T513 775H629Q637 775 642 771T648 758V755ZM414 755L397 657Q395 649 387 643T371 637H255Q247 637 242 641T236 654V657L253 755Q255 763 263 769T280 775H396Q404 775 409 771T414 758V755Z"  />
<glyph unicode="&#x131;" horiz-adv-x="313" d="M352 561L257 22Q255 14 247 7T231 0H82Q74 0 69 5T64 19V22L159 561Q161 569 169 575T185 582H334Q342 582 347 577T352 564V561Z"  />
<glyph unicode="&#x152;" horiz-adv-x="985" d="M1058 721L1037 599Q1035 591 1028 585T1013 579H811Q784 579 772 569T754 529L741 456H987Q1004 456 1004 439V436L983 318Q981 310 975 304T960 298H714L699 215Q698 209 698 205T697 195Q697 178 706 172T738 165H940Q957 165 957 148V145L935 23Q932 6 912 3Q883 -1 836 -5T715 -9Q666 -9 622 1T546 38Q505 13 457 2T352 -9Q299 -9 253 6T171 51T116 128T95 239Q95 274 103 320L122 423Q140 518 174 581T257 683T363 737T487 753Q536 753 578 741T653 703Q690 735 738 744T847 753Q920 753 967 749T1042 741Q1058 740 1058 725V721ZM537 485Q537 532 517 553T455 574Q402 574 373 539T328 423L309 320Q306 302 304 287T302 258Q302 211 322 191T384 170Q437 170 466 204T511 320L530 423Q533 441 535 456T537 485Z"  />
<glyph unicode="&#x153;" horiz-adv-x="938" d="M959 376Q959 362 958 348T954 319L944 259Q942 249 935 243T919 237H608Q605 219 605 206Q605 187 611 176T627 159T653 151T687 149Q707 149 734 149T788 151T840 154T879 157H883Q898 157 898 144V140L882 50Q880 38 875 32T857 22Q806 6 754 -1T638 -9Q597 -9 559 3T490 40Q453 14 406 3T301 -9Q247 -9 206 6T137 48T95 115T81 201Q81 215 82 230T86 262L96 320Q109 394 135 445T201 529T292 576T407 591Q512 591 569 534Q600 564 643 577T746 591Q800 591 840 574T907 528T946 460T959 376ZM779 383Q779 409 766 425T718 442Q676 442 656 414T626 343H774Q779 366 779 383ZM435 371Q435 404 422 417T379 430Q341 430 320 405T287 320L277 262Q275 247 274 235T272 212Q272 177 286 164T330 151Q368 151 388 174T420 262L430 320Q432 335 433 347T435 371Z"  />
<glyph unicode="&#x160;" horiz-adv-x="606" d="M671 709L649 584Q646 565 628 565H626Q611 566 584 568T526 572T461 576T401 578Q380 578 362 570T344 536Q344 525 353 517T388 493L510 421Q564 389 587 348T610 254Q610 184 583 134T511 53T406 6T283 -9Q221 -9 173 -2T86 17Q79 19 74 23T69 34V37L90 160Q92 168 98 174T113 180H115Q130 178 156 176T210 171T267 167T315 165Q345 165 366 177T388 224Q388 235 380 245T349 269L220 354Q176 383 155 427T134 519Q134 586 158 631T224 703T320 741T434 753Q464 753 496 751T560 745T616 737T656 728Q662 726 666 723T671 712V709ZM239 932Q239 941 249 941H369Q380 941 383 939T391 930L437 871L503 930Q510 936 514 938T529 941H657Q665 941 665 935Q665 930 659 924L553 810Q545 802 540 799T523 795H333Q322 795 317 798T307 810L241 924Q239 927 239 932Z"  />
<glyph unicode="&#x161;" horiz-adv-x="516" d="M540 438Q538 429 534 423T517 418Q506 419 485 422T439 427T390 432T348 434Q333 434 320 431T307 415Q307 405 313 399T343 378L406 341Q438 322 458 303T490 265T506 227T511 188Q511 133 490 96T433 35T350 1T250 -9Q196 -9 146 -2T64 15Q46 21 49 37L67 140Q69 151 74 157T95 161Q117 158 141 155T189 150T233 147T265 145Q274 145 283 146T299 150T312 161T317 179Q317 187 312 193T293 207L212 255Q156 288 134 323T112 404Q112 460 133 496T188 553T268 582T361 591Q419 591 464 584T543 566Q552 563 556 559T559 544L540 438ZM181 770Q181 779 191 779H311Q322 779 325 777T333 768L379 709L445 768Q452 774 456 776T471 779H599Q607 779 607 773Q607 768 601 762L495 648Q487 640 482 637T465 633H275Q264 633 259 636T249 648L183 762Q181 765 181 770Z"  />
<glyph unicode="&#x178;" horiz-adv-x="684" d="M790 733Q790 728 787 722L579 377Q556 340 536 320T493 291L446 20Q444 12 437 6T422 0H259Q244 0 244 16V20L291 291Q272 299 258 319T235 377L149 722Q149 724 149 724T148 727Q148 733 152 738T165 743H342Q350 743 353 738T359 724L408 459Q410 449 416 449Q423 449 428 459L571 724Q575 732 580 737T594 743H779Q790 743 790 733ZM707 914L690 816Q688 808 680 802T663 796H547Q539 796 534 800T529 813V816L546 914Q548 922 556 928T572 934H688Q696 934 701 930T707 917V914ZM473 914L456 816Q454 808 446 802T430 796H314Q306 796 301 800T295 813V816L312 914Q314 922 322 928T339 934H455Q463 934 468 930T473 917V914Z"  />
<glyph unicode="&#x17D;" horiz-adv-x="632" d="M696 727L674 601Q672 593 664 577T629 528L357 194Q351 186 351 182Q351 175 362 175H588Q605 175 605 159V156L581 20Q579 12 572 6T557 0H81Q59 0 59 19Q59 21 59 22T60 26L78 131Q80 142 86 153T105 180L404 549Q410 556 410 562Q410 568 400 568H186Q170 568 170 584V588L194 724Q196 732 202 737T217 743H678Q686 743 691 741T696 731V727ZM269 932Q269 941 279 941H399Q410 941 413 939T421 930L467 871L533 930Q540 936 544 938T559 941H687Q695 941 695 935Q695 930 689 924L583 810Q575 802 570 799T553 795H363Q352 795 347 798T337 810L271 924Q269 927 269 932Z"  />
<glyph unicode="&#x17E;" horiz-adv-x="541" d="M591 555L575 464Q572 447 567 439T550 418L334 171Q329 164 329 161Q329 156 337 156H505Q520 156 520 143V140L499 20Q497 12 490 6T475 0H74Q64 0 58 6T52 22V27L67 111Q69 124 73 133T89 155L316 414Q322 420 322 424Q322 429 314 429H146Q132 429 132 442V445L153 562Q155 570 162 576T177 582H570Q580 582 585 576T591 560V555ZM198 770Q198 779 208 779H328Q339 779 342 777T350 768L396 709L462 768Q469 774 473 776T488 779H616Q624 779 624 773Q624 768 618 762L512 648Q504 640 499 637T482 633H292Q281 633 276 636T266 648L200 762Q198 765 198 770Z"  />
<glyph unicode="&#x192;" horiz-adv-x="666" d="M708 768Q708 766 708 765T707 762L686 670Q684 662 677 656T660 650H592Q573 650 562 648T543 642T532 629T525 609L493 465H623Q640 465 640 450Q640 448 640 448T639 445L616 342Q614 334 607 328T590 321H460L389 8Q377 -46 353 -81T295 -138T223 -167T141 -175Q109 -175 78 -172T31 -165Q13 -161 13 -150Q13 -149 13 -148T14 -145L34 -53Q36 -45 43 -40T60 -34H129Q166 -34 178 -25T195 8L266 321H141Q124 321 124 337Q124 339 124 339T125 342L148 445Q150 453 157 459T174 465H300L332 609Q344 663 368 698T425 755T497 784T579 792Q611 792 643 789T690 782Q708 778 708 768Z"  />
<glyph unicode="&#x2C6;" horiz-adv-x="472" d="M562 642Q562 633 552 633H432Q421 633 418 635T410 644L364 703L298 644Q291 638 287 636T272 633H144Q136 633 136 639Q136 644 142 650L248 764Q256 772 261 775T278 779H468Q479 779 484 776T494 764L560 650Q562 647 562 642Z"  />
<glyph unicode="&#x2C7;" horiz-adv-x="472" d="M159 770Q159 779 169 779H289Q300 779 303 777T311 768L357 709L423 768Q430 774 434 776T449 779H577Q585 779 585 773Q585 768 579 762L473 648Q465 640 460 637T443 633H253Q242 633 237 636T227 648L161 762Q159 765 159 770Z"  />
<glyph unicode="&#x2DA;" horiz-adv-x="472" d="M498 715Q498 690 489 668T463 629T424 603T376 593Q351 593 329 602T291 628T266 667T257 715Q257 740 266 762T291 801T329 827T376 837Q401 837 423 828T462 802T488 763T498 715ZM418 716Q418 733 406 745T377 757Q360 757 349 745T337 716Q337 699 348 686T377 673Q394 673 406 686T418 716Z"  />
<glyph unicode="&#x2DC;" horiz-adv-x="498" d="M578 789Q595 789 592 772L589 754Q577 683 541 655T443 627Q417 627 397 633T359 651L328 672Q306 687 292 687Q284 687 278 683T269 667L266 650Q263 633 247 633H163Q146 633 149 650L152 667Q164 736 202 765T302 794Q327 794 347 788T382 771L414 750Q426 742 434 738T450 734Q468 734 472 755L475 772Q478 789 495 789H578Z"  />
<glyph unicode="&#x2013;" horiz-adv-x="309" d="M367 249Q365 241 359 236T344 230H44Q25 230 28 249L44 339Q46 347 52 353T67 359H367Q375 359 380 353T383 339L367 249H367Z"  />
<glyph unicode="&#x2014;" horiz-adv-x="599" d="M657 249Q655 241 649 236T634 230H44Q25 230 28 249L44 339Q46 347 52 353T67 359H657Q665 359 670 353T673 339L657 249H657Z"  />
<glyph unicode="&#x2018;" horiz-adv-x="277" d="M391 766Q391 761 388 754L289 524Q281 505 266 505H122Q112 505 112 513Q112 518 115 524L238 754Q243 764 247 768T260 773H383Q391 773 391 766Z"  />
<glyph unicode="&#x2019;" horiz-adv-x="277" d="M390 765Q390 760 387 754L264 524Q259 514 255 510T242 505H119Q111 505 111 512Q111 516 114 524L213 754Q221 773 236 773H380Q390 773 390 765Z"  />
<glyph unicode="&#x201A;" horiz-adv-x="277" d="M304 168Q304 163 301 159L155 -79Q150 -87 144 -93T129 -99H25Q9 -99 9 -85Q9 -81 10 -79L119 159Q123 167 129 173T144 179H291Q304 179 304 168Z"  />
<glyph unicode="&#x201C;" horiz-adv-x="515" d="M629 766Q629 761 626 754L527 524Q519 505 504 505H360Q350 505 350 513Q350 518 353 524L475 754Q480 764 484 768T497 773H621Q629 773 629 766ZM390 766Q390 761 387 754L289 524Q281 505 266 505H122Q112 505 112 513Q112 518 115 524L237 754Q242 764 246 768T259 773H382Q390 773 390 766Z"  />
<glyph unicode="&#x201D;" horiz-adv-x="515" d="M628 765Q628 760 625 754L502 524Q497 514 493 510T480 505H357Q349 505 349 512Q349 516 352 524L451 754Q459 773 474 773H618Q628 773 628 765ZM389 765Q389 760 386 754L264 524Q259 514 255 510T242 505H119Q111 505 111 512Q111 516 114 524L213 754Q221 773 236 773H379Q389 773 389 765Z"  />
<glyph unicode="&#x201E;" horiz-adv-x="515" d="M540 168Q540 163 537 159L391 -79Q386 -87 380 -93T365 -99H261Q245 -99 245 -85Q245 -81 246 -79L355 159Q359 167 365 173T380 179H527Q540 179 540 168ZM295 168Q295 163 292 159L146 -79Q141 -87 135 -93T120 -99H16Q0 -99 0 -85Q0 -81 1 -79L110 159Q114 167 120 173T135 179H282Q295 179 295 168Z"  />
<glyph unicode="&#x2020;" horiz-adv-x="455" d="M530 581L508 454Q505 438 486 438H400L325 14Q323 6 319 0T306 -6H144Q131 -6 131 9V14L206 438H124Q108 438 108 451V454L130 581Q133 596 152 596H234L262 754Q264 762 269 767T282 773H443Q450 773 453 769T456 758V754L428 596H514Q530 596 530 584V581Z"  />
<glyph unicode="&#x2021;" horiz-adv-x="455" d="M530 581L508 454Q505 438 486 438H400L386 360H472Q489 360 489 348V345L466 218Q463 202 445 202H359L325 14Q323 6 319 0T306 -6H144Q131 -6 131 9V14L165 202H83Q66 202 66 215V218L89 345Q92 360 110 360H192L206 438H124Q108 438 108 451V454L130 581Q133 596 152 596H234L262 754Q264 762 269 767T282 773H443Q450 773 453 769T456 758V754L428 596H514Q530 596 530 584V581Z"  />
<glyph unicode="&#x2022;" horiz-adv-x="418" d="M440 367Q440 332 427 301T390 247T335 211T269 197Q234 197 203 210T149 247T113 301T99 367Q99 402 112 433T149 487T203 524T269 538Q304 538 335 525T389 488T426 433T440 367Z"  />
<glyph unicode="&#x2026;" horiz-adv-x="833" d="M813 159L789 20Q787 12 780 6T765 0H619Q602 0 602 17V20L626 159Q628 167 635 173T651 179H797Q813 179 813 163V159ZM538 159L514 20Q512 12 505 6T490 0H344Q327 0 327 17V20L351 159Q353 167 360 173T376 179H522Q538 179 538 163V159ZM263 159L239 20Q237 12 230 6T215 0H69Q52 0 52 17V20L76 159Q78 167 85 173T101 179H247Q263 179 263 163V159Z"  />
<glyph unicode="&#x2030;" horiz-adv-x="1223" d="M1235 281Q1235 270 1234 259T1231 235L1219 167Q1202 71 1157 31T1036 -9Q974 -9 942 26T909 123Q909 134 910 144T913 167L925 235Q934 286 950 319T989 373T1043 401T1110 410Q1173 410 1204 376T1235 281ZM879 281Q879 270 878 259T875 235L863 167Q846 71 801 31T680 -9Q618 -9 586 26T553 123Q553 134 554 144T557 167L569 235Q578 286 594 319T633 373T687 401T754 410Q817 410 848 376T879 281ZM852 736Q852 730 846 723L308 22Q300 11 294 6T280 0H158Q147 0 147 10Q147 15 152 22L690 723Q699 734 705 738T720 743H843Q852 743 852 736ZM448 624Q448 613 447 602T444 578L432 510Q415 414 370 374T249 334Q187 334 155 369T122 466Q122 477 123 487T126 510L138 578Q147 629 163 662T202 716T256 744T323 753Q386 753 417 719T448 624ZM1120 279Q1120 299 1113 305T1092 312Q1082 312 1074 309T1060 298T1049 275T1040 235L1028 167Q1026 153 1025 143T1023 125Q1023 103 1030 96T1052 89Q1072 89 1083 103T1103 167L1115 235Q1117 249 1118 260T1120 279ZM764 279Q764 299 757 305T736 312Q726 312 718 309T704 298T693 275T684 235L672 167Q670 153 669 143T667 125Q667 103 674 96T696 89Q716 89 727 103T747 167L759 235Q761 249 762 260T764 279ZM333 622Q333 642 326 648T305 655Q295 655 287 652T273 641T262 618T253 578L241 510Q239 496 238 486T236 468Q236 446 243 439T265 432Q285 432 296 446T316 510L328 578Q330 592 331 603T333 622Z"  />
<glyph unicode="&#x2039;" horiz-adv-x="425" d="M477 512Q477 506 470 499L255 287L387 82Q390 77 390 73Q390 60 376 60H246Q236 60 230 62T219 71L94 263Q87 274 84 280T80 295Q80 300 81 306T88 318L280 509Q287 516 294 518T311 520H466Q477 520 477 512Z"  />
<glyph unicode="&#x203A;" horiz-adv-x="425" d="M440 285Q440 280 439 274T432 262L240 71Q233 64 226 62T209 60H54Q43 60 43 68Q43 74 50 81L265 293L133 498Q130 502 130 507Q130 520 144 520H274Q284 520 290 518T301 509L426 317Q433 306 436 300T440 285Z"  />
<glyph unicode="&#x20AC;" horiz-adv-x="666" d="M707 719Q707 717 707 716T706 713L684 592Q681 573 663 573H661H660Q630 576 599 578T531 580Q508 580 490 577T456 563T429 535T408 487H600Q610 487 610 480Q610 477 609 475L584 413Q581 405 577 403T566 401H386L376 345H539Q550 345 550 336Q550 333 548 327L525 274Q522 268 518 264T506 259H367V255V247Q367 220 373 204T392 178T420 166T458 163Q495 163 526 165T589 171H592Q608 171 608 157Q608 156 608 155T607 152L585 31Q583 21 578 17T560 9Q539 2 504 -3T421 -9Q365 -9 318 7T235 54T180 131T160 237Q160 242 160 247T161 259H121Q104 259 104 276V279L112 325Q114 333 121 339T136 345H172L179 401H146Q129 401 129 418V421L137 467Q139 475 146 481T161 487H196Q229 626 319 689T542 753Q589 753 621 748T688 735Q707 731 707 719Z"  />
<glyph unicode="&#x2122;" horiz-adv-x="847" d="M903 351Q903 341 892 341H799Q788 341 788 351V589Q788 607 786 618T779 635T762 643T733 645V351Q733 341 722 341H628Q618 341 618 351V645Q603 645 590 644T563 642V351Q563 341 552 341H459Q448 341 448 351V699Q448 721 455 729T481 739Q531 744 582 746T675 748Q732 748 775 743T846 722T889 674T903 589V351ZM418 661Q418 649 406 649H330V352Q330 341 318 341H223Q211 341 211 352V649H133Q121 649 121 661V731Q121 736 124 739T133 743H406Q411 743 414 740T418 731V661Z"  />

</font>
</defs>
</svg>
