<?xml  version="1.0" encoding="UTF-8"?>
<!DOCTYPE svg PUBLIC "-//W3C//DTD SVG 1.0//EN" "http://www.w3.org/TR/2001/REC-SVG-20010904/DTD/svg10.dtd" >
<svg xmlns="http://www.w3.org/2000/svg" >
<metadata>
<version>1.0</version>
<id><![CDATA[Neo Sans W01 Light]]></id>
<vendor>Monotype Imaging Inc.</vendor>
<credits>
<name>Fonts.com WebFonts</name>
<URL>http://webfonts.fonts.com</URL>
<role>Home of the Web fonts</role>
</credits>
<license>
<URL>http://webfonts.fonts.com/Legal</URL>
</license>
<copyright><![CDATA[Copyright 2004 Monotype Imaging Inc. All Rights Reserved. Neo Sans is designed by Sebastian Lester.]]></copyright>
<trademark><![CDATA[Neo Sans is a trademark of Monotype Imaging Inc. and may be registered in certain jurisdictions.]]></trademark>
<licensee>
<name></name>
</licensee>
</metadata>
<defs >
<font horiz-adv-x="484" id="be444bf4-2ebe-416a-baa3-b19910fb06ba">
<font-face font-family="" panose-1="2 11 3 4 3 5 4 4 2 4" ascent="980" descent="-216" units-per-em="1000" alphabetic="0">
</font-face>
<missing-glyph horiz-adv-x="0" />

<glyph unicode="&#xA;" />
<glyph unicode="&#xD;" horiz-adv-x="0" />
<glyph unicode=" " horiz-adv-x="215" />
<glyph unicode="!" horiz-adv-x="204" d="M124 192Q124 184 119 179T105 173H99Q91 173 86 178T80 192V724Q80 732 85 737T99 743H105Q113 743 118 738T124 724V192ZM124 13Q124 5 119 0T105 -6H99Q91 -6 86 -1T80 13V87Q80 95 85 100T99 106H105Q113 106 118 101T124 87V13Z"  />
<glyph unicode="&quot;" horiz-adv-x="295" d="M256 732Q256 727 255 724L207 552Q202 533 188 533H173Q164 533 164 543Q164 545 164 547T165 552L206 724Q210 743 226 743H245Q256 743 256 732ZM131 732Q131 727 130 724L82 552Q77 533 63 533H48Q39 533 39 543Q39 545 39 547T40 552L81 724Q85 743 101 743H120Q131 743 131 732Z"  />
<glyph unicode="#" horiz-adv-x="636" d="M586 497Q586 489 580 485T566 480H462L442 254H546Q563 254 563 237V234Q563 226 557 222T543 217H438L421 19Q420 11 416 6T403 0H394Q386 0 382 5T378 17V19L395 217H215L198 19Q197 11 193 6T180 0H170Q163 0 159 5T154 17V19L171 217H68Q60 217 55 221T50 234V237Q50 245 56 249T71 254H175L195 480H91Q83 480 78 484T73 497V501Q73 509 79 513T94 518H198L216 724Q217 732 222 737T235 743H245Q252 743 256 738T260 726V724L242 518H422L440 724Q441 732 446 737T459 743H468Q476 743 479 738T483 726V724L465 518H569Q586 518 586 501V497ZM239 480L219 254H399L419 480H239Z"  />
<glyph unicode="$" horiz-adv-x="580" d="M500 184Q500 152 493 121T464 64T407 20T312 -4V-109Q312 -117 308 -122T296 -128H286Q278 -128 274 -123T270 -109V-6H268Q219 -6 181 -2T113 5Q106 6 101 9T95 21V34Q95 42 100 44T114 47H118Q157 44 191 40T268 36Q325 36 361 47T417 79T446 126T454 184Q454 209 448 227T427 263T386 299T319 343L219 405Q178 430 151 452T109 495T87 538T80 586Q80 629 95 658T137 706T197 734T270 746V833Q270 841 274 846T286 852H296Q304 852 308 847T312 833V748H314Q354 748 392 745T463 738Q480 736 480 723V710Q480 696 461 696Q453 696 436 697T398 701T355 704T313 706Q214 706 170 677T126 586Q126 564 131 547T151 514T188 480T247 441L345 381Q393 352 423 328T470 281T494 235T500 184Z"  />
<glyph unicode="%" horiz-adv-x="757" d="M697 150Q697 71 664 33T571 -6Q512 -6 478 32T444 150V254Q444 333 478 371T571 409Q630 409 663 371T697 254V150ZM617 738Q617 733 611 724L191 13Q185 2 182 -2T170 -6H143Q136 -6 136 -1Q136 4 142 13L562 724Q568 735 571 739T583 743H609Q617 743 617 738ZM313 489Q313 410 280 372T187 333Q128 333 94 371T60 489V593Q60 672 94 710T187 748Q246 748 279 710T313 593V489ZM658 254Q658 315 636 343T571 371Q529 371 506 343T483 254V150Q483 89 506 61T571 33Q613 33 635 61T658 150V254ZM274 593Q274 654 252 682T187 710Q145 710 122 682T99 593V489Q99 428 122 400T187 372Q229 372 251 400T274 489V593Z"  />
<glyph unicode="&amp;" horiz-adv-x="637" d="M599 7Q599 0 591 0H559Q554 0 551 1T543 7L480 74Q444 36 394 15T276 -6Q238 -6 198 2T125 29T71 82T50 167V173Q50 204 57 229T83 279T130 327T202 378Q161 426 137 458T101 514T86 555T82 589V595Q82 637 97 666T137 714T198 740T273 748Q307 748 340 740T398 714T440 667T456 595V589Q456 560 448 536T421 487T372 439T299 389L266 369Q286 347 309 322T360 268L479 140Q506 182 518 235T530 348V359Q530 378 545 378H559Q575 378 575 359V348Q575 280 559 218T509 108L597 13Q599 9 599 7ZM410 595Q410 628 400 649T370 684T326 702T273 708Q241 708 215 703T169 686T139 651T128 595V589Q128 574 131 560T145 525T178 475T239 401L276 423Q317 447 343 467T384 507T404 546T410 589V595ZM328 238Q299 270 274 296T229 346Q191 322 166 303T125 264T104 223T97 173V167Q97 130 112 105T153 64T210 41T276 34Q335 34 378 53T452 105L328 238Z"  />
<glyph unicode="&apos;" horiz-adv-x="170" d="M131 732Q131 727 130 724L82 552Q77 533 63 533H48Q39 533 39 543Q39 545 39 547T40 552L81 724Q85 743 101 743H120Q131 743 131 732Z"  />
<glyph unicode="(" horiz-adv-x="265" d="M245 -190Q245 -195 237 -195H207Q196 -195 190 -188Q155 -145 130 -90T90 25T67 142T60 247V301Q60 348 67 406T89 523T130 637T190 736Q196 743 207 743H237Q245 743 245 738Q245 734 240 729Q205 692 180 639T138 526T113 408T105 301V247Q105 199 113 140T138 22T180 -90T240 -181Q245 -186 245 -190Z"  />
<glyph unicode=")" horiz-adv-x="265" d="M205 247Q205 200 198 142T176 25T135 -89T75 -188Q69 -195 58 -195H28Q20 -195 20 -190Q20 -186 25 -181Q59 -144 84 -91T127 22T152 140T160 247V301Q160 349 152 408T127 526T85 638T25 729Q20 734 20 738Q20 743 28 743H58Q69 743 75 736Q110 693 135 638T175 523T198 406T205 301V247H205Z"  />
<glyph unicode="*" horiz-adv-x="417" d="M383 615Q383 602 369 599L239 557L319 446Q324 439 324 434Q324 427 318 423L311 418Q306 415 303 415Q296 415 289 424L208 535L128 424Q122 416 114 416Q109 416 106 418L98 423Q92 426 92 433Q92 439 97 446L178 557L48 599Q34 602 34 615Q34 618 35 619L38 627Q41 636 52 636Q56 636 59 635L190 593V730Q190 738 193 743T204 748H213Q221 748 224 743T227 730V593L358 635Q361 636 365 636Q376 636 379 627L382 619Q383 618 383 615Z"  />
<glyph unicode="+" horiz-adv-x="580" d="M513 386Q513 378 507 374T493 370H311V189Q311 181 307 175T295 169H285Q277 169 273 175T269 189V370H88Q80 370 74 374T68 386V396Q68 404 74 408T88 412H269V594Q269 602 273 608T285 614H295Q303 614 307 608T311 594V412H493Q501 412 507 408T513 396V386H513Z"  />
<glyph unicode="&#x2c;" horiz-adv-x="168" d="M130 95Q130 93 128 87L65 -81Q61 -91 58 -95T46 -100H34Q24 -100 24 -90Q24 -87 26 -81L79 87Q84 106 99 106H118Q130 106 130 95Z"  />
<glyph unicode="-" horiz-adv-x="344" d="M292 273Q292 257 273 257H71Q52 257 52 273V281Q52 289 57 294T71 299H273Q281 299 286 294T292 281V273H292Z"  />
<glyph unicode="." horiz-adv-x="168" d="M106 13Q106 5 101 0T87 -6H81Q73 -6 68 -1T62 13V87Q62 95 67 100T81 106H87Q95 106 100 101T106 87V13H106Z"  />
<glyph unicode="/" horiz-adv-x="312" d="M298 736Q298 731 297 729L62 13Q60 6 57 0T46 -6H24Q14 -6 14 6Q14 11 15 13L250 729Q252 736 255 742T266 748H287Q293 748 295 745T298 736Z"  />
<glyph unicode="0" horiz-adv-x="580" d="M520 273Q520 201 504 148T457 61T385 11T290 -6Q237 -6 195 10T122 61T76 148T60 273V470Q60 542 76 594T122 681T194 731T290 748Q342 748 384 732T457 681T503 595T520 470V273ZM476 470Q476 589 429 648T290 708Q199 708 152 649T104 470V273Q104 154 151 94T290 34Q381 34 428 94T476 273V470Z"  />
<glyph unicode="1" horiz-adv-x="580" d="M256 41V700L84 678H79Q70 678 67 682T64 691V696Q64 707 70 710T84 716L277 743H282Q300 743 300 723V41H471Q479 41 485 38T491 26V15Q491 7 485 4T471 0H85Q77 0 71 3T65 15V26Q65 34 71 37T85 41H256Z"  />
<glyph unicode="2" horiz-adv-x="580" d="M500 573Q500 545 494 522T472 476T430 430T365 381L263 312Q215 279 187 252T146 198T129 143T125 81V41H471Q479 41 485 38T491 26V15Q491 7 485 4T471 0H100Q91 0 86 6T80 20V81Q80 118 85 151T106 216T153 280T235 346L337 415Q371 438 393 456T428 493T446 530T452 573Q452 641 410 673T268 706Q233 706 193 703T115 691Q113 691 112 691T110 690Q94 690 94 706V717Q94 725 99 728T113 733Q151 741 189 744T268 748Q381 748 440 706T500 573Z"  />
<glyph unicode="3" horiz-adv-x="580" d="M496 206Q496 149 479 109T429 44T350 6T248 -6Q208 -6 170 -2T102 9Q94 11 89 15T84 27V33Q84 49 100 49H104Q136 44 174 40T248 36Q351 36 400 75T449 206V226Q449 246 442 271T418 317T374 354T307 369H120Q112 369 107 374T101 387V394Q101 412 120 412H307Q350 412 378 426T421 462T443 508T449 553V565Q449 607 437 634T399 678T336 700T248 706Q213 706 175 701T104 691H100Q84 691 84 707V715Q84 722 89 726T102 733Q131 738 169 743T248 748Q306 748 352 740T430 711T479 655T496 565V553Q496 529 491 505T473 459T441 419T392 388Q421 375 441 355T473 313T490 268T496 226V206H496Z"  />
<glyph unicode="4" horiz-adv-x="580" d="M542 233Q542 225 537 221T523 216H423V19Q423 11 419 6T407 0H395Q387 0 383 5T379 19V216H102Q71 216 55 231T38 270Q38 282 41 291T52 312L332 723Q343 740 357 744T383 748Q400 748 411 737T423 700V258H523Q531 258 536 254T542 242V233ZM379 694Q379 702 373 702Q369 702 363 694L90 293Q86 287 83 281T80 270Q80 258 102 258H379V694Z"  />
<glyph unicode="5" horiz-adv-x="580" d="M503 215Q503 161 485 120T433 50T353 8T250 -6Q197 -6 163 -1T96 12Q77 15 77 31V42Q77 55 90 55Q95 55 98 54Q133 46 172 41T250 36Q350 36 404 80T459 215V240Q459 284 445 314T402 362T327 387T218 395H112Q92 395 92 415V417L115 726Q116 734 122 738T135 743H461Q469 743 475 739T481 727V716Q481 708 475 705T461 702H158L140 436H218Q300 436 354 424T442 386T489 325T503 240V215H503Z"  />
<glyph unicode="6" horiz-adv-x="580" d="M516 251Q516 123 462 59T285 -6Q172 -6 118 57T64 253V488Q64 558 80 607T127 688T203 734T309 748Q336 748 357 747T396 743T432 737T468 729Q476 727 483 723T490 711V701Q490 687 474 687Q469 687 466 688Q446 692 429 695T393 701T355 704T309 706Q258 706 220 695T158 659T121 591T108 488V426Q146 436 193 444T293 452Q334 452 374 443T445 411T496 351T516 256V251ZM472 256Q472 302 456 332T415 379T357 404T293 411Q267 411 241 409T191 404T145 396T108 387V253Q108 133 151 84T285 34Q330 34 364 45T423 83T459 150T472 251V256Z"  />
<glyph unicode="7" horiz-adv-x="580" d="M517 708Q517 696 512 686L192 10Q190 6 185 3T174 0H159Q151 0 148 4T144 15Q144 21 147 27L463 686Q464 688 464 692Q464 700 456 700H82Q74 700 68 704T62 716V724Q62 732 68 737T82 743H478Q495 743 506 734T517 708Z"  />
<glyph unicode="8" horiz-adv-x="580" d="M524 197Q524 145 507 107T458 44T384 7T290 -6Q239 -6 197 6T123 44T74 107T56 197V227Q56 248 62 271T81 316T113 358T160 389Q111 406 84 449T56 544V566Q56 613 73 647T121 704T195 737T290 748Q342 748 385 738T459 705T507 648T524 566V544Q524 492 497 449T420 389Q447 377 466 358T499 317T518 271T524 227V197ZM477 566Q477 640 429 673T290 706Q200 706 152 673T103 566V544Q103 523 110 500T133 457T178 425T249 412H331Q374 412 402 424T446 456T470 499T477 544V566ZM477 227Q477 244 471 268T448 315T403 353T331 369H249Q206 369 178 354T133 316T110 269T103 227V197Q103 117 151 77T290 36Q380 36 428 76T477 197V227Z"  />
<glyph unicode="9" horiz-adv-x="580" d="M516 254Q516 183 500 134T453 54T377 8T271 -6Q244 -6 223 -5T184 -1T148 5T112 13Q104 15 97 19T90 31V41Q90 55 106 55Q111 55 114 54Q134 50 151 47T187 41T225 38T271 36Q322 36 360 47T422 83T459 151T472 254V316Q434 306 387 298T287 290Q246 290 206 299T135 331T84 391T64 486V491Q64 619 118 683T295 748Q408 748 462 685T516 489V254ZM472 489Q472 609 429 658T295 708Q250 708 216 697T157 659T121 592T108 491V486Q108 440 124 410T165 363T223 338T287 331Q312 331 338 333T389 338T435 346T472 355V489Z"  />
<glyph unicode=":" horiz-adv-x="178" d="M111 449Q111 441 106 436T92 430H86Q78 430 73 435T67 449V523Q67 531 72 536T86 542H92Q100 542 105 537T111 523V449ZM111 13Q111 5 106 0T92 -6H86Q78 -6 73 -1T67 13V87Q67 95 72 100T86 106H92Q100 106 105 101T111 87V13Z"  />
<glyph unicode=";" horiz-adv-x="178" d="M111 449Q111 441 106 436T92 430H86Q78 430 73 435T67 449V523Q67 531 72 536T86 542H92Q100 542 105 537T111 523V449ZM118 95Q118 93 116 87L53 -81Q49 -91 46 -95T34 -100H22Q12 -100 12 -90Q12 -87 14 -81L67 87Q72 106 87 106H106Q118 106 118 95Z"  />
<glyph unicode="&lt;" horiz-adv-x="580" d="M431 159Q431 153 426 148L419 141Q415 137 409 137Q402 137 393 144L127 362Q112 374 112 391Q112 408 127 420L393 638Q402 645 409 645Q415 645 419 641L426 634Q431 629 431 623Q431 614 423 608L158 391L423 174Q431 168 431 159Z"  />
<glyph unicode="=" horiz-adv-x="580" d="M493 486Q493 478 487 474T473 470H108Q100 470 94 474T88 486V496Q88 504 94 508T108 512H473Q481 512 487 508T493 496V486ZM493 286Q493 278 487 274T473 270H108Q100 270 94 274T88 286V296Q88 304 94 308T108 312H473Q481 312 487 308T493 296V286Z"  />
<glyph unicode="&gt;" horiz-adv-x="580" d="M482 391Q482 374 467 362L201 144Q192 137 185 137Q179 137 175 141L168 148Q163 153 163 159Q163 168 171 174L436 391L171 608Q163 614 163 623Q163 629 168 634L175 641Q179 645 185 645Q192 645 201 638L467 420Q482 408 482 391Z"  />
<glyph unicode="?" horiz-adv-x="424" d="M364 595Q364 572 359 552T342 511T308 464T254 406L224 376Q205 357 194 343T176 316T167 288T164 252V192Q164 184 159 179T145 173H139Q131 173 126 178T120 192V252Q120 276 123 295T135 332T158 368T194 408L222 436Q252 466 270 487T298 527T312 561T316 595V603Q316 660 280 684T171 709Q136 709 111 707T50 702H48Q35 702 35 714V722Q35 729 38 734T52 741Q83 745 112 746T171 748Q208 748 242 741T304 717T347 672T364 603V595ZM163 13Q163 5 158 0T144 -6H138Q130 -6 125 -1T119 13V87Q119 95 124 100T138 106H144Q152 106 157 101T163 87V13Z"  />
<glyph unicode="@" horiz-adv-x="758" d="M708 373Q708 322 704 282T689 212T664 160T627 122Q585 91 518 78T355 65Q282 65 248 102T214 196Q214 201 214 205T215 214L226 332Q229 363 240 390T270 436T319 467T387 479Q419 479 452 475T510 465Q516 463 520 461T524 452V450L493 111Q556 118 590 140T641 197T661 276T665 373Q665 423 648 466T599 541T519 591T410 609Q344 609 291 589T199 532T137 448T108 345L94 203Q93 195 93 188T93 174Q93 127 108 84T154 9T234 -42T348 -61Q364 -61 382 -61T417 -60T448 -58T474 -56H475H478Q485 -56 489 -58T493 -68Q493 -72 492 -75Q489 -88 472 -91Q460 -93 445 -94T412 -96T377 -98T344 -99Q272 -99 217 -77T125 -17T69 70T50 174Q50 182 50 188T51 203L65 346Q71 409 97 464T168 560T274 624T413 648Q485 648 540 625T633 564T689 476T708 373ZM479 431Q459 434 434 437T385 440Q328 440 301 411T268 331L257 214Q256 209 256 205T256 197Q256 155 279 130T355 105H389Q406 105 421 105T450 108L479 431Z"  />
<glyph unicode="A" horiz-adv-x="619" d="M579 22Q582 11 579 4T565 -3H553Q541 -3 537 10L453 281H165L83 10Q81 5 77 1T67 -3H54Q44 -3 41 4T40 22L245 699Q252 722 268 735T310 748Q334 748 350 736T374 700L579 22ZM333 688Q331 696 326 702T310 708Q299 708 294 703T287 689L177 325H442L333 688Z"  />
<glyph unicode="B" horiz-adv-x="580" d="M528 203Q528 137 502 96T436 32T346 1T249 -7Q210 -7 172 -5T99 1Q80 2 80 20V723Q80 731 85 736T99 742Q130 744 170 746T249 748Q300 748 349 741T438 714T500 659T524 567V556Q524 493 493 452T405 390Q463 373 495 330T528 220V203ZM480 567Q480 613 461 641T409 684T335 704T249 709Q216 709 183 708T124 705V412H305Q357 412 391 424T445 456T472 502T480 556V567ZM484 220Q484 249 476 276T448 323T393 356T305 369H124V39Q156 37 184 35T249 33Q294 33 336 39T411 63T464 115T484 203V220Z"  />
<glyph unicode="C" horiz-adv-x="537" d="M497 21Q497 13 491 9T478 4Q458 2 416 -2T305 -6Q258 -6 214 9T136 60T81 155T60 305V437Q60 527 80 586T135 682T214 733T305 748Q374 748 416 744T478 738Q485 737 491 733T497 721V709Q497 700 492 698T478 697Q464 698 444 700T401 703T353 705T305 706Q263 706 227 692T163 645T120 562T104 437V305Q104 231 119 180T162 97T226 51T305 36Q328 36 353 37T401 39T444 41T478 45Q486 46 491 44T497 33V21H497Z"  />
<glyph unicode="D" horiz-adv-x="613" d="M553 309Q553 223 532 163T471 66T379 11T261 -6Q143 -6 97 2Q90 4 85 9T80 21V721Q80 728 85 733T97 740Q143 748 261 748Q325 748 378 732T471 678T531 581T553 433V309ZM509 433Q509 513 490 566T438 651T359 696T261 709Q217 709 187 707T124 703V37Q157 35 187 34T261 33Q313 33 358 46T437 92T490 177T509 309V433Z"  />
<glyph unicode="E" horiz-adv-x="533" d="M478 17Q478 0 459 0H201Q144 0 112 24T80 112V631Q80 694 112 718T201 743H459Q478 743 478 726V718Q478 702 459 702H201Q183 702 169 700T145 690T130 668T124 631V411H459Q478 411 478 395V385Q478 368 459 368H124V112Q124 89 129 75T144 54T168 44T201 41H459Q478 41 478 25V17H478Z"  />
<glyph unicode="F" horiz-adv-x="518" d="M478 385Q478 368 459 368H124V19Q124 11 120 6T107 0H97Q89 0 85 5T80 19V631Q80 694 112 718T201 743H459Q478 743 478 726V718Q478 702 459 702H201Q183 702 169 700T145 690T130 668T124 631V411H459Q478 411 478 395V385H478Z"  />
<glyph unicode="G" horiz-adv-x="588" d="M508 712Q508 694 487 697Q460 700 440 701T400 704T359 706T311 707Q273 707 236 695T170 652T123 568T104 433V309Q104 167 160 102T311 36Q375 36 413 39T463 45V363Q463 382 480 382H490Q507 382 507 363V26Q507 18 502 13T490 7Q472 5 454 3T414 -2T368 -5T311 -6Q258 -6 212 12T132 68T79 166T60 309V433Q60 527 83 588T142 684T222 734T311 748Q378 748 418 745T491 738Q498 737 503 734T508 722V712H508Z"  />
<glyph unicode="H" horiz-adv-x="647" d="M567 19Q567 11 563 6T550 0H541Q533 0 529 5T524 19V377H124V19Q124 11 120 6T107 0H97Q89 0 85 5T80 19V724Q80 732 84 737T97 743H107Q115 743 119 738T124 724V418H524V724Q524 732 528 737T541 743H550Q558 743 562 738T567 724V19H567Z"  />
<glyph unicode="I" horiz-adv-x="224" d="M134 19Q134 11 130 6T117 0H107Q99 0 95 5T90 19V724Q90 732 94 737T107 743H117Q125 743 129 738T134 724V19H134Z"  />
<glyph unicode="J" horiz-adv-x="224" d="M134 -60Q134 -95 127 -120T104 -162T59 -187T-10 -195H-24Q-32 -195 -38 -192T-44 -181V-171Q-44 -163 -38 -160T-24 -156H-10Q21 -156 40 -152T71 -138T86 -109T90 -60V724Q90 732 94 737T107 743H117Q125 743 129 738T134 724V-60H134Z"  />
<glyph unicode="K" horiz-adv-x="542" d="M506 730Q506 720 498 712L162 386L505 30Q516 19 512 9T493 -2Q488 -2 482 -1T470 6L124 366V19Q124 11 120 6T107 0H97Q89 0 85 5T80 19V724Q80 732 85 737T99 743H105Q113 743 118 738T124 724V404L464 736Q472 743 477 745T487 747Q495 747 500 742T506 730Z"  />
<glyph unicode="L" horiz-adv-x="483" d="M448 17Q448 0 429 0H201Q144 0 112 24T80 112V724Q80 732 84 737T97 743H107Q115 743 119 738T124 724V112Q124 89 129 75T144 54T168 44T201 41H429Q448 41 448 25V17H448Z"  />
<glyph unicode="M" horiz-adv-x="730" d="M650 19Q650 11 646 6T633 0H623Q615 0 611 5T606 19V699Q606 706 599 706Q594 706 589 697L416 332Q405 310 394 303T365 296Q348 296 337 303T314 332L141 697Q136 706 131 706Q124 706 124 699V19Q124 11 120 6T107 0H97Q89 0 85 5T80 19V699Q80 724 94 736T131 748Q149 748 160 739T177 717L352 350Q358 337 365 337Q372 337 378 350L553 717Q559 730 570 739T599 748Q622 748 636 736T650 699V19H650Z"  />
<glyph unicode="N" horiz-adv-x="651" d="M571 45Q571 21 558 8T526 -6Q515 -6 507 -5T492 1Q481 10 474 24L137 699Q133 706 129 706Q124 706 124 699V19Q124 11 120 6T107 0H97Q89 0 85 5T80 19V699Q80 722 93 735T129 748Q150 748 160 740T177 717L513 43Q516 36 521 36Q524 36 525 39T526 45V724Q526 732 530 737T542 743H554Q562 743 566 738T571 724V45H571Z"  />
<glyph unicode="O" horiz-adv-x="632" d="M572 309Q572 225 553 166T500 68T419 12T316 -6Q260 -6 213 12T132 68T79 165T60 309V433Q60 517 79 576T132 674T213 730T316 748Q372 748 419 730T500 674T553 577T572 433V309ZM528 433Q528 509 512 561T468 646T400 692T316 706Q271 706 232 692T165 646T120 562T104 433V309Q104 232 120 180T164 96T232 50T316 36Q361 36 400 50T467 96T512 180T528 309V433Z"  />
<glyph unicode="P" horiz-adv-x="540" d="M505 528Q505 469 487 429T433 363T348 326T233 314Q204 314 175 315T124 318V19Q124 11 120 6T107 0H97Q89 0 85 5T80 19V724Q80 731 85 736T97 743Q123 745 162 746T233 748Q297 748 347 737T433 701T486 638T505 545V528ZM461 545Q461 591 447 622T403 673T332 701T233 709Q201 709 174 709T124 706V357Q147 355 177 354T233 353Q349 353 405 393T461 528V545Z"  />
<glyph unicode="Q" horiz-adv-x="632" d="M572 309Q572 229 555 172T506 76T432 18T337 -5V-72Q337 -99 339 -115T351 -141T379 -153T430 -156H451Q459 -156 465 -160T471 -172V-179Q471 -187 465 -191T451 -195H430Q396 -195 371 -192T328 -175T302 -138T293 -72V-5Q242 -2 199 18T125 76T77 172T60 309V433Q60 517 79 576T132 674T213 730T316 748Q372 748 419 730T500 674T553 577T572 433V309ZM528 433Q528 509 512 561T468 646T400 692T316 706Q271 706 232 692T165 646T120 562T104 433V309Q104 232 120 180T164 96T232 50T316 36Q361 36 400 50T467 96T512 180T528 309V433Z"  />
<glyph unicode="R" horiz-adv-x="598" d="M548 29Q554 19 552 10T537 0H524Q520 0 516 3T509 9L296 335Q282 334 274 334T253 335H174Q150 335 124 336V19Q124 11 120 6T107 0H97Q89 0 85 5T80 19V725Q80 732 85 737T97 744Q110 745 130 745T172 746T215 747T253 748Q320 748 371 738T456 703T508 640T525 544V539Q525 447 480 401T346 340L548 29ZM481 544Q481 591 467 622T423 672T352 698T253 706Q221 706 184 705T124 702V378Q134 378 151 378T188 378T224 377T253 377Q311 377 354 384T425 410T467 459T481 539V544Z"  />
<glyph unicode="S" horiz-adv-x="530" d="M475 185Q475 151 466 117T432 56T361 11T243 -6Q194 -6 157 -3T97 4Q83 6 77 10T70 25V29Q70 41 77 44T93 46Q105 44 122 43T159 40T200 37T243 36Q300 36 336 47T392 79T421 127T429 185Q429 213 421 233T394 271T346 309T275 354L212 393Q178 414 149 434T99 477T67 529T55 593Q55 639 75 669T128 716T203 741T289 748Q305 748 324 747T363 745T400 742T428 739Q443 737 449 733T455 719V714Q455 703 447 700T424 698Q421 698 405 699T369 702T326 705T288 706Q188 706 144 678T100 593Q100 566 108 546T134 507T176 470T235 432L299 393Q343 366 376 344T431 297T464 246T475 185Z"  />
<glyph unicode="T" horiz-adv-x="571" d="M541 717Q541 702 522 702H308V19Q308 11 304 6T291 0H281Q273 0 269 5T264 19V702H49Q30 702 30 717V726Q30 743 49 743H522Q541 743 541 726V717H541Z"  />
<glyph unicode="U" horiz-adv-x="633" d="M553 264Q553 137 496 66T317 -6Q195 -6 138 65T80 264V724Q80 732 84 737T97 743H107Q115 743 119 738T124 724V264Q124 155 168 95T317 35Q422 35 465 95T509 264V724Q509 732 513 737T526 743H536Q544 743 548 738T553 724V264H553Z"  />
<glyph unicode="V" horiz-adv-x="630" d="M380 43Q372 17 356 6T315 -6Q291 -6 275 5T250 43L45 718Q42 728 46 735T61 743H72Q84 743 88 729L292 56Q296 44 301 40T315 36Q323 36 328 40T338 56L542 729Q545 743 558 743H569Q579 743 583 736T585 718L380 43Z"  />
<glyph unicode="W" horiz-adv-x="788" d="M620 41Q611 -6 572 -6Q549 -6 539 7T524 39L402 426Q400 434 398 436T394 438Q392 438 390 436T386 426L264 39Q259 21 249 8T216 -6Q177 -6 168 41L45 720Q43 729 47 736T61 743H71Q77 743 82 739T89 727L210 50Q213 35 216 35Q219 35 220 38T224 50L349 439Q356 461 368 469T394 478Q408 478 420 470T439 439L564 50Q568 35 572 35Q575 35 578 50L699 727Q701 735 706 739T717 743H727Q736 743 740 736T743 720L620 41Z"  />
<glyph unicode="X" horiz-adv-x="602" d="M557 29Q564 19 561 10T545 0H537Q533 0 528 3T521 9L301 342L81 9Q79 6 74 3T65 0H56Q44 0 41 9T44 29L275 380L55 713Q49 723 51 733T65 743H76Q80 743 85 740T92 734L300 418L509 734Q511 737 516 740T525 743H534Q546 743 549 733T546 713L326 379L557 29H557Z"  />
<glyph unicode="Y" horiz-adv-x="551" d="M344 367Q331 339 320 327T297 309V19Q297 11 293 6T280 0H270Q262 0 258 5T253 19V309Q242 314 231 326T206 367L48 716Q42 730 46 736T62 743H72Q77 743 81 740T88 731L245 381Q255 359 260 353T275 346Q284 346 289 352T305 381L462 731Q464 736 468 739T478 743H488Q499 743 503 737T502 716L344 367Z"  />
<glyph unicode="Z" horiz-adv-x="595" d="M535 16Q535 8 529 4T514 0H122Q68 0 68 43Q68 51 70 60T79 79L458 689Q460 692 460 696Q460 702 452 702H90Q82 702 76 705T69 717V727Q69 735 75 739T90 743H452Q481 743 493 735Q510 725 510 703Q510 690 506 682T499 669L117 52Q115 48 115 45Q115 41 122 41H514Q522 41 528 38T535 26V16H535Z"  />
<glyph unicode="[" horiz-adv-x="298" d="M278 -179Q278 -195 259 -195H107Q99 -195 95 -190T90 -176V724Q90 732 94 737T107 743H259Q278 743 278 726V718Q278 702 259 702H134V-154H259Q278 -154 278 -171V-179H278Z"  />
<glyph unicode="\" horiz-adv-x="325" d="M305 6Q305 -6 295 -6H273Q265 -6 262 0T257 13L22 729Q21 731 21 736Q21 741 23 744T32 748H53Q61 748 64 742T69 729L304 13Q305 11 305 6Z"  />
<glyph unicode="]" horiz-adv-x="298" d="M208 -176Q208 -184 204 -189T191 -195H39Q20 -195 20 -179V-171Q20 -154 39 -154H164V702H39Q20 702 20 718V726Q20 743 39 743H191Q199 743 203 738T208 724V-176H208Z"  />
<glyph unicode="^" horiz-adv-x="580" d="M462 569Q462 560 451 560H433Q424 560 420 565T407 580L290 719L173 580Q165 570 161 565T147 560H129Q118 560 118 569Q118 573 123 580L240 730Q248 740 253 744T267 748H313Q322 748 327 744T340 730L457 580Q462 573 462 569Z"  />
<glyph unicode="_" horiz-adv-x="465" d="M495 -82Q495 -90 489 -94T475 -98H-10Q-18 -98 -24 -94T-30 -82V-72Q-30 -64 -24 -60T-10 -56H475Q483 -56 489 -60T495 -72V-82H495Z"  />
<glyph unicode="`" horiz-adv-x="330" d="M212 625Q212 618 203 618H181Q173 618 170 622T159 635L52 763Q48 767 48 771Q48 778 59 778H85Q93 778 97 775T108 763L208 635Q212 631 212 625Z"  />
<glyph unicode="a" horiz-adv-x="488" d="M418 20Q418 12 412 6T398 0H393Q385 0 379 6T373 20V45Q336 25 293 10T203 -6Q175 -6 148 1T99 27T64 77T50 155V168Q50 207 63 235T105 283T181 312T297 322H374V358Q374 397 368 424T348 469T309 495T248 503Q223 503 205 503T170 501T139 498T106 494Q98 493 91 495T83 509V515Q83 525 89 528T106 533Q122 535 136 536T167 539T203 541T248 542Q299 542 331 529T383 491T410 432T418 358V20ZM374 283H297Q240 283 202 277T139 258T105 222T94 168V155Q94 120 102 97T126 59T160 39T203 33Q245 33 284 45T374 84V283Z"  />
<glyph unicode="b" horiz-adv-x="504" d="M449 237Q449 183 438 139T403 62T342 12T253 -6Q210 -6 164 0T85 13Q76 15 73 19T70 32V724Q70 732 74 737T87 743H97Q105 743 109 738T114 724V527Q129 530 147 533T184 538T220 541T253 542Q449 542 449 303V237ZM405 303Q405 403 371 453T253 503Q238 503 220 502T183 500T146 496T114 490V46Q141 41 179 37T253 33Q337 33 371 86T405 237V303Z"  />
<glyph unicode="c" horiz-adv-x="437" d="M393 21Q393 13 389 9T374 3Q342 -1 310 -3T253 -6Q199 -6 162 13T101 66T66 143T55 236V303Q55 353 66 396T100 472T161 523T253 542Q277 542 309 540T374 533Q385 531 389 527T393 515V508Q393 500 387 496T372 494Q301 503 253 503Q210 503 181 489T133 449T107 385T99 303V236Q99 191 107 154T133 89T180 48T253 33Q301 33 372 42Q381 44 387 40T393 28V21H393Z"  />
<glyph unicode="d" horiz-adv-x="504" d="M434 32Q434 23 431 19T419 13Q386 6 340 0T251 -6Q199 -6 162 11T101 61T66 138T55 237V303Q55 542 251 542Q266 542 283 541T320 538T357 533T390 527V724Q390 732 394 737T407 743H417Q425 743 429 738T434 724V32ZM390 490Q376 493 358 495T321 499T284 502T251 503Q168 503 134 453T99 303V237Q99 140 133 87T251 33Q287 33 325 37T390 46V490Z"  />
<glyph unicode="e" horiz-adv-x="511" d="M456 277Q456 269 451 264T437 258H99V237Q99 174 113 134T152 72T209 41T280 33Q313 33 352 37T428 50Q436 52 442 50T449 37V30Q449 22 445 18T430 11Q394 3 354 -1T280 -6Q233 -6 193 5T121 44T73 119T55 237V303Q55 355 68 398T106 474T169 524T257 542Q309 542 346 525T408 477T444 401T456 304V277ZM412 304Q412 399 377 451T257 503Q215 503 186 489T137 448T108 385T99 303V298H412V304Z"  />
<glyph unicode="f" horiz-adv-x="377" d="M342 722Q342 709 321 709H271Q236 709 219 692T202 630V537H321Q340 537 340 521V512Q340 496 321 496H202V19Q202 11 197 6T184 0H177Q169 0 164 5T158 19V496H59Q40 496 40 512V521Q40 537 59 537H158V630Q158 695 187 721T271 748Q294 748 303 748T323 745Q334 743 338 739T342 729V722H342Z"  />
<glyph unicode="g" horiz-adv-x="534" d="M489 510Q489 502 484 498T470 494H418Q425 488 435 478T453 453T467 418T473 370V362Q473 328 463 298T428 246T365 212T266 199Q227 199 200 205T144 222Q128 215 119 205T110 179Q110 169 116 161T139 148L319 101Q358 91 387 81T437 55T468 18T479 -36V-43Q479 -77 468 -105T432 -154T367 -186T267 -198Q209 -198 169 -187T104 -155T67 -106T55 -43V-34Q55 -8 62 15T80 56T104 88T130 110L123 112Q95 120 83 138T70 179Q70 197 80 215T112 243Q87 263 74 292T60 362V370Q60 399 68 428T98 482T161 521T266 537H470Q478 537 483 533T489 521V510ZM430 370Q430 397 423 420T397 461T347 489T266 499Q214 499 183 488T134 459T110 417T104 370V362Q104 343 110 321T133 281T183 250T266 237Q315 237 347 247T397 274T423 313T430 362V370ZM435 -36Q435 -15 430 -1T410 25T371 44T309 63L171 99Q138 77 118 47T98 -34V-43Q98 -70 106 -92T134 -129T186 -152T267 -161Q317 -161 349 -153T401 -130T427 -93T435 -43V-36Z"  />
<glyph unicode="h" horiz-adv-x="505" d="M440 13Q440 5 436 0T423 -6H413Q405 -6 401 -1T397 13V350Q397 423 363 463T249 503Q217 503 180 498T114 485V13Q114 5 110 0T97 -6H87Q79 -6 75 -1T70 13V724Q70 732 74 737T87 743H97Q105 743 109 738T114 724V524Q143 532 179 537T249 542Q301 542 337 528T396 488T429 427T440 350V13H440Z"  />
<glyph unicode="i" horiz-adv-x="204" d="M124 655Q124 647 119 642T105 636H99Q91 636 86 641T80 655V729Q80 737 85 742T99 748H105Q113 748 118 743T124 729V655ZM124 13Q124 5 119 0T105 -6H99Q91 -6 86 -1T80 13V518Q80 526 85 531T99 537H105Q113 537 118 532T124 518V13Z"  />
<glyph unicode="j" horiz-adv-x="204" d="M124 655Q124 647 119 642T105 636H99Q91 636 86 641T80 655V729Q80 737 85 742T99 748H105Q113 748 118 743T124 729V655ZM124 -86Q124 -118 118 -139T98 -172T66 -190T21 -195Q8 -195 -1 -195T-21 -192Q-32 -190 -35 -187T-38 -178V-169Q-38 -157 -17 -157H21Q54 -157 67 -144T80 -86V518Q80 526 84 531T96 537H107Q115 537 119 532T124 518V-86Z"  />
<glyph unicode="k" horiz-adv-x="444" d="M398 25Q407 15 404 5T386 -6Q377 -6 371 -4T356 6L114 265V13Q114 5 109 0T95 -6H89Q81 -6 76 -1T70 13V724Q70 732 75 737T89 743H95Q103 743 108 738T114 724V303L360 533Q370 542 384 542Q398 542 403 530T397 509L152 285L398 25H398Z"  />
<glyph unicode="l" horiz-adv-x="204" d="M124 13Q124 5 120 0T107 -6H97Q89 -6 85 -1T80 13V724Q80 732 84 737T97 743H107Q115 743 119 738T124 724V13H124Z"  />
<glyph unicode="m" horiz-adv-x="746" d="M676 19Q676 11 672 6T659 0H649Q641 0 637 5T632 19V377Q632 448 601 475T515 503Q482 503 447 494T380 469Q387 452 391 430T395 381V19Q395 11 392 6T380 0H365Q357 0 354 5T351 19V381Q351 416 344 439T324 477T294 497T257 503Q224 503 187 491T114 461V19Q114 11 111 6T99 0H85Q77 0 74 5T70 19V517Q70 525 75 531T88 537H96Q104 537 109 531T114 517V499Q145 514 185 528T266 542Q293 542 317 533T361 501Q399 519 440 530T522 542Q553 542 581 533T630 504T663 453T676 377V19H676Z"  />
<glyph unicode="n" horiz-adv-x="521" d="M451 19Q451 11 446 6T432 0H425Q417 0 412 5T407 19V351Q407 394 397 423T368 470T325 495T272 503Q234 503 193 492T114 462V19Q114 11 109 6T95 0H89Q81 0 76 5T70 19V517Q70 525 75 531T88 537H96Q104 537 109 531T114 517V501Q153 520 194 531T275 542Q311 542 343 532T399 499T437 440T451 351V19H451Z"  />
<glyph unicode="o" horiz-adv-x="522" d="M467 233Q467 119 416 57T261 -6Q158 -6 107 56T55 233V303Q55 417 106 479T261 542Q364 542 415 480T467 303V233ZM423 303Q423 395 386 449T261 503Q173 503 136 449T99 303V233Q99 141 136 87T261 33Q349 33 386 87T423 233V303Z"  />
<glyph unicode="p" horiz-adv-x="504" d="M449 233Q449 -6 253 -6Q238 -6 221 -5T184 -2T147 3T114 9V-176Q114 -184 110 -189T97 -195H87Q79 -195 75 -190T70 -176V504Q70 513 73 517T85 523Q118 530 164 536T253 542Q305 542 342 525T403 475T438 398T449 299V233ZM405 299Q405 396 371 449T253 503Q217 503 179 499T114 490V46Q128 43 146 41T183 37T220 34T253 33Q336 33 370 83T405 233V299Z"  />
<glyph unicode="q" horiz-adv-x="504" d="M434 -176Q434 -184 430 -189T417 -195H407Q399 -195 395 -190T390 -176V9Q375 6 357 3T320 -2T284 -5T251 -6Q55 -6 55 233V299Q55 353 66 397T101 474T162 524T251 542Q294 542 340 536T419 523Q428 521 431 517T434 504V-176ZM390 490Q363 495 325 499T251 503Q167 503 133 450T99 299V233Q99 133 133 83T251 33Q266 33 284 34T321 36T358 40T390 46V490Z"  />
<glyph unicode="r" horiz-adv-x="309" d="M280 519Q280 509 273 506T253 503Q224 503 192 494T114 457V19Q114 11 109 6T95 0H89Q81 0 76 5T70 19V517Q70 525 75 531T88 537H96Q104 537 109 531T114 517V496Q152 521 184 531T253 542Q265 542 272 539T280 527V519H280Z"  />
<glyph unicode="s" horiz-adv-x="440" d="M390 133Q390 93 376 66T339 23T284 1T217 -6Q200 -6 181 -5T142 -2T104 2T72 8Q61 10 56 13T50 24V35Q50 44 56 47T72 49Q108 43 148 38T219 33Q246 33 269 37T309 52T336 83T346 133Q346 148 341 160T324 185T292 211T240 242L176 277Q148 292 126 306T88 337T64 373T55 419Q55 454 68 477T102 515T150 536T208 542Q262 542 293 539T351 533Q362 531 367 529T372 516V508Q372 496 367 493T351 492Q331 494 293 498T212 503Q188 503 168 500T132 488T108 463T99 419Q99 386 124 364T196 315L263 278Q294 261 318 246T358 213T382 177T390 133Z"  />
<glyph unicode="t" horiz-adv-x="380" d="M340 13Q340 7 337 3T323 -3Q312 -5 298 -5T271 -6Q244 -6 223 -1T188 16T166 49T158 102V496H59Q40 496 40 512V522Q40 537 59 537H158V640Q158 648 162 653T175 659H186Q194 659 198 654T202 640V537H321Q340 537 340 522V512Q340 496 321 496H202V102Q202 57 220 45T271 33H319Q340 33 340 19V13H340Z"  />
<glyph unicode="u" horiz-adv-x="521" d="M70 518Q70 526 75 531T89 537H96Q104 537 109 532T114 518V186Q114 143 124 114T153 67T196 42T249 34Q287 34 328 46T407 75V518Q407 526 412 531T426 537H432Q440 537 445 532T451 518V20Q451 12 446 6T433 0H425Q417 0 412 6T407 20V36Q368 17 327 6T246 -5Q210 -5 178 5T122 39T84 98T70 186V518H70Z"  />
<glyph unicode="v" horiz-adv-x="480" d="M309 57Q298 17 281 6T241 -6Q220 -6 201 5T171 57L40 512Q37 523 41 530T55 537H65Q70 537 75 534T83 519L211 68Q218 45 225 39T241 32Q249 32 255 38T269 68L397 519Q400 530 405 533T415 537H427Q437 537 440 530T440 512L309 57Z"  />
<glyph unicode="w" horiz-adv-x="752" d="M592 48Q585 19 574 7T540 -6Q516 -6 507 8T489 51L383 431Q381 437 380 438T376 440Q374 440 373 439T369 431L263 51Q255 23 246 9T212 -6Q189 -6 178 6T160 48L50 513Q48 522 51 529T68 537H74Q83 537 85 533T90 523L198 58Q203 40 205 37T212 33Q216 33 218 37T225 57L333 443Q338 463 350 471T376 479Q390 479 402 471T419 443L527 57Q532 41 534 37T540 33Q543 33 546 36T554 58L662 523Q664 528 667 532T678 537H684Q698 537 701 531T702 513L592 48Z"  />
<glyph unicode="x" horiz-adv-x="493" d="M455 14Q455 9 452 5T441 0H433Q427 0 423 1T414 8L248 240L85 8Q79 0 74 0H57Q43 0 43 12Q43 19 48 26L224 275L54 513Q50 519 50 524Q50 537 68 537H74Q81 537 86 534T93 529L251 309L404 527Q407 532 412 534T423 537H432Q447 537 447 525Q447 518 440 508L275 273L452 25Q455 20 455 14Z"  />
<glyph unicode="y" horiz-adv-x="486" d="M282 -56Q270 -96 257 -123T224 -166T180 -188T120 -195Q103 -195 88 -193T58 -189Q49 -187 44 -185T38 -175V-164Q38 -155 42 -152T59 -150Q70 -152 91 -154T124 -156Q151 -156 169 -151T201 -134T224 -101T243 -47L256 0H242Q219 0 206 10T181 56L46 513Q43 523 46 530T62 537H71Q79 537 82 533T87 523L222 63Q227 47 233 44T245 41H268L405 524Q407 529 410 533T423 537H432Q444 537 446 530T446 512L282 -56Z"  />
<glyph unicode="z" horiz-adv-x="446" d="M406 16Q406 8 400 4T386 0H100Q68 0 54 11T40 41Q40 52 43 62T58 86L351 477Q355 482 355 487Q355 496 341 496H78Q70 496 64 499T58 511V521Q58 529 64 533T78 537H340Q366 537 382 528T398 494Q398 485 396 474T382 449L92 60Q87 52 87 48Q87 41 96 41H386Q394 41 400 38T406 26V16H406Z"  />
<glyph unicode="{" horiz-adv-x="300" d="M280 -178Q280 -195 261 -195H215Q180 -195 157 -190T119 -172T98 -138T92 -85V119Q92 146 90 165T81 199T62 228T30 256V292Q50 306 62 319T81 348T90 383T92 429V633Q92 696 119 719T215 743H261Q280 743 280 726V718Q280 702 261 702H215Q190 702 175 700T151 690T139 669T136 633V429Q136 376 123 340T72 273Q109 244 122 208T136 119V-85Q136 -107 139 -120T150 -141T174 -151T215 -154H261Q280 -154 280 -170V-178H280Z"  />
<glyph unicode="|" horiz-adv-x="224" d="M134 -176Q134 -184 130 -189T117 -195H107Q99 -195 95 -190T90 -176V724Q90 732 94 737T107 743H117Q125 743 129 738T134 724V-176H134Z"  />
<glyph unicode="}" horiz-adv-x="300" d="M270 256Q250 242 238 229T219 200T210 165T208 119V-85Q208 -117 202 -138T182 -171T144 -189T85 -195H39Q20 -195 20 -178V-170Q20 -154 39 -154H85Q110 -154 125 -152T149 -142T161 -121T164 -85V119Q164 172 177 208T228 273Q190 304 177 340T164 429V633Q164 655 161 668T150 689T126 699T85 702H39Q20 702 20 718V726Q20 743 39 743H85Q153 743 180 720T208 633V429Q208 402 210 383T219 349T238 320T270 292V256H270Z"  />
<glyph unicode="~" horiz-adv-x="580" d="M476 459Q476 405 452 380T386 355Q363 355 345 363T309 387L252 442Q238 456 224 466T193 477Q172 477 158 462T143 409V379Q143 369 142 365T132 360H117Q104 360 104 379V409Q104 463 128 489T193 515Q219 515 237 506T273 481L330 426Q344 412 357 404T385 395Q411 395 424 408T437 459V490Q437 500 438 504T448 508H463Q476 508 476 490V459H476Z"  />
<glyph unicode="&#xA0;" horiz-adv-x="215" />
<glyph unicode="&#xA1;" horiz-adv-x="204" d="M124 449Q124 441 119 436T105 430H99Q91 430 86 435T80 449V523Q80 531 85 536T99 542H105Q113 542 118 537T124 523V449ZM124 -188Q124 -196 119 -201T105 -207H99Q91 -207 86 -202T80 -188V344Q80 352 85 357T99 363H105Q113 363 118 358T124 344V-188Z"  />
<glyph unicode="&#xA2;" horiz-adv-x="580" d="M432 21Q432 13 428 9T413 3Q387 0 362 -2T313 -6V-107Q313 -115 309 -120T297 -126H287Q279 -126 275 -121T271 -107V-5Q223 -1 190 19T135 72T104 147T94 236V303Q94 350 104 392T135 465T189 517T271 541V643Q271 651 275 656T287 662H297Q305 662 309 657T313 643V542Q336 541 361 539T413 533Q424 531 428 527T432 515V508Q432 494 416 494H411Q340 503 292 503Q249 503 220 489T172 449T146 385T138 303V236Q138 191 146 154T172 89T219 48T292 33Q340 33 411 42H416Q432 42 432 28V21H432Z"  />
<glyph unicode="&#xA3;" horiz-adv-x="580" d="M510 16Q510 8 504 4T490 0H118Q107 0 103 6T98 20Q98 26 101 31Q121 64 131 94T142 169V369H89Q71 369 71 386V395Q71 403 77 407T91 412H142V486Q142 547 151 595T184 678T245 730T341 748Q381 748 419 746T489 739Q500 737 504 734T508 723V715Q508 707 505 704T493 700H487Q454 704 415 706T341 708Q293 708 263 693T217 648T194 578T188 486V412H433Q451 412 451 395V386Q451 378 445 374T431 369H188V169Q188 127 179 97T156 41H490Q498 41 504 38T510 27V16H510Z"  />
<glyph unicode="&#xA4;" horiz-adv-x="580" d="M525 161Q525 154 520 149L513 142Q508 137 502 137Q494 137 487 144L406 226Q380 206 350 196T289 185Q258 185 229 195T173 225L93 145Q86 138 78 138Q72 138 67 143L60 150Q55 155 55 161Q55 169 62 176L141 255Q120 281 110 311T99 374Q99 439 140 491L62 569Q55 576 55 584Q55 591 60 596L67 603Q71 607 77 607Q86 607 93 600L171 522Q223 563 288 563Q320 563 350 553T407 521L487 601Q494 608 502 608Q508 608 513 603L520 596Q525 591 525 585Q525 577 518 570L438 490Q458 464 468 435T478 374Q478 343 468 313T437 257L518 176Q525 169 525 161ZM437 374Q437 405 426 431T394 478T346 509T289 521Q258 521 231 510T184 478T153 432T141 374Q141 343 152 316T184 269T231 238T289 226Q320 226 347 237T394 269T425 316T437 374Z"  />
<glyph unicode="&#xA5;" horiz-adv-x="580" d="M535 254Q535 246 529 242T515 238H312V19Q312 11 308 6T295 0H285Q277 0 273 5T268 19V238H63Q45 238 45 254V263Q45 271 51 275T65 279H268V309L207 430H63Q45 430 45 446V455Q45 463 51 467T65 471H186L63 716Q56 730 61 736T77 743H89Q94 743 97 741T105 731L291 361L476 731Q480 739 483 741T492 743H503Q514 743 519 737T517 716L394 471H517Q535 471 535 455V446Q535 438 529 434T515 430H373L312 309V279H517Q535 279 535 263V254H535Z"  />
<glyph unicode="&#xA6;" horiz-adv-x="224" d="M134 361Q134 353 130 348T117 342H107Q99 342 95 347T90 361V709Q90 717 94 722T107 728H117Q125 728 129 723T134 709V361ZM134 -192Q134 -200 130 -205T117 -211H107Q99 -211 95 -206T90 -192V156Q90 164 94 169T107 175H117Q125 175 129 170T134 156V-192Z"  />
<glyph unicode="&#xA7;" horiz-adv-x="521" d="M469 -29Q469 -64 460 -98T426 -158T355 -200T237 -216Q188 -216 151 -214T84 -208Q72 -206 69 -202T66 -189V-183Q66 -172 71 -169T85 -166H87Q126 -169 160 -171T237 -174Q294 -174 330 -164T388 -135T417 -89T425 -29Q425 -4 419 15T398 53T357 90T290 134L190 195Q149 220 122 241T80 282T58 325T52 376Q52 445 87 483Q67 506 60 530T52 586Q52 669 105 708T282 748Q299 748 321 748T366 746T406 744T434 741Q443 740 447 736T451 720V717Q451 697 430 698Q422 698 405 699T367 702T324 705T282 706Q183 706 140 677T96 586Q96 564 101 547T121 514T158 480T218 441L316 381Q364 352 394 327T440 279T463 232T469 181Q469 152 463 123T440 70Q457 47 463 23T469 -29ZM425 181Q425 206 419 225T398 263T357 300T290 344L190 405Q169 418 152 429T121 452Q96 424 96 376Q96 354 101 337T121 304T158 270T218 231L316 171Q347 152 369 136T409 104Q425 136 425 181Z"  />
<glyph unicode="&#xA8;" horiz-adv-x="330" d="M262 661Q262 653 257 648T243 642H237Q229 642 224 647T218 661V735Q218 743 223 748T237 754H243Q251 754 256 749T262 735V661ZM112 661Q112 653 107 648T93 642H87Q79 642 74 647T68 661V735Q68 743 73 748T87 754H93Q101 754 106 749T112 735V661Z"  />
<glyph unicode="&#xA9;" horiz-adv-x="730" d="M685 374Q685 308 660 250T591 148T489 80T364 55Q298 55 240 80T138 148T70 249T45 374Q45 440 70 499T138 601T239 670T364 696Q430 696 488 671T590 602T659 499T685 374ZM646 374Q646 432 624 484T564 574T474 634T364 657Q305 657 254 635T165 574T104 484T82 374Q82 315 104 264T164 175T254 115T364 93Q422 93 473 115T563 175T624 264T646 374ZM465 183Q465 175 460 172T449 167Q438 165 415 163T352 161Q325 161 299 170T253 200T221 255T209 341V413Q209 464 221 498T253 554T299 584T352 593Q391 593 414 591T449 587Q454 586 459 583T465 572V564Q465 556 461 554T451 552H447Q432 554 405 555T352 557Q330 557 311 550T278 525T255 481T247 413V341Q247 301 255 274T277 229T311 205T352 197Q378 197 405 198T447 202H449Q454 202 459 199T465 188V183Z"  />
<glyph unicode="&#xAA;" horiz-adv-x="268" d="M230 469Q230 455 219 453Q180 442 138 442Q76 442 52 464T28 532V539Q28 584 58 605T160 626H197V640Q197 681 184 697T136 713Q110 713 95 712T62 708H60Q55 708 50 710T45 721V724Q45 732 50 734T61 738Q78 740 94 741T136 743Q164 743 182 735T210 714T225 681T230 640V469ZM197 595H161Q102 595 81 583T60 539V532Q60 517 63 506T74 487T98 476T138 472Q155 472 171 474T197 478V595Z"  />
<glyph unicode="&#xAB;" horiz-adv-x="535" d="M482 92Q482 86 477 81L470 74Q466 70 460 70Q453 70 444 77L266 240Q252 252 252 269Q252 284 266 298L444 461Q453 468 460 468Q466 468 470 464L477 457Q482 452 482 446Q482 437 474 431L297 269L474 107Q482 101 482 92ZM252 92Q252 86 247 81L240 74Q236 70 230 70Q223 70 214 77L36 240Q22 252 22 269Q22 284 36 298L214 461Q223 468 230 468Q236 468 240 464L247 457Q252 452 252 446Q252 437 244 431L67 269L244 107Q252 101 252 92Z"  />
<glyph unicode="&#xAC;" horiz-adv-x="580" d="M493 290Q493 282 489 276T477 270H467Q459 270 455 276T451 290V470H108Q100 470 94 474T88 486V496Q88 504 94 508T108 512H477Q485 512 489 507T493 494V290H493Z"  />
<glyph unicode="&#xAD;" horiz-adv-x="344" d="M292 273Q292 257 273 257H71Q52 257 52 273V281Q52 289 57 294T71 299H273Q281 299 286 294T292 281V273H292Z"  />
<glyph unicode="&#xAE;" horiz-adv-x="616" d="M571 484Q571 430 551 382T494 299T410 243T308 222Q254 222 206 242T122 298T66 382T45 484Q45 538 65 586T122 670T206 726T308 747Q362 747 410 727T494 670T550 586T571 484ZM536 484Q536 531 518 572T469 645T397 694T308 712Q261 712 220 694T147 645T99 573T81 484Q81 437 98 396T147 323T219 275T308 257Q355 257 396 274T469 323T518 395T536 484ZM427 330Q427 325 424 321T413 317H408Q404 317 401 319T395 324L304 463Q299 463 297 463T289 464H240V333Q240 328 236 323T225 317H221Q214 317 210 322T206 333V641Q206 646 210 651T220 657Q231 658 253 658T289 659Q349 659 382 638T415 562V560Q415 519 397 498T342 468L424 341Q427 336 427 330ZM381 562Q381 598 359 612T289 626Q278 626 265 626T240 625V497Q251 497 266 497T289 496Q340 496 360 509T381 560V562Z"  />
<glyph unicode="&#xAF;" horiz-adv-x="330" d="M318 704Q318 696 312 692T298 688H32Q24 688 18 692T12 704V715Q12 723 18 726T32 730H298Q306 730 312 727T318 715V704H318Z"  />
<glyph unicode="&#xB0;" horiz-adv-x="331" d="M301 613Q301 585 291 561T262 518T219 489T166 478Q138 478 114 488T71 517T41 560T30 613Q30 641 41 665T70 708T113 737T166 748Q194 748 218 738T261 709T290 666T301 613ZM263 613Q263 633 256 650T235 681T204 703T166 711Q146 711 128 703T97 682T77 651T69 613Q69 593 76 576T97 545T128 524T166 516Q186 516 203 523T234 544T255 575T263 613Z"  />
<glyph unicode="&#xB1;" horiz-adv-x="580" d="M513 386Q513 378 507 374T493 370H311V189Q311 181 307 175T295 169H285Q277 169 273 175T269 189V370H88Q80 370 74 374T68 386V396Q68 404 74 408T88 412H269V594Q269 602 273 608T285 614H295Q303 614 307 608T311 594V412H493Q501 412 507 408T513 396V386ZM513 16Q513 8 507 4T493 0H88Q80 0 74 4T68 16V26Q68 34 74 38T88 42H493Q501 42 507 38T513 26V16Z"  />
<glyph unicode="&#xB2;" horiz-adv-x="319" d="M67 709Q59 708 53 709T47 721V724Q47 733 50 737T66 743Q86 746 107 747T147 749Q212 749 246 727T280 656Q280 626 266 598T204 538L149 501Q125 485 111 471T90 443T81 415T79 384V370H257Q265 370 270 366T275 354V348Q275 339 270 336T257 332H57Q49 332 44 338T39 351V384Q39 404 42 422T54 459T81 494T126 532L181 570Q214 592 226 609T239 656Q239 683 219 698T147 714Q130 714 109 713T67 709Z"  />
<glyph unicode="&#xB3;" horiz-adv-x="319" d="M237 461Q237 472 235 484T225 506T205 524T169 531H68Q50 531 50 548V552Q50 569 68 569H169Q191 569 204 576T225 593T234 616T237 637V644Q237 686 213 700T137 714Q119 714 100 712T60 708Q52 707 47 708T41 720V724Q41 731 43 735T57 742Q74 745 96 747T137 749Q170 749 196 745T240 728T268 696T278 644V637Q278 612 268 589T231 548Q260 532 269 507T278 461V450Q278 382 241 356T137 329Q119 329 97 331T57 336Q46 338 44 342T41 354V358Q41 368 46 369T60 370Q80 368 99 366T137 364Q188 364 212 383T237 450V461Z"  />
<glyph unicode="&#xB4;" horiz-adv-x="330" d="M282 771Q282 767 278 763L171 635Q164 627 161 623T149 618H127Q118 618 118 625Q118 631 122 635L222 763Q229 771 233 774T245 778H271Q282 778 282 771Z"  />
<glyph unicode="&#xB5;" horiz-adv-x="521" d="M451 38Q451 32 447 27T438 20Q401 8 354 1T267 -6Q213 -6 176 9T114 52V-176Q114 -184 110 -189T97 -195H87Q79 -195 75 -190T70 -176V518Q70 526 75 531T89 537H96Q104 537 109 532T114 518V185Q114 110 151 72T267 33Q283 33 301 34T339 38T375 44T407 52V518Q407 526 412 531T426 537H432Q440 537 445 532T451 518V38H451Z"  />
<glyph unicode="&#xB6;" horiz-adv-x="599" d="M529 -176Q529 -184 525 -189T512 -195H502Q494 -195 490 -190T485 -176V702H429V-176Q429 -184 425 -189T412 -195H402Q394 -195 390 -190T385 -176V275H276Q224 275 182 289T109 332T62 402T45 498V520Q45 574 61 615T108 685T181 728T276 743H513Q529 743 529 724V-176H529Z"  />
<glyph unicode="&#xB7;" horiz-adv-x="168" d="M106 360Q106 352 101 347T87 341H81Q73 341 68 346T62 360V434Q62 442 67 447T81 453H87Q95 453 100 448T106 434V360H106Z"  />
<glyph unicode="&#xB8;" horiz-adv-x="330" d="M195 -62Q195 -66 191 -70L100 -178Q93 -186 90 -190T78 -195H56Q47 -195 47 -188Q47 -182 51 -178L135 -70Q142 -62 146 -59T158 -55H184Q195 -55 195 -62Z"  />
<glyph unicode="&#xB9;" horiz-adv-x="210" d="M92 707L37 699Q25 697 21 702T17 718Q17 729 22 732T35 737L111 748Q125 750 128 744T132 729V350Q132 342 129 337T116 332H108Q99 332 96 337T92 350V707Z"  />
<glyph unicode="&#xBA;" horiz-adv-x="287" d="M257 574Q257 512 229 477T144 442Q87 442 59 477T30 574V611Q30 673 58 708T144 743Q201 743 229 708T257 611V574ZM224 611Q224 659 206 686T144 713Q100 713 82 686T63 611V574Q63 526 81 499T144 472Q188 472 206 499T224 574V611Z"  />
<glyph unicode="&#xBB;" horiz-adv-x="535" d="M513 269Q513 252 499 240L321 77Q312 70 305 70Q299 70 295 74L288 81Q283 86 283 92Q283 101 291 107L468 269L291 431Q283 437 283 446Q283 452 288 457L295 464Q299 468 305 468Q312 468 321 461L499 298Q513 284 513 269ZM283 269Q283 252 269 240L91 77Q82 70 75 70Q69 70 65 74L58 81Q53 86 53 92Q53 101 61 107L238 269L61 431Q53 437 53 446Q53 452 58 457L65 464Q69 468 75 468Q82 468 91 461L269 298Q283 284 283 269Z"  />
<glyph unicode="&#xBC;" horiz-adv-x="632" d="M518 738Q518 733 512 724L100 19Q94 8 91 4T79 0H52Q44 0 44 6Q44 11 49 19L461 724Q467 735 470 739T482 743H510Q518 743 518 738ZM105 707L50 699Q38 697 34 702T30 718Q30 729 35 732T48 737L124 748Q138 750 141 744T145 729V350Q145 342 142 337T129 332H121Q112 332 109 337T105 350V707ZM498 154V361Q498 369 493 362L359 161Q355 154 363 154H498ZM514 0Q505 0 502 5T498 18V117H357Q337 117 326 127T315 153Q315 161 317 167T326 183L473 398Q481 411 490 414T509 417Q522 417 530 410T538 384V154H584Q591 154 596 150T602 138V134Q602 126 597 122T584 117H538V18Q538 11 535 6T522 0H514Z"  />
<glyph unicode="&#xBD;" horiz-adv-x="663" d="M518 738Q518 733 512 724L100 19Q94 8 91 4T79 0H52Q44 0 44 6Q44 11 49 19L461 724Q467 735 470 739T482 743H510Q518 743 518 738ZM105 707L50 699Q38 697 34 702T30 718Q30 729 35 732T48 737L124 748Q138 750 141 744T145 729V350Q145 342 142 337T129 332H121Q112 332 109 337T105 350V707ZM420 377Q412 376 406 377T400 389V392Q400 401 403 405T419 411Q439 414 460 415T500 417Q565 417 599 395T633 324Q633 294 619 266T557 206L502 169Q478 153 464 139T443 111T434 83T432 52V38H610Q618 38 623 34T628 22V16Q628 7 623 4T610 0H410Q402 0 397 6T392 19V52Q392 72 395 90T407 127T434 162T479 200L534 238Q567 260 579 277T592 324Q592 351 572 366T500 382Q483 382 462 381T420 377Z"  />
<glyph unicode="&#xBE;" horiz-adv-x="713" d="M599 738Q599 733 593 724L181 19Q175 8 172 4T160 0H133Q125 0 125 6Q125 11 130 19L542 724Q548 735 551 739T563 743H591Q599 743 599 738ZM579 154V361Q579 369 574 362L440 161Q436 154 444 154H579ZM595 0Q586 0 583 5T579 18V117H438Q418 117 407 127T396 153Q396 161 398 167T407 183L554 398Q562 411 571 414T590 417Q603 417 611 410T619 384V154H665Q672 154 677 150T683 138V134Q683 126 678 122T665 117H619V18Q619 11 616 6T603 0H595ZM226 461Q226 472 224 484T214 506T194 524T158 531H57Q39 531 39 548V552Q39 569 57 569H158Q180 569 193 576T214 593T223 616T226 637V644Q226 686 202 700T126 714Q108 714 89 712T49 708Q41 707 36 708T30 720V724Q30 731 32 735T46 742Q63 745 85 747T126 749Q159 749 185 745T229 728T257 696T267 644V637Q267 612 257 589T220 548Q249 532 258 507T267 461V450Q267 382 230 356T126 329Q108 329 86 331T46 336Q35 338 33 342T30 354V358Q30 368 35 369T49 370Q69 368 88 366T126 364Q177 364 201 383T226 450V461Z"  />
<glyph unicode="&#xBF;" horiz-adv-x="424" d="M305 449Q305 441 300 436T286 430H280Q272 430 267 435T261 449V523Q261 531 266 536T280 542H286Q294 542 299 537T305 523V449ZM389 -186Q389 -193 386 -198T372 -205Q341 -209 312 -210T253 -212Q216 -212 182 -205T120 -181T77 -136T60 -67V-59Q60 -37 65 -17T82 25T116 72T170 130L200 160Q219 179 230 193T248 220T257 248T260 284V344Q260 352 265 357T279 363H285Q293 363 298 358T304 344V284Q304 260 301 241T289 204T266 168T230 128L202 100Q172 70 154 49T126 9T112 -25T108 -59V-67Q108 -124 144 -148T253 -173Q288 -173 313 -171T374 -166H376Q389 -166 389 -178V-186Z"  />
<glyph unicode="&#xC0;" horiz-adv-x="619" d="M579 22Q582 11 579 4T565 -3H553Q541 -3 537 10L453 281H165L83 10Q81 5 77 1T67 -3H54Q44 -3 41 4T40 22L245 699Q252 722 268 735T310 748Q334 748 350 736T374 700L579 22ZM333 688Q331 696 326 702T310 708Q299 708 294 703T287 689L177 325H442L333 688ZM367 801Q367 794 358 794H336Q328 794 325 798T314 811L207 939Q203 943 203 947Q203 954 214 954H240Q248 954 252 951T263 939L363 811Q367 807 367 801Z"  />
<glyph unicode="&#xC1;" horiz-adv-x="619" d="M579 22Q582 11 579 4T565 -3H553Q541 -3 537 10L453 281H165L83 10Q81 5 77 1T67 -3H54Q44 -3 41 4T40 22L245 699Q252 722 268 735T310 748Q334 748 350 736T374 700L579 22ZM333 688Q331 696 326 702T310 708Q299 708 294 703T287 689L177 325H442L333 688ZM415 946Q415 942 411 938L304 810Q297 802 294 798T282 793H260Q251 793 251 800Q251 806 255 810L355 938Q362 946 366 949T378 953H404Q415 953 415 946Z"  />
<glyph unicode="&#xC2;" horiz-adv-x="619" d="M579 22Q582 11 579 4T565 -3H553Q541 -3 537 10L453 281H165L83 10Q81 5 77 1T67 -3H54Q44 -3 41 4T40 22L245 699Q252 722 268 735T310 748Q334 748 350 736T374 700L579 22ZM333 688Q331 696 326 702T310 708Q299 708 294 703T287 689L177 325H442L333 688ZM456 801Q456 794 447 794H425Q417 794 414 798T403 811L309 924L215 811Q208 803 205 799T193 794H171Q162 794 162 801Q162 807 166 811L266 939Q273 947 277 950T289 954H329Q337 954 341 951T352 939L452 811Q456 807 456 801Z"  />
<glyph unicode="&#xC3;" horiz-adv-x="619" d="M579 22Q582 11 579 4T565 -3H553Q541 -3 537 10L453 281H165L83 10Q81 5 77 1T67 -3H54Q44 -3 41 4T40 22L245 699Q252 722 268 735T310 748Q334 748 350 736T374 700L579 22ZM333 688Q331 696 326 702T310 708Q299 708 294 703T287 689L177 325H442L333 688ZM469 879Q469 833 448 811T391 788Q351 788 324 814L276 861Q264 873 254 881T228 889Q210 889 199 879T187 836V810Q187 802 186 798T177 794H160Q149 794 149 810V836Q149 882 170 904T228 927Q267 927 294 901L342 854Q354 842 366 834T391 826Q409 826 420 836T431 879V905Q431 913 432 917T441 921H458Q469 921 469 905V879H469Z"  />
<glyph unicode="&#xC4;" horiz-adv-x="619" d="M579 22Q582 11 579 4T565 -3H553Q541 -3 537 10L453 281H165L83 10Q81 5 77 1T67 -3H54Q44 -3 41 4T40 22L245 699Q252 722 268 735T310 748Q334 748 350 736T374 700L579 22ZM333 688Q331 696 326 702T310 708Q299 708 294 703T287 689L177 325H442L333 688ZM406 833Q406 825 401 820T387 814H381Q373 814 368 819T362 833V907Q362 915 367 920T381 926H387Q395 926 400 921T406 907V833ZM256 833Q256 825 251 820T237 814H231Q223 814 218 819T212 833V907Q212 915 217 920T231 926H237Q245 926 250 921T256 907V833Z"  />
<glyph unicode="&#xC5;" horiz-adv-x="619" d="M579 22Q582 11 579 4T565 -3H553Q541 -3 537 10L453 281H165L83 10Q81 5 77 1T67 -3H54Q44 -3 41 4T40 22L245 699Q252 722 268 735T310 748Q334 748 350 736T374 700L579 22ZM333 688Q331 696 326 702T310 708Q299 708 294 703T287 689L177 325H442L333 688ZM402 887Q402 868 395 851T375 822T345 802T309 794Q290 794 273 801T244 821T224 851T216 887Q216 906 223 923T243 952T273 972T309 980Q328 980 345 973T374 953T394 923T402 887ZM367 887Q367 911 350 928T309 945Q285 945 269 928T252 887Q252 863 268 846T309 829Q333 829 350 846T367 887Z"  />
<glyph unicode="&#xC6;" horiz-adv-x="879" d="M822 17Q822 0 803 0H507Q463 0 444 19T424 81V281H156L74 10Q72 5 68 1T58 -3H45Q35 -3 32 4T31 22L236 694Q243 717 259 730T301 743H803Q822 743 822 726V718Q822 702 803 702H468V411H803Q822 411 822 395V385Q822 368 803 368H468V81Q468 61 474 51T507 41H803Q822 41 822 25V17ZM424 702H301Q283 702 278 683L168 325H424V702Z"  />
<glyph unicode="&#xC7;" horiz-adv-x="537" d="M497 21Q497 13 491 9T478 4Q458 2 416 -2T305 -6Q258 -6 214 9T136 60T81 155T60 305V437Q60 527 80 586T135 682T214 733T305 748Q374 748 416 744T478 738Q485 737 491 733T497 721V709Q497 700 492 698T478 697Q464 698 444 700T401 703T353 705T305 706Q263 706 227 692T163 645T120 562T104 437V305Q104 231 119 180T162 97T226 51T305 36Q328 36 353 37T401 39T444 41T478 45Q486 46 491 44T497 33V21ZM342 -62Q342 -66 338 -70L247 -178Q240 -186 237 -190T225 -195H203Q194 -195 194 -188Q194 -182 198 -178L282 -70Q289 -62 293 -59T305 -55H331Q342 -55 342 -62Z"  />
<glyph unicode="&#xC8;" horiz-adv-x="533" d="M478 17Q478 0 459 0H201Q144 0 112 24T80 112V631Q80 694 112 718T201 743H459Q478 743 478 726V718Q478 702 459 702H201Q183 702 169 700T145 690T130 668T124 631V411H459Q478 411 478 395V385Q478 368 459 368H124V112Q124 89 129 75T144 54T168 44T201 41H459Q478 41 478 25V17H478ZM335 801Q335 794 326 794H304Q296 794 293 798T282 811L175 939Q171 943 171 947Q171 954 182 954H208Q216 954 220 951T231 939L331 811Q335 807 335 801Z"  />
<glyph unicode="&#xC9;" horiz-adv-x="533" d="M478 17Q478 0 459 0H201Q144 0 112 24T80 112V631Q80 694 112 718T201 743H459Q478 743 478 726V718Q478 702 459 702H201Q183 702 169 700T145 690T130 668T124 631V411H459Q478 411 478 395V385Q478 368 459 368H124V112Q124 89 129 75T144 54T168 44T201 41H459Q478 41 478 25V17H478ZM405 947Q405 943 401 939L294 811Q287 803 284 799T272 794H250Q241 794 241 801Q241 807 245 811L345 939Q352 947 356 950T368 954H394Q405 954 405 947Z"  />
<glyph unicode="&#xCA;" horiz-adv-x="533" d="M478 17Q478 0 459 0H201Q144 0 112 24T80 112V631Q80 694 112 718T201 743H459Q478 743 478 726V718Q478 702 459 702H201Q183 702 169 700T145 690T130 668T124 631V411H459Q478 411 478 395V385Q478 368 459 368H124V112Q124 89 129 75T144 54T168 44T201 41H459Q478 41 478 25V17H478ZM425 801Q425 794 416 794H394Q386 794 383 798T372 811L278 924L184 811Q177 803 174 799T162 794H140Q131 794 131 801Q131 807 135 811L235 939Q242 947 246 950T258 954H298Q306 954 310 951T321 939L421 811Q425 807 425 801Z"  />
<glyph unicode="&#xCB;" horiz-adv-x="533" d="M478 17Q478 0 459 0H201Q144 0 112 24T80 112V631Q80 694 112 718T201 743H459Q478 743 478 726V718Q478 702 459 702H201Q183 702 169 700T145 690T130 668T124 631V411H459Q478 411 478 395V385Q478 368 459 368H124V112Q124 89 129 75T144 54T168 44T201 41H459Q478 41 478 25V17H478ZM381 833Q381 825 376 820T362 814H356Q348 814 343 819T337 833V907Q337 915 342 920T356 926H362Q370 926 375 921T381 907V833ZM231 833Q231 825 226 820T212 814H206Q198 814 193 819T187 833V907Q187 915 192 920T206 926H212Q220 926 225 921T231 907V833Z"  />
<glyph unicode="&#xCC;" horiz-adv-x="224" d="M134 19Q134 11 130 6T117 0H107Q99 0 95 5T90 19V724Q90 732 94 737T107 743H117Q125 743 129 738T134 724V19H134ZM177 801Q177 794 168 794H146Q138 794 135 798T124 811L17 939Q13 943 13 947Q13 954 24 954H50Q58 954 62 951T73 939L173 811Q177 807 177 801Z"  />
<glyph unicode="&#xCD;" horiz-adv-x="224" d="M134 19Q134 11 130 6T117 0H107Q99 0 95 5T90 19V724Q90 732 94 737T107 743H117Q125 743 129 738T134 724V19H134ZM215 947Q215 943 211 939L104 811Q97 803 94 799T82 794H60Q51 794 51 801Q51 807 55 811L155 939Q162 947 166 950T178 954H204Q215 954 215 947Z"  />
<glyph unicode="&#xCE;" horiz-adv-x="224" d="M134 19Q134 11 130 6T117 0H107Q99 0 95 5T90 19V724Q90 732 94 737T107 743H117Q125 743 129 738T134 724V19H134ZM260 801Q260 794 251 794H229Q221 794 218 798T207 811L113 924L19 811Q12 803 9 799T-3 794H-25Q-34 794 -34 801Q-34 807 -30 811L70 939Q77 947 81 950T93 954H133Q141 954 145 951T156 939L256 811Q260 807 260 801Z"  />
<glyph unicode="&#xCF;" horiz-adv-x="224" d="M134 19Q134 11 130 6T117 0H107Q99 0 95 5T90 19V724Q90 732 94 737T107 743H117Q125 743 129 738T134 724V19H134ZM210 833Q210 825 205 820T191 814H185Q177 814 172 819T166 833V907Q166 915 171 920T185 926H191Q199 926 204 921T210 907V833ZM60 833Q60 825 55 820T41 814H35Q27 814 22 819T16 833V907Q16 915 21 920T35 926H41Q49 926 54 921T60 907V833Z"  />
<glyph unicode="&#xD0;" horiz-adv-x="613" d="M553 309Q553 223 532 163T471 66T379 11T261 -6Q143 -6 97 2Q90 4 85 9T80 21V368H9Q-10 368 -10 385V395Q-10 411 9 411H80V721Q80 728 85 733T97 740Q143 748 261 748Q325 748 378 732T471 678T531 581T553 433V309ZM509 433Q509 513 490 566T438 651T359 696T261 709Q217 709 187 707T124 703V411H209Q228 411 228 395V385Q228 368 209 368H124V37Q157 35 187 34T261 33Q313 33 358 46T437 92T490 177T509 309V433Z"  />
<glyph unicode="&#xD1;" horiz-adv-x="651" d="M571 45Q571 21 558 8T526 -6Q515 -6 507 -5T492 1Q481 10 474 24L137 699Q133 706 129 706Q124 706 124 699V19Q124 11 120 6T107 0H97Q89 0 85 5T80 19V699Q80 722 93 735T129 748Q150 748 160 740T177 717L513 43Q516 36 521 36Q524 36 525 39T526 45V724Q526 732 530 737T542 743H554Q562 743 566 738T571 724V45H571ZM485 879Q485 833 464 811T407 788Q367 788 340 814L292 861Q280 873 270 881T244 889Q226 889 215 879T203 836V810Q203 802 202 798T193 794H176Q165 794 165 810V836Q165 882 186 904T244 927Q283 927 310 901L358 854Q370 842 382 834T407 826Q425 826 436 836T447 879V905Q447 913 448 917T457 921H474Q485 921 485 905V879H485Z"  />
<glyph unicode="&#xD2;" horiz-adv-x="632" d="M572 309Q572 225 553 166T500 68T419 12T316 -6Q260 -6 213 12T132 68T79 165T60 309V433Q60 517 79 576T132 674T213 730T316 748Q372 748 419 730T500 674T553 577T572 433V309ZM528 433Q528 509 512 561T468 646T400 692T316 706Q271 706 232 692T165 646T120 562T104 433V309Q104 232 120 180T164 96T232 50T316 36Q361 36 400 50T467 96T512 180T528 309V433ZM370 801Q370 794 361 794H339Q331 794 328 798T317 811L210 939Q206 943 206 947Q206 954 217 954H243Q251 954 255 951T266 939L366 811Q370 807 370 801Z"  />
<glyph unicode="&#xD3;" horiz-adv-x="632" d="M572 309Q572 225 553 166T500 68T419 12T316 -6Q260 -6 213 12T132 68T79 165T60 309V433Q60 517 79 576T132 674T213 730T316 748Q372 748 419 730T500 674T553 577T572 433V309ZM528 433Q528 509 512 561T468 646T400 692T316 706Q271 706 232 692T165 646T120 562T104 433V309Q104 232 120 180T164 96T232 50T316 36Q361 36 400 50T467 96T512 180T528 309V433ZM417 947Q417 943 413 939L306 811Q299 803 296 799T284 794H262Q253 794 253 801Q253 807 257 811L357 939Q364 947 368 950T380 954H406Q417 954 417 947Z"  />
<glyph unicode="&#xD4;" horiz-adv-x="632" d="M572 309Q572 225 553 166T500 68T419 12T316 -6Q260 -6 213 12T132 68T79 165T60 309V433Q60 517 79 576T132 674T213 730T316 748Q372 748 419 730T500 674T553 577T572 433V309ZM528 433Q528 509 512 561T468 646T400 692T316 706Q271 706 232 692T165 646T120 562T104 433V309Q104 232 120 180T164 96T232 50T316 36Q361 36 400 50T467 96T512 180T528 309V433ZM463 801Q463 794 454 794H432Q424 794 421 798T410 811L316 924L222 811Q215 803 212 799T200 794H178Q169 794 169 801Q169 807 173 811L273 939Q280 947 284 950T296 954H336Q344 954 348 951T359 939L459 811Q463 807 463 801Z"  />
<glyph unicode="&#xD5;" horiz-adv-x="632" d="M572 309Q572 225 553 166T500 68T419 12T316 -6Q260 -6 213 12T132 68T79 165T60 309V433Q60 517 79 576T132 674T213 730T316 748Q372 748 419 730T500 674T553 577T572 433V309ZM528 433Q528 509 512 561T468 646T400 692T316 706Q271 706 232 692T165 646T120 562T104 433V309Q104 232 120 180T164 96T232 50T316 36Q361 36 400 50T467 96T512 180T528 309V433ZM476 879Q476 833 455 811T398 788Q358 788 331 814L283 861Q271 873 261 881T235 889Q217 889 206 879T194 836V810Q194 802 193 798T184 794H167Q156 794 156 810V836Q156 882 177 904T235 927Q274 927 301 901L349 854Q361 842 373 834T398 826Q416 826 427 836T438 879V905Q438 913 439 917T448 921H465Q476 921 476 905V879H476Z"  />
<glyph unicode="&#xD6;" horiz-adv-x="632" d="M572 309Q572 225 553 166T500 68T419 12T316 -6Q260 -6 213 12T132 68T79 165T60 309V433Q60 517 79 576T132 674T213 730T316 748Q372 748 419 730T500 674T553 577T572 433V309ZM528 433Q528 509 512 561T468 646T400 692T316 706Q271 706 232 692T165 646T120 562T104 433V309Q104 232 120 180T164 96T232 50T316 36Q361 36 400 50T467 96T512 180T528 309V433ZM413 833Q413 825 408 820T394 814H388Q380 814 375 819T369 833V907Q369 915 374 920T388 926H394Q402 926 407 921T413 907V833ZM263 833Q263 825 258 820T244 814H238Q230 814 225 819T219 833V907Q219 915 224 920T238 926H244Q252 926 257 921T263 907V833Z"  />
<glyph unicode="&#xD7;" horiz-adv-x="580" d="M470 548Q470 541 462 533L319 391L462 248Q470 240 470 233Q470 227 465 222L458 215Q453 210 447 210Q440 210 432 218L290 361L148 219Q140 211 133 211Q127 211 122 216L115 223Q110 228 110 234Q110 241 118 249L260 391L118 533Q110 541 110 548Q110 553 115 558L122 565Q127 570 133 570Q140 570 148 562L290 420L432 563Q440 571 447 571Q453 571 458 566L465 559Q470 554 470 548Z"  />
<glyph unicode="&#xD8;" horiz-adv-x="632" d="M596 732Q596 728 593 724L528 634Q549 597 560 548T572 433V309Q572 225 553 166T500 68T419 12T316 -6Q258 -6 210 13T127 74L83 13Q78 7 72 1T57 -6H47Q36 -6 36 5Q36 8 39 13L105 105Q83 142 72 192T60 309V433Q60 517 79 576T132 674T213 730T316 748Q376 748 424 729T507 666L549 724Q554 730 560 736T575 743H585Q596 743 596 732ZM481 629Q452 671 410 688T316 706Q271 706 232 692T165 646T120 562T104 433V309Q104 256 111 216T133 145L481 629ZM528 433Q528 484 521 524T500 594L153 111Q182 71 223 54T316 36Q361 36 400 50T467 96T512 180T528 309V433Z"  />
<glyph unicode="&#xD9;" horiz-adv-x="633" d="M553 264Q553 137 496 66T317 -6Q195 -6 138 65T80 264V724Q80 732 84 737T97 743H107Q115 743 119 738T124 724V264Q124 155 168 95T317 35Q422 35 465 95T509 264V724Q509 732 513 737T526 743H536Q544 743 548 738T553 724V264H553ZM368 801Q368 794 359 794H337Q329 794 326 798T315 811L208 939Q204 943 204 947Q204 954 215 954H241Q249 954 253 951T264 939L364 811Q368 807 368 801Z"  />
<glyph unicode="&#xDA;" horiz-adv-x="633" d="M553 264Q553 137 496 66T317 -6Q195 -6 138 65T80 264V724Q80 732 84 737T97 743H107Q115 743 119 738T124 724V264Q124 155 168 95T317 35Q422 35 465 95T509 264V724Q509 732 513 737T526 743H536Q544 743 548 738T553 724V264H553ZM428 947Q428 943 424 939L317 811Q310 803 307 799T295 794H273Q264 794 264 801Q264 807 268 811L368 939Q375 947 379 950T391 954H417Q428 954 428 947Z"  />
<glyph unicode="&#xDB;" horiz-adv-x="633" d="M553 264Q553 137 496 66T317 -6Q195 -6 138 65T80 264V724Q80 732 84 737T97 743H107Q115 743 119 738T124 724V264Q124 155 168 95T317 35Q422 35 465 95T509 264V724Q509 732 513 737T526 743H536Q544 743 548 738T553 724V264H553ZM463 801Q463 794 454 794H432Q424 794 421 798T410 811L316 924L222 811Q215 803 212 799T200 794H178Q169 794 169 801Q169 807 173 811L273 939Q280 947 284 950T296 954H336Q344 954 348 951T359 939L459 811Q463 807 463 801Z"  />
<glyph unicode="&#xDC;" horiz-adv-x="633" d="M553 264Q553 137 496 66T317 -6Q195 -6 138 65T80 264V724Q80 732 84 737T97 743H107Q115 743 119 738T124 724V264Q124 155 168 95T317 35Q422 35 465 95T509 264V724Q509 732 513 737T526 743H536Q544 743 548 738T553 724V264H553ZM413 833Q413 825 408 820T394 814H388Q380 814 375 819T369 833V907Q369 915 374 920T388 926H394Q402 926 407 921T413 907V833ZM263 833Q263 825 258 820T244 814H238Q230 814 225 819T219 833V907Q219 915 224 920T238 926H244Q252 926 257 921T263 907V833Z"  />
<glyph unicode="&#xDD;" horiz-adv-x="551" d="M344 367Q331 339 320 327T297 309V19Q297 11 293 6T280 0H270Q262 0 258 5T253 19V309Q242 314 231 326T206 367L48 716Q42 730 46 736T62 743H72Q77 743 81 740T88 731L245 381Q255 359 260 353T275 346Q284 346 289 352T305 381L462 731Q464 736 468 739T478 743H488Q499 743 503 737T502 716L344 367ZM391 947Q391 943 387 939L280 811Q273 803 270 799T258 794H236Q227 794 227 801Q227 807 231 811L331 939Q338 947 342 950T354 954H380Q391 954 391 947Z"  />
<glyph unicode="&#xDE;" horiz-adv-x="540" d="M505 432Q505 373 487 333T433 267T348 230T233 218Q204 218 175 219T124 222V19Q124 11 120 6T107 0H97Q89 0 85 5T80 19V724Q80 732 84 737T97 743H107Q115 743 119 738T124 724V649Q150 651 179 651T233 652Q297 652 347 641T433 605T486 542T505 449V432ZM461 449Q461 495 447 526T403 577T332 605T233 613Q201 613 174 613T124 610V261Q147 259 177 258T233 257Q349 257 405 297T461 432V449Z"  />
<glyph unicode="&#xDF;" horiz-adv-x="543" d="M488 209Q488 150 469 109T418 43T344 6T255 -6Q245 -6 238 -5T215 -3Q207 -3 201 2T195 15V23Q195 31 200 33T212 35H215Q233 34 239 34T255 33Q346 33 395 74T444 209V217Q444 249 432 277T397 325T339 358T261 370H220Q212 370 206 374T200 386V395Q200 403 206 407T220 411H261Q305 411 336 423T387 456T416 502T426 557V564Q426 632 390 670T275 709Q244 709 216 700T166 668T132 608T119 514V20Q119 12 115 6T102 0H90Q82 0 79 6T75 20V513Q75 573 90 617T131 690T194 734T275 748Q318 748 353 737T415 702T455 644T470 564V557Q470 526 460 500T434 452T396 415T352 391Q411 374 449 329T488 217V209H488Z"  />
<glyph unicode="&#xE0;" horiz-adv-x="488" d="M418 20Q418 12 412 6T398 0H393Q385 0 379 6T373 20V45Q336 25 293 10T203 -6Q175 -6 148 1T99 27T64 77T50 155V168Q50 207 63 235T105 283T181 312T297 322H374V358Q374 397 368 424T348 469T309 495T248 503Q223 503 205 503T170 501T139 498T106 494Q98 493 91 495T83 509V515Q83 525 89 528T106 533Q122 535 136 536T167 539T203 541T248 542Q299 542 331 529T383 491T410 432T418 358V20ZM374 283H297Q240 283 202 277T139 258T105 222T94 168V155Q94 120 102 97T126 59T160 39T203 33Q245 33 284 45T374 84V283ZM292 625Q292 618 283 618H261Q253 618 250 622T239 635L132 763Q128 767 128 771Q128 778 139 778H165Q173 778 177 775T188 763L288 635Q292 631 292 625Z"  />
<glyph unicode="&#xE1;" horiz-adv-x="488" d="M418 20Q418 12 412 6T398 0H393Q385 0 379 6T373 20V45Q336 25 293 10T203 -6Q175 -6 148 1T99 27T64 77T50 155V168Q50 207 63 235T105 283T181 312T297 322H374V358Q374 397 368 424T348 469T309 495T248 503Q223 503 205 503T170 501T139 498T106 494Q98 493 91 495T83 509V515Q83 525 89 528T106 533Q122 535 136 536T167 539T203 541T248 542Q299 542 331 529T383 491T410 432T418 358V20ZM374 283H297Q240 283 202 277T139 258T105 222T94 168V155Q94 120 102 97T126 59T160 39T203 33Q245 33 284 45T374 84V283ZM362 771Q362 767 358 763L251 635Q244 627 241 623T229 618H207Q198 618 198 625Q198 631 202 635L302 763Q309 771 313 774T325 778H351Q362 778 362 771Z"  />
<glyph unicode="&#xE2;" horiz-adv-x="488" d="M418 20Q418 12 412 6T398 0H393Q385 0 379 6T373 20V45Q336 25 293 10T203 -6Q175 -6 148 1T99 27T64 77T50 155V168Q50 207 63 235T105 283T181 312T297 322H374V358Q374 397 368 424T348 469T309 495T248 503Q223 503 205 503T170 501T139 498T106 494Q98 493 91 495T83 509V515Q83 525 89 528T106 533Q122 535 136 536T167 539T203 541T248 542Q299 542 331 529T383 491T410 432T418 358V20ZM374 283H297Q240 283 202 277T139 258T105 222T94 168V155Q94 120 102 97T126 59T160 39T203 33Q245 33 284 45T374 84V283ZM391 625Q391 618 382 618H360Q352 618 349 622T338 635L244 748L150 635Q143 627 140 623T128 618H106Q97 618 97 625Q97 631 101 635L201 763Q208 771 212 774T224 778H264Q272 778 276 775T287 763L387 635Q391 631 391 625Z"  />
<glyph unicode="&#xE3;" horiz-adv-x="488" d="M418 20Q418 12 412 6T398 0H393Q385 0 379 6T373 20V45Q336 25 293 10T203 -6Q175 -6 148 1T99 27T64 77T50 155V168Q50 207 63 235T105 283T181 312T297 322H374V358Q374 397 368 424T348 469T309 495T248 503Q223 503 205 503T170 501T139 498T106 494Q98 493 91 495T83 509V515Q83 525 89 528T106 533Q122 535 136 536T167 539T203 541T248 542Q299 542 331 529T383 491T410 432T418 358V20ZM374 283H297Q240 283 202 277T139 258T105 222T94 168V155Q94 120 102 97T126 59T160 39T203 33Q245 33 284 45T374 84V283ZM404 719Q404 673 383 651T326 628Q286 628 259 654L211 701Q199 713 189 721T163 729Q145 729 134 719T122 676V650Q122 642 121 638T112 634H95Q84 634 84 650V676Q84 722 105 744T163 767Q202 767 229 741L277 694Q289 682 301 674T326 666Q344 666 355 676T366 719V745Q366 753 367 757T376 761H393Q404 761 404 745V719H404Z"  />
<glyph unicode="&#xE4;" horiz-adv-x="488" d="M418 20Q418 12 412 6T398 0H393Q385 0 379 6T373 20V45Q336 25 293 10T203 -6Q175 -6 148 1T99 27T64 77T50 155V168Q50 207 63 235T105 283T181 312T297 322H374V358Q374 397 368 424T348 469T309 495T248 503Q223 503 205 503T170 501T139 498T106 494Q98 493 91 495T83 509V515Q83 525 89 528T106 533Q122 535 136 536T167 539T203 541T248 542Q299 542 331 529T383 491T410 432T418 358V20ZM374 283H297Q240 283 202 277T139 258T105 222T94 168V155Q94 120 102 97T126 59T160 39T203 33Q245 33 284 45T374 84V283ZM341 661Q341 653 336 648T322 642H316Q308 642 303 647T297 661V735Q297 743 302 748T316 754H322Q330 754 335 749T341 735V661ZM191 661Q191 653 186 648T172 642H166Q158 642 153 647T147 661V735Q147 743 152 748T166 754H172Q180 754 185 749T191 735V661Z"  />
<glyph unicode="&#xE5;" horiz-adv-x="488" d="M418 20Q418 12 412 6T398 0H393Q385 0 379 6T373 20V45Q336 25 293 10T203 -6Q175 -6 148 1T99 27T64 77T50 155V168Q50 207 63 235T105 283T181 312T297 322H374V358Q374 397 368 424T348 469T309 495T248 503Q223 503 205 503T170 501T139 498T106 494Q98 493 91 495T83 509V515Q83 525 89 528T106 533Q122 535 136 536T167 539T203 541T248 542Q299 542 331 529T383 491T410 432T418 358V20ZM374 283H297Q240 283 202 277T139 258T105 222T94 168V155Q94 120 102 97T126 59T160 39T203 33Q245 33 284 45T374 84V283ZM337 698Q337 679 330 662T310 633T280 613T244 605Q225 605 208 612T179 632T159 662T151 698Q151 717 158 734T178 763T208 783T244 791Q263 791 280 784T309 764T329 734T337 698ZM302 698Q302 722 285 739T244 756Q220 756 204 739T187 698Q187 674 203 657T244 640Q268 640 285 657T302 698Z"  />
<glyph unicode="&#xE6;" horiz-adv-x="830" d="M775 277Q775 269 770 264T756 258H418V204Q418 169 421 146T430 108T444 84T461 68Q490 46 526 40T599 33Q632 33 671 37T747 50Q749 50 750 50T753 51Q759 51 763 48T768 37V30Q768 22 764 18T749 11Q713 3 673 -1T599 -6Q570 -6 540 -3T483 11T432 38T394 84Q382 68 368 52T331 23T278 2T203 -6Q175 -6 148 1T99 27T64 77T50 155V168Q50 207 63 235T105 283T181 312T297 322H374V358Q374 397 368 424T348 469T309 495T248 503Q224 503 206 503T171 501T139 498T106 494H102Q95 494 89 497T83 509V515Q83 530 106 533Q122 535 136 536T167 539T203 541T248 542Q320 542 356 516T406 445Q432 492 474 517T576 542Q628 542 665 525T727 477T763 401T775 304V277ZM731 304Q731 399 696 451T576 503Q534 503 505 489T456 448T427 386T418 304V298H731V304ZM374 282H297Q240 282 202 276T139 257T105 222T94 168V155Q94 120 102 97T126 59T160 39T203 33Q291 33 332 72T374 204V282Z"  />
<glyph unicode="&#xE7;" horiz-adv-x="437" d="M393 21Q393 13 389 9T374 3Q342 -1 310 -3T253 -6Q199 -6 162 13T101 66T66 143T55 236V303Q55 353 66 396T100 472T161 523T253 542Q277 542 309 540T374 533Q385 531 389 527T393 515V508Q393 500 387 496T372 494Q301 503 253 503Q210 503 181 489T133 449T107 385T99 303V236Q99 191 107 154T133 89T180 48T253 33Q301 33 372 42Q381 44 387 40T393 28V21ZM292 -62Q292 -66 288 -70L197 -178Q190 -186 187 -190T175 -195H153Q144 -195 144 -188Q144 -182 148 -178L232 -70Q239 -62 243 -59T255 -55H281Q292 -55 292 -62Z"  />
<glyph unicode="&#xE8;" horiz-adv-x="511" d="M456 277Q456 269 451 264T437 258H99V237Q99 174 113 134T152 72T209 41T280 33Q313 33 352 37T428 50Q436 52 442 50T449 37V30Q449 22 445 18T430 11Q394 3 354 -1T280 -6Q233 -6 193 5T121 44T73 119T55 237V303Q55 355 68 398T106 474T169 524T257 542Q309 542 346 525T408 477T444 401T456 304V277ZM412 304Q412 399 377 451T257 503Q215 503 186 489T137 448T108 385T99 303V298H412V304ZM302 625Q302 618 293 618H271Q263 618 260 622T249 635L142 763Q138 767 138 771Q138 778 149 778H175Q183 778 187 775T198 763L298 635Q302 631 302 625Z"  />
<glyph unicode="&#xE9;" horiz-adv-x="511" d="M456 277Q456 269 451 264T437 258H99V237Q99 174 113 134T152 72T209 41T280 33Q313 33 352 37T428 50Q436 52 442 50T449 37V30Q449 22 445 18T430 11Q394 3 354 -1T280 -6Q233 -6 193 5T121 44T73 119T55 237V303Q55 355 68 398T106 474T169 524T257 542Q309 542 346 525T408 477T444 401T456 304V277ZM412 304Q412 399 377 451T257 503Q215 503 186 489T137 448T108 385T99 303V298H412V304ZM373 771Q373 767 369 763L262 635Q255 627 252 623T240 618H218Q209 618 209 625Q209 631 213 635L313 763Q320 771 324 774T336 778H362Q373 778 373 771Z"  />
<glyph unicode="&#xEA;" horiz-adv-x="511" d="M456 277Q456 269 451 264T437 258H99V237Q99 174 113 134T152 72T209 41T280 33Q313 33 352 37T428 50Q436 52 442 50T449 37V30Q449 22 445 18T430 11Q394 3 354 -1T280 -6Q233 -6 193 5T121 44T73 119T55 237V303Q55 355 68 398T106 474T169 524T257 542Q309 542 346 525T408 477T444 401T456 304V277ZM412 304Q412 399 377 451T257 503Q215 503 186 489T137 448T108 385T99 303V298H412V304ZM402 625Q402 618 393 618H371Q363 618 360 622T349 635L255 748L161 635Q154 627 151 623T139 618H117Q108 618 108 625Q108 631 112 635L212 763Q219 771 223 774T235 778H275Q283 778 287 775T298 763L398 635Q402 631 402 625Z"  />
<glyph unicode="&#xEB;" horiz-adv-x="511" d="M456 277Q456 269 451 264T437 258H99V237Q99 174 113 134T152 72T209 41T280 33Q313 33 352 37T428 50Q436 52 442 50T449 37V30Q449 22 445 18T430 11Q394 3 354 -1T280 -6Q233 -6 193 5T121 44T73 119T55 237V303Q55 355 68 398T106 474T169 524T257 542Q309 542 346 525T408 477T444 401T456 304V277ZM412 304Q412 399 377 451T257 503Q215 503 186 489T137 448T108 385T99 303V298H412V304ZM352 661Q352 653 347 648T333 642H327Q319 642 314 647T308 661V735Q308 743 313 748T327 754H333Q341 754 346 749T352 735V661ZM202 661Q202 653 197 648T183 642H177Q169 642 164 647T158 661V735Q158 743 163 748T177 754H183Q191 754 196 749T202 735V661Z"  />
<glyph unicode="&#xEC;" horiz-adv-x="204" d="M124 19Q124 11 119 6T105 0H99Q91 0 86 5T80 19V518Q80 526 85 531T99 537H105Q113 537 118 532T124 518V19H124ZM162 625Q162 618 153 618H131Q123 618 120 622T109 635L2 763Q-2 767 -2 771Q-2 778 9 778H35Q43 778 47 775T58 763L158 635Q162 631 162 625Z"  />
<glyph unicode="&#xED;" horiz-adv-x="204" d="M124 19Q124 11 119 6T105 0H99Q91 0 86 5T80 19V518Q80 526 85 531T99 537H105Q113 537 118 532T124 518V19H124ZM208 771Q208 767 204 763L97 635Q90 627 87 623T75 618H53Q44 618 44 625Q44 631 48 635L148 763Q155 771 159 774T171 778H197Q208 778 208 771Z"  />
<glyph unicode="&#xEE;" horiz-adv-x="204" d="M124 19Q124 11 119 6T105 0H99Q91 0 86 5T80 19V518Q80 526 85 531T99 537H105Q113 537 118 532T124 518V19H124ZM250 625Q250 618 241 618H219Q211 618 208 622T197 635L103 748L9 635Q2 627 -1 623T-13 618H-35Q-44 618 -44 625Q-44 631 -40 635L60 763Q67 771 71 774T83 778H123Q131 778 135 775T146 763L246 635Q250 631 250 625Z"  />
<glyph unicode="&#xEF;" horiz-adv-x="204" d="M124 19Q124 11 119 6T105 0H99Q91 0 86 5T80 19V518Q80 526 85 531T99 537H105Q113 537 118 532T124 518V19H124ZM200 661Q200 653 195 648T181 642H175Q167 642 162 647T156 661V735Q156 743 161 748T175 754H181Q189 754 194 749T200 735V661ZM50 661Q50 653 45 648T31 642H25Q17 642 12 647T6 661V735Q6 743 11 748T25 754H31Q39 754 44 749T50 735V661Z"  />
<glyph unicode="&#xF0;" horiz-adv-x="522" d="M467 233Q467 119 416 57T261 -6Q158 -6 107 56T55 233V303Q55 417 106 479T261 542Q359 542 411 484Q397 537 359 582T244 661L147 588Q140 583 135 582T123 588L118 594Q113 600 116 606T125 618L202 678Q153 695 95 707Q87 709 82 713T80 727L83 737Q86 747 91 748T105 747Q185 729 241 707L343 785Q357 795 368 784L374 778Q384 768 368 756L281 690Q354 653 392 607T447 511T465 407T467 303V233ZM423 303Q423 395 386 449T261 503Q173 503 136 449T99 303V233Q99 141 136 87T261 33Q349 33 386 87T423 233V303Z"  />
<glyph unicode="&#xF1;" horiz-adv-x="521" d="M451 19Q451 11 446 6T432 0H425Q417 0 412 5T407 19V351Q407 394 397 423T368 470T325 495T272 503Q234 503 193 492T114 462V19Q114 11 109 6T95 0H89Q81 0 76 5T70 19V517Q70 525 75 531T88 537H96Q104 537 109 531T114 517V501Q153 520 194 531T275 542Q311 542 343 532T399 499T437 440T451 351V19H451ZM420 705Q420 659 399 637T342 614Q302 614 275 640L227 687Q215 699 205 707T179 715Q161 715 150 705T138 662V636Q138 628 137 624T128 620H111Q100 620 100 636V662Q100 708 121 730T179 753Q218 753 245 727L293 680Q305 668 317 660T342 652Q360 652 371 662T382 705V731Q382 739 383 743T392 747H409Q420 747 420 731V705H420Z"  />
<glyph unicode="&#xF2;" horiz-adv-x="522" d="M467 233Q467 119 416 57T261 -6Q158 -6 107 56T55 233V303Q55 417 106 479T261 542Q364 542 415 480T467 303V233ZM423 303Q423 395 386 449T261 503Q173 503 136 449T99 303V233Q99 141 136 87T261 33Q349 33 386 87T423 233V303ZM321 625Q321 618 312 618H290Q282 618 279 622T268 635L161 763Q157 767 157 771Q157 778 168 778H194Q202 778 206 775T217 763L317 635Q321 631 321 625Z"  />
<glyph unicode="&#xF3;" horiz-adv-x="522" d="M467 233Q467 119 416 57T261 -6Q158 -6 107 56T55 233V303Q55 417 106 479T261 542Q364 542 415 480T467 303V233ZM423 303Q423 395 386 449T261 503Q173 503 136 449T99 303V233Q99 141 136 87T261 33Q349 33 386 87T423 233V303ZM378 771Q378 767 374 763L267 635Q260 627 257 623T245 618H223Q214 618 214 625Q214 631 218 635L318 763Q325 771 329 774T341 778H367Q378 778 378 771Z"  />
<glyph unicode="&#xF4;" horiz-adv-x="522" d="M467 233Q467 119 416 57T261 -6Q158 -6 107 56T55 233V303Q55 417 106 479T261 542Q364 542 415 480T467 303V233ZM423 303Q423 395 386 449T261 503Q173 503 136 449T99 303V233Q99 141 136 87T261 33Q349 33 386 87T423 233V303ZM408 625Q408 618 399 618H377Q369 618 366 622T355 635L261 748L167 635Q160 627 157 623T145 618H123Q114 618 114 625Q114 631 118 635L218 763Q225 771 229 774T241 778H281Q289 778 293 775T304 763L404 635Q408 631 408 625Z"  />
<glyph unicode="&#xF5;" horiz-adv-x="522" d="M467 233Q467 119 416 57T261 -6Q158 -6 107 56T55 233V303Q55 417 106 479T261 542Q364 542 415 480T467 303V233ZM423 303Q423 395 386 449T261 503Q173 503 136 449T99 303V233Q99 141 136 87T261 33Q349 33 386 87T423 233V303ZM421 704Q421 658 400 636T343 613Q303 613 276 639L228 686Q216 698 206 706T180 714Q162 714 151 704T139 661V635Q139 627 138 623T129 619H112Q101 619 101 635V661Q101 707 122 729T180 752Q219 752 246 726L294 679Q306 667 318 659T343 651Q361 651 372 661T383 704V730Q383 738 384 742T393 746H410Q421 746 421 730V704H421Z"  />
<glyph unicode="&#xF6;" horiz-adv-x="522" d="M467 233Q467 119 416 57T261 -6Q158 -6 107 56T55 233V303Q55 417 106 479T261 542Q364 542 415 480T467 303V233ZM423 303Q423 395 386 449T261 503Q173 503 136 449T99 303V233Q99 141 136 87T261 33Q349 33 386 87T423 233V303ZM358 661Q358 653 353 648T339 642H333Q325 642 320 647T314 661V735Q314 743 319 748T333 754H339Q347 754 352 749T358 735V661ZM208 661Q208 653 203 648T189 642H183Q175 642 170 647T164 661V735Q164 743 169 748T183 754H189Q197 754 202 749T208 735V661Z"  />
<glyph unicode="&#xF7;" horiz-adv-x="580" d="M312 511Q312 503 307 498T293 492H287Q279 492 274 497T268 511V585Q268 593 273 598T287 604H293Q301 604 306 599T312 585V511ZM493 386Q493 378 487 374T473 370H108Q100 370 94 374T88 386V396Q88 404 94 408T108 412H473Q481 412 487 408T493 396V386ZM312 197Q312 189 307 184T293 178H287Q279 178 274 183T268 197V271Q268 279 273 284T287 290H293Q301 290 306 285T312 271V197Z"  />
<glyph unicode="&#xF8;" horiz-adv-x="522" d="M497 560Q497 553 493 549L428 462Q467 402 467 303V233Q467 119 416 57T261 -6Q171 -6 119 43L69 -25Q64 -32 61 -33T53 -35H33Q25 -35 25 -27Q25 -21 29 -16L95 73Q55 135 55 233V303Q55 417 106 479T261 542Q351 542 404 491L453 558Q458 565 461 566T469 568H489Q497 568 497 560ZM379 458Q339 503 261 503Q173 503 136 449T99 303V233Q99 196 104 165T122 110L379 458ZM423 303Q423 377 401 424L144 77Q164 56 192 45T261 33Q349 33 386 87T423 233V303Z"  />
<glyph unicode="&#xF9;" horiz-adv-x="521" d="M70 518Q70 526 75 531T89 537H96Q104 537 109 532T114 518V186Q114 143 124 114T153 67T196 42T249 34Q287 34 328 46T407 75V518Q407 526 412 531T426 537H432Q440 537 445 532T451 518V20Q451 12 446 6T433 0H425Q417 0 412 6T407 20V36Q368 17 327 6T246 -5Q210 -5 178 5T122 39T84 98T70 186V518H70ZM305 625Q305 618 296 618H274Q266 618 263 622T252 635L145 763Q141 767 141 771Q141 778 152 778H178Q186 778 190 775T201 763L301 635Q305 631 305 625Z"  />
<glyph unicode="&#xFA;" horiz-adv-x="521" d="M70 518Q70 526 75 531T89 537H96Q104 537 109 532T114 518V186Q114 143 124 114T153 67T196 42T249 34Q287 34 328 46T407 75V518Q407 526 412 531T426 537H432Q440 537 445 532T451 518V20Q451 12 446 6T433 0H425Q417 0 412 6T407 20V36Q368 17 327 6T246 -5Q210 -5 178 5T122 39T84 98T70 186V518H70ZM385 771Q385 767 381 763L274 635Q267 627 264 623T252 618H230Q221 618 221 625Q221 631 225 635L325 763Q332 771 336 774T348 778H374Q385 778 385 771Z"  />
<glyph unicode="&#xFB;" horiz-adv-x="521" d="M70 518Q70 526 75 531T89 537H96Q104 537 109 532T114 518V186Q114 143 124 114T153 67T196 42T249 34Q287 34 328 46T407 75V518Q407 526 412 531T426 537H432Q440 537 445 532T451 518V20Q451 12 446 6T433 0H425Q417 0 412 6T407 20V36Q368 17 327 6T246 -5Q210 -5 178 5T122 39T84 98T70 186V518H70ZM407 625Q407 618 398 618H376Q368 618 365 622T354 635L260 748L166 635Q159 627 156 623T144 618H122Q113 618 113 625Q113 631 117 635L217 763Q224 771 228 774T240 778H280Q288 778 292 775T303 763L403 635Q407 631 407 625Z"  />
<glyph unicode="&#xFC;" horiz-adv-x="521" d="M70 518Q70 526 75 531T89 537H96Q104 537 109 532T114 518V186Q114 143 124 114T153 67T196 42T249 34Q287 34 328 46T407 75V518Q407 526 412 531T426 537H432Q440 537 445 532T451 518V20Q451 12 446 6T433 0H425Q417 0 412 6T407 20V36Q368 17 327 6T246 -5Q210 -5 178 5T122 39T84 98T70 186V518H70ZM357 661Q357 653 352 648T338 642H332Q324 642 319 647T313 661V735Q313 743 318 748T332 754H338Q346 754 351 749T357 735V661ZM207 661Q207 653 202 648T188 642H182Q174 642 169 647T163 661V735Q163 743 168 748T182 754H188Q196 754 201 749T207 735V661Z"  />
<glyph unicode="&#xFD;" horiz-adv-x="486" d="M282 -56Q270 -96 257 -123T224 -166T180 -188T120 -195Q103 -195 88 -193T58 -189Q49 -187 44 -185T38 -175V-164Q38 -155 42 -152T59 -150Q70 -152 91 -154T124 -156Q151 -156 169 -151T201 -134T224 -101T243 -47L256 0H242Q219 0 206 10T181 56L46 513Q43 523 46 530T62 537H71Q79 537 82 533T87 523L222 63Q227 47 233 44T245 41H268L405 524Q407 529 410 533T423 537H432Q444 537 446 530T446 512L282 -56ZM369 771Q369 767 365 763L258 635Q251 627 248 623T236 618H214Q205 618 205 625Q205 631 209 635L309 763Q316 771 320 774T332 778H358Q369 778 369 771Z"  />
<glyph unicode="&#xFE;" horiz-adv-x="504" d="M449 233Q449 -6 253 -6Q238 -6 221 -5T184 -2T147 3T114 9V-176Q114 -184 110 -189T97 -195H87Q79 -195 75 -190T70 -176V724Q70 732 74 737T87 743H97Q105 743 109 738T114 724V529Q146 534 182 538T253 542Q305 542 342 525T403 475T438 398T449 299V233ZM405 299Q405 396 371 449T253 503Q217 503 179 499T114 490V46Q128 43 146 41T183 37T220 34T253 33Q336 33 370 83T405 233V299Z"  />
<glyph unicode="&#xFF;" horiz-adv-x="486" d="M282 -56Q270 -96 257 -123T224 -166T180 -188T120 -195Q103 -195 88 -193T58 -189Q49 -187 44 -185T38 -175V-164Q38 -155 42 -152T59 -150Q70 -152 91 -154T124 -156Q151 -156 169 -151T201 -134T224 -101T243 -47L256 0H242Q219 0 206 10T181 56L46 513Q43 523 46 530T62 537H71Q79 537 82 533T87 523L222 63Q227 47 233 44T245 41H268L405 524Q407 529 410 533T423 537H432Q444 537 446 530T446 512L282 -56ZM340 668Q340 660 335 655T321 649H315Q307 649 302 654T296 668V742Q296 750 301 755T315 761H321Q329 761 334 756T340 742V668ZM190 668Q190 660 185 655T171 649H165Q157 649 152 654T146 668V742Q146 750 151 755T165 761H171Q179 761 184 756T190 742V668Z"  />
<glyph unicode="&#x131;" horiz-adv-x="204" d="M124 19Q124 11 119 6T105 0H99Q91 0 86 5T80 19V518Q80 526 85 531T99 537H105Q113 537 118 532T124 518V19H124Z"  />
<glyph unicode="&#x152;" horiz-adv-x="982" d="M927 17Q927 0 908 0H612Q568 0 549 19T529 81V100Q494 48 439 21T316 -6Q262 -6 216 11T135 63T80 146T60 259V483Q60 547 80 596T134 679T215 730T316 748Q383 748 438 722T529 643V661Q529 704 548 723T612 743H908Q927 743 927 726V718Q927 702 908 702H612Q586 702 580 692T573 661V411H908Q927 411 927 395V385Q927 368 908 368H573V81Q573 61 579 51T612 41H908Q927 41 927 25V17ZM529 259V483V490V493Q527 545 510 585T463 652T396 692T316 706Q273 706 235 692T167 649T121 579T104 483V259Q104 205 121 163T167 93T234 51T316 36Q358 36 396 49T463 90T509 157T529 249V252V259Z"  />
<glyph unicode="&#x153;" horiz-adv-x="890" d="M823 277Q823 269 818 264T804 258H477V187Q477 102 523 68T653 33Q664 33 681 34T719 36T759 39T795 43H799Q816 43 816 29V23Q816 15 812 11T797 4Q781 2 761 1T720 -2T681 -5T650 -6Q575 -6 525 18T451 93Q428 49 384 22T272 -6Q221 -6 183 11T119 56T80 122T67 198V338Q67 377 80 414T118 479T182 525T272 542Q340 542 385 514T453 441Q473 486 516 514T630 542Q682 542 718 527T778 484T812 422T823 348V277ZM779 348Q779 377 772 405T747 454T701 489T630 503Q588 503 559 490T512 455T486 405T477 348V298H779V348ZM434 338Q434 369 424 398T394 451T344 489T272 503Q231 503 201 489T150 452T120 399T110 338V198Q110 166 120 137T150 84T200 47T272 33Q313 33 343 47T394 84T424 136T434 198V338Z"  />
<glyph unicode="&#x160;" horiz-adv-x="530" d="M475 185Q475 151 466 117T432 56T361 11T243 -6Q194 -6 157 -3T97 4Q83 6 77 10T70 25V29Q70 41 77 44T93 46Q105 44 122 43T159 40T200 37T243 36Q300 36 336 47T392 79T421 127T429 185Q429 213 421 233T394 271T346 309T275 354L212 393Q178 414 149 434T99 477T67 529T55 593Q55 639 75 669T128 716T203 741T289 748Q305 748 324 747T363 745T400 742T428 739Q443 737 449 733T455 719V714Q455 703 447 700T424 698Q421 698 405 699T369 702T326 705T288 706Q188 706 144 678T100 593Q100 566 108 546T134 507T176 470T235 432L299 393Q343 366 376 344T431 297T464 246T475 185ZM412 947Q412 941 408 937L308 809Q301 801 297 798T285 794H245Q237 794 233 797T222 809L122 937Q118 941 118 947Q118 954 127 954H149Q157 954 160 950T171 937L265 824L359 937Q366 945 369 949T381 954H403Q412 954 412 947Z"  />
<glyph unicode="&#x161;" horiz-adv-x="440" d="M390 133Q390 93 376 66T339 23T284 1T217 -6Q200 -6 181 -5T142 -2T104 2T72 8Q61 10 56 13T50 24V35Q50 44 56 47T72 49Q108 43 148 38T219 33Q246 33 269 37T309 52T336 83T346 133Q346 148 341 160T324 185T292 211T240 242L176 277Q148 292 126 306T88 337T64 373T55 419Q55 454 68 477T102 515T150 536T208 542Q262 542 293 539T351 533Q362 531 367 529T372 516V508Q372 496 367 493T351 492Q331 494 293 498T212 503Q188 503 168 500T132 488T108 463T99 419Q99 386 124 364T196 315L263 278Q294 261 318 246T358 213T382 177T390 133ZM367 771Q367 765 363 761L263 633Q256 625 252 622T240 618H200Q192 618 188 621T177 633L77 761Q73 765 73 771Q73 778 82 778H104Q112 778 115 774T126 761L220 648L314 761Q321 769 324 773T336 778H358Q367 778 367 771Z"  />
<glyph unicode="&#x178;" horiz-adv-x="551" d="M344 367Q331 339 320 327T297 309V19Q297 11 293 6T280 0H270Q262 0 258 5T253 19V309Q242 314 231 326T206 367L48 716Q42 730 46 736T62 743H72Q77 743 81 740T88 731L245 381Q255 359 260 353T275 346Q284 346 289 352T305 381L462 731Q464 736 468 739T478 743H488Q499 743 503 737T502 716L344 367ZM372 833Q372 825 367 820T353 814H347Q339 814 334 819T328 833V907Q328 915 333 920T347 926H353Q361 926 366 921T372 907V833ZM222 833Q222 825 217 820T203 814H197Q189 814 184 819T178 833V907Q178 915 183 920T197 926H203Q211 926 216 921T222 907V833Z"  />
<glyph unicode="&#x17D;" horiz-adv-x="595" d="M535 16Q535 8 529 4T514 0H122Q68 0 68 43Q68 51 70 60T79 79L458 689Q460 692 460 696Q460 702 452 702H90Q82 702 76 705T69 717V727Q69 735 75 739T90 743H452Q481 743 493 735Q510 725 510 703Q510 690 506 682T499 669L117 52Q115 48 115 45Q115 41 122 41H514Q522 41 528 38T535 26V16H535ZM444 947Q444 941 440 937L340 809Q333 801 329 798T317 794H277Q269 794 265 797T254 809L154 937Q150 941 150 947Q150 954 159 954H181Q189 954 192 950T203 937L297 824L391 937Q398 945 401 949T413 954H435Q444 954 444 947Z"  />
<glyph unicode="&#x17E;" horiz-adv-x="446" d="M406 16Q406 8 400 4T386 0H100Q68 0 54 11T40 41Q40 52 43 62T58 86L351 477Q355 482 355 487Q355 496 341 496H78Q70 496 64 499T58 511V521Q58 529 64 533T78 537H340Q366 537 382 528T398 494Q398 485 396 474T382 449L92 60Q87 52 87 48Q87 41 96 41H386Q394 41 400 38T406 26V16H406ZM370 771Q370 765 366 761L266 633Q259 625 255 622T243 618H203Q195 618 191 621T180 633L80 761Q76 765 76 771Q76 778 85 778H107Q115 778 118 774T129 761L223 648L317 761Q324 769 327 773T339 778H361Q370 778 370 771Z"  />
<glyph unicode="&#x192;" horiz-adv-x="580" d="M509 729L508 722Q507 709 485 709H435Q400 709 381 692T356 630L326 412H475Q491 412 491 397V395L490 386Q488 369 469 369H320L268 -6Q259 -71 226 -97T139 -124Q116 -124 107 -124T88 -121Q71 -118 71 -108V-105L72 -98Q73 -85 95 -85H145Q180 -85 199 -68T224 -6L276 369H147Q130 369 130 384V386L131 395Q132 403 138 407T153 412H282L312 630Q321 695 354 721T441 748Q464 748 473 748T492 745Q509 742 509 732V729Z"  />
<glyph unicode="&#x2C6;" horiz-adv-x="330" d="M312 625Q312 618 303 618H281Q273 618 270 622T259 635L165 748L71 635Q64 627 61 623T49 618H27Q18 618 18 625Q18 631 22 635L122 763Q129 771 133 774T145 778H185Q193 778 197 775T208 763L308 635Q312 631 312 625Z"  />
<glyph unicode="&#x2DC;" horiz-adv-x="491" d="M399 719Q399 673 378 651T321 628Q281 628 254 654L206 701Q194 713 184 721T158 729Q140 729 129 719T117 676V650Q117 642 116 638T107 634H90Q79 634 79 650V676Q79 722 100 744T158 767Q197 767 224 741L272 694Q284 682 296 674T321 666Q339 666 350 676T361 719V745Q361 753 362 757T371 761H388Q399 761 399 745V719H399Z"  />
<glyph unicode="&#x2013;" horiz-adv-x="360" d="M375 273Q375 257 356 257H4Q-15 257 -15 273V281Q-15 289 -10 294T4 299H356Q364 299 369 294T375 281V273H375Z"  />
<glyph unicode="&#x2014;" horiz-adv-x="703" d="M718 273Q718 257 699 257H4Q-15 257 -15 273V281Q-15 289 -10 294T4 299H699Q707 299 712 294T718 281V273H718Z"  />
<glyph unicode="&#x2018;" horiz-adv-x="170" d="M131 732Q131 730 131 728T130 723L89 551Q85 532 69 532H50Q39 532 39 543Q39 548 40 551L88 723Q93 742 107 742H122Q131 742 131 732Z"  />
<glyph unicode="&#x2019;" horiz-adv-x="170" d="M131 732Q131 727 130 724L82 552Q77 533 63 533H48Q39 533 39 543Q39 545 39 547T40 552L81 724Q85 743 101 743H120Q131 743 131 732Z"  />
<glyph unicode="&#x201A;" horiz-adv-x="170" d="M131 95Q131 90 130 87L82 -85Q77 -104 63 -104H48Q39 -104 39 -94Q39 -92 39 -90T40 -85L81 87Q85 106 101 106H120Q131 106 131 95Z"  />
<glyph unicode="&#x201C;" horiz-adv-x="295" d="M256 733Q256 731 256 729T255 724L214 552Q210 533 194 533H175Q164 533 164 544Q164 549 165 552L213 724Q218 743 232 743H247Q256 743 256 733ZM131 733Q131 731 131 729T130 724L89 552Q85 533 69 533H50Q39 533 39 544Q39 549 40 552L88 724Q93 743 107 743H122Q131 743 131 733Z"  />
<glyph unicode="&#x201D;" horiz-adv-x="295" d="M256 732Q256 727 255 724L207 552Q202 533 188 533H173Q164 533 164 543Q164 545 164 547T165 552L206 724Q210 743 226 743H245Q256 743 256 732ZM131 732Q131 727 130 724L82 552Q77 533 63 533H48Q39 533 39 543Q39 545 39 547T40 552L81 724Q85 743 101 743H120Q131 743 131 732Z"  />
<glyph unicode="&#x201E;" horiz-adv-x="295" d="M256 95Q256 90 255 87L207 -85Q202 -104 188 -104H173Q164 -104 164 -94Q164 -92 164 -90T165 -85L206 87Q210 106 226 106H245Q256 106 256 95ZM131 95Q131 90 130 87L82 -85Q77 -104 63 -104H48Q39 -104 39 -94Q39 -92 39 -90T40 -85L81 87Q85 106 101 106H120Q131 106 131 95Z"  />
<glyph unicode="&#x2020;" horiz-adv-x="380" d="M340 512Q340 496 321 496H202V14Q202 6 198 0T186 -6H174Q166 -6 162 0T158 14V496H59Q40 496 40 512V522Q40 537 59 537H158V724Q158 732 162 737T175 743H186Q194 743 198 738T202 724V537H321Q340 537 340 522V512H340Z"  />
<glyph unicode="&#x2021;" horiz-adv-x="380" d="M340 302Q340 286 321 286H202V14Q202 6 198 0T186 -6H174Q166 -6 162 0T158 14V286H59Q40 286 40 302V312Q40 327 59 327H158V496H59Q40 496 40 512V522Q40 537 59 537H158V742Q158 750 162 755T175 761H186Q194 761 198 756T202 742V537H321Q340 537 340 522V512Q340 496 321 496H202V327H321Q340 327 340 312V302H340Z"  />
<glyph unicode="&#x2022;" horiz-adv-x="418" d="M363 367Q363 335 351 307T318 258T269 225T209 213Q177 213 149 225T100 258T67 307T55 367Q55 399 67 427T100 476T149 509T209 521Q241 521 269 509T318 476T351 427T363 367Z"  />
<glyph unicode="&#x2026;" horiz-adv-x="508" d="M446 13Q446 5 441 0T427 -6H421Q413 -6 408 -1T402 13V87Q402 95 407 100T421 106H427Q435 106 440 101T446 87V13ZM276 13Q276 5 271 0T257 -6H251Q243 -6 238 -1T232 13V87Q232 95 237 100T251 106H257Q265 106 270 101T276 87V13ZM106 13Q106 5 101 0T87 -6H81Q73 -6 68 -1T62 13V87Q62 95 67 100T81 106H87Q95 106 100 101T106 87V13Z"  />
<glyph unicode="&#x2030;" horiz-adv-x="1087" d="M1027 150Q1027 71 994 33T901 -6Q842 -6 808 32T774 150V254Q774 333 808 371T901 409Q960 409 993 371T1027 254V150ZM697 150Q697 71 664 33T571 -6Q512 -6 478 32T444 150V254Q444 333 478 371T571 409Q630 409 663 371T697 254V150ZM617 738Q617 733 611 724L191 13Q185 2 182 -2T170 -6H143Q136 -6 136 -1Q136 4 142 13L562 724Q568 735 571 739T583 743H609Q617 743 617 738ZM313 489Q313 410 280 372T187 333Q128 333 94 371T60 489V593Q60 672 94 710T187 748Q246 748 279 710T313 593V489ZM988 254Q988 315 966 343T901 371Q859 371 836 343T813 254V150Q813 89 836 61T901 33Q943 33 965 61T988 150V254ZM658 254Q658 315 636 343T571 371Q529 371 506 343T483 254V150Q483 89 506 61T571 33Q613 33 635 61T658 150V254ZM274 593Q274 654 252 682T187 710Q145 710 122 682T99 593V489Q99 428 122 400T187 372Q229 372 251 400T274 489V593Z"  />
<glyph unicode="&#x2039;" horiz-adv-x="305" d="M252 92Q252 86 247 81L240 74Q236 70 230 70Q223 70 214 77L36 240Q22 252 22 269Q22 284 36 298L214 461Q223 468 230 468Q236 468 240 464L247 457Q252 452 252 446Q252 437 244 431L67 269L244 107Q252 101 252 92Z"  />
<glyph unicode="&#x203A;" horiz-adv-x="305" d="M283 269Q283 252 269 240L91 77Q82 70 75 70Q69 70 65 74L58 81Q53 86 53 92Q53 101 61 107L238 269L61 431Q53 437 53 446Q53 452 58 457L65 464Q69 468 75 468Q82 468 91 461L269 298Q283 284 283 269Z"  />
<glyph unicode="&#x20AC;" horiz-adv-x="580" d="M521 21Q521 13 515 9T502 4Q492 3 482 1T455 -2T416 -5T359 -6Q314 -6 268 8T184 55T120 142T92 279H48Q30 279 30 295V304Q30 312 36 316T50 320H92V427H48Q30 427 30 443V452Q30 460 36 464T50 468H92Q96 548 121 602T185 688T268 734T359 748Q393 748 416 747T455 745T481 741T502 738Q509 737 515 733T521 721V709Q521 701 518 699T508 697H502Q475 700 441 703T359 706Q319 706 281 694T211 653T160 579T136 468H465Q473 468 478 465T483 455V452L481 443Q478 427 461 427H136V320H433Q441 320 446 317T451 307V304L449 295Q446 279 429 279H136Q139 213 159 167T210 91T280 49T359 36Q406 36 440 39T502 45H508Q514 45 517 43T521 33V21H521Z"  />
<glyph unicode="&#x2122;" horiz-adv-x="766" d="M721 344Q721 334 711 334H693Q684 334 684 344V599Q684 632 681 653T664 687T625 704T556 709V344Q556 334 547 334H528Q518 334 518 344V709Q479 709 447 707T390 701V344Q390 334 381 334H363Q353 334 353 344V724Q353 732 361 734Q391 738 440 741T538 745Q586 745 621 741T678 721T710 677T721 599V344ZM314 721Q314 713 308 710T296 706H189V351Q189 345 185 340T172 334H167Q159 334 155 339T151 351V706H42Q36 706 31 709T25 721V726Q25 734 30 738T42 742H296Q303 742 308 738T314 726V721Z"  />

</font>
</defs>
</svg>
