<?xml  version="1.0" encoding="UTF-8"?>
<!DOCTYPE svg PUBLIC "-//W3C//DTD SVG 1.0//EN" "http://www.w3.org/TR/2001/REC-SVG-20010904/DTD/svg10.dtd" >
<svg xmlns="http://www.w3.org/2000/svg" >
<metadata>
<version>1.0</version>
<id><![CDATA[Neo Sans W01 Ultra Italic]]></id>
<vendor>Monotype Imaging Inc.</vendor>
<credits>
<name>Fonts.com WebFonts</name>
<URL>http://webfonts.fonts.com</URL>
<role>Home of the Web fonts</role>
</credits>
<license>
<URL>http://webfonts.fonts.com/Legal</URL>
</license>
<copyright><![CDATA[Copyright 2004 Monotype Imaging Inc. All Rights Reserved. Neo Sans is designed by Sebastian Lester.]]></copyright>
<trademark><![CDATA[Neo Sans is a trademark of Monotype Imaging Inc. and may be registered in certain jurisdictions.]]></trademark>
<licensee>
<name></name>
</licensee>
</metadata>
<defs >
<font horiz-adv-x="592" id="f7c5d9fb-480a-493c-8cc1-8b15bc817bb8">
<font-face font-family="" panose-1="2 11 11 4 3 5 4 9 2 4" ascent="1037" descent="-217" units-per-em="1000" alphabetic="0">
</font-face>
<missing-glyph horiz-adv-x="0" />

<glyph unicode="&#xA;" />
<glyph unicode="&#xD;" horiz-adv-x="0" />
<glyph unicode=" " horiz-adv-x="230" />
<glyph unicode="!" horiz-adv-x="309" d="M404 763Q404 761 404 761T403 758L288 276Q286 267 280 261T264 254H137Q129 254 124 259T119 273V276L174 758Q175 767 182 773T199 779H386Q394 779 399 775T404 763ZM292 172L266 20Q264 12 257 6T242 0H67Q51 0 51 16V20L77 172Q79 180 86 186T101 192H276Q292 192 292 176V172Z"  />
<glyph unicode="&quot;" horiz-adv-x="547" d="M659 770Q659 766 656 760L525 518Q520 508 516 504T503 499H358Q350 499 350 506Q350 512 353 518L457 760Q465 779 480 779H649Q659 779 659 770ZM402 770Q402 766 399 760L268 518Q263 508 259 504T246 499H101Q93 499 93 506Q93 512 96 518L200 760Q208 779 223 779H392Q402 779 402 770Z"  />
<glyph unicode="#" horiz-adv-x="715" d="M786 556Q786 555 786 554T785 552L757 451Q755 443 749 439T734 435H662L627 306H700Q716 306 716 293Q716 292 716 291T715 289L686 188Q684 180 678 176T663 172H591L551 19Q549 11 544 6T530 0H381Q367 0 367 14Q367 15 367 16T368 19L408 172H328L288 19Q286 11 281 6T267 0H117Q103 0 103 14Q103 16 103 16T104 19L144 172H75Q59 172 59 184Q59 185 59 186T60 188L89 289Q91 297 97 301T112 306H180L215 435H146Q130 435 130 447Q130 448 130 449T131 451L159 552Q161 560 167 564T182 569H249L291 724Q293 732 299 737T313 743H463Q476 743 476 729Q476 728 476 727T475 724L433 569H513L555 724Q557 732 563 737T577 743H726Q739 743 739 730Q739 726 738 724L696 569H770Q786 569 786 556ZM399 435L364 306H444L479 435H399Z"  />
<glyph unicode="$" horiz-adv-x="670" d="M718 705L692 556Q690 548 685 542T671 536H670H669Q649 538 620 540T557 545T490 549T428 551Q419 551 412 547T404 532Q404 527 410 521T436 503L564 428Q615 398 637 355T660 265Q660 247 657 229Q641 139 584 81T417 -1L399 -102Q397 -110 390 -116T375 -122H227Q211 -122 211 -106V-103V-102L228 -5Q194 -1 166 5T113 20Q107 22 101 26T95 37V40L121 189Q123 197 129 203T144 209H146Q161 207 187 205T242 199T302 194T358 192Q375 192 387 200T400 227Q400 233 396 239T378 254L243 341Q192 374 175 420T157 511Q157 533 160 550Q167 589 180 620T217 676T275 717T360 744L376 835Q378 843 384 849T399 855H547Q564 855 564 838V835L549 749Q597 745 638 739T702 725Q718 720 718 708V706V705Z"  />
<glyph unicode="%" horiz-adv-x="896" d="M906 282Q906 257 902 234L892 174Q875 75 827 35T702 -6Q636 -6 604 30T572 128Q572 139 573 150T576 174L586 234Q594 285 610 319T651 375T706 405T776 414Q842 414 874 380T906 282ZM876 734Q876 729 871 722L334 22Q326 11 320 6T305 0H163Q152 0 152 11Q152 17 156 22L693 722Q702 733 708 738T724 743H866Q876 743 876 734ZM455 616Q455 591 451 568L441 508Q424 409 376 369T251 328Q185 328 153 364T121 462Q121 473 122 484T125 508L135 568Q143 619 159 653T200 709T255 739T325 748Q391 748 423 714T455 616ZM775 275Q775 293 770 298T756 303Q750 303 744 301T733 292T724 271T716 234L706 174Q704 160 703 150T702 132Q702 114 707 109T721 104Q727 104 733 106T744 116T753 137T761 174L771 234Q773 248 774 257T775 275ZM324 609Q324 627 319 632T305 637Q299 637 293 635T282 626T273 605T265 568L255 508Q253 494 252 484T251 466Q251 448 256 443T270 438Q276 438 282 440T293 450T302 471T310 508L320 568Q322 582 323 591T324 609Z"  />
<glyph unicode="&amp;" horiz-adv-x="761" d="M768 358Q757 295 734 242T675 143L764 29Q768 24 768 17Q768 10 763 5T751 0H557Q550 0 548 2T541 9L527 27Q444 -10 346 -10Q285 -10 235 1T148 35T92 92T72 173Q72 218 82 251T114 312T166 361T238 405L232 413Q200 455 190 486T179 548Q179 609 203 648T268 711T357 744T458 753Q519 753 562 740T632 704T671 653T684 594Q684 553 674 522T644 466T597 420T535 380L504 362L575 271Q597 311 605 358Q607 366 612 372T629 378H752Q768 378 768 361V358ZM479 572Q479 604 436 604Q405 604 392 591T379 548Q379 523 397 499L402 492L428 506Q453 520 466 532T479 572ZM342 270L339 268Q316 253 307 234T297 190Q297 171 312 157T363 143Q381 143 398 145T431 153L342 270Z"  />
<glyph unicode="&apos;" horiz-adv-x="240" d="M402 770Q402 766 399 760L268 518Q263 508 259 504T246 499H101Q93 499 93 506Q93 512 96 518L200 760Q208 779 223 779H392Q402 779 402 770Z"  />
<glyph unicode="(" horiz-adv-x="402" d="M506 735Q506 728 498 717Q471 679 443 634T390 534T345 418T314 283L311 264Q304 223 302 184T299 105Q299 24 310 -46T340 -169Q342 -173 342 -181Q342 -195 329 -195H178Q154 -195 146 -181Q77 -52 77 121Q77 155 79 191T87 264L90 283Q102 356 120 418T165 534T224 636T297 729Q304 737 313 740T333 743H496Q506 743 506 735Z"  />
<glyph unicode=")" horiz-adv-x="402" d="M423 421Q423 388 420 353T412 283L409 264Q397 191 379 129T336 13T279 -88T207 -181Q200 -189 191 -192T171 -195H3Q-7 -195 -7 -187Q-7 -177 0 -169Q27 -131 55 -86T109 13T154 129T185 264L188 283Q195 327 198 366T201 443Q201 528 188 595T154 717Q152 725 152 729Q152 743 166 743H328Q352 743 360 729Q386 681 404 600T423 421Z"  />
<glyph unicode="*" horiz-adv-x="480" d="M561 549Q561 537 545 532L438 502L506 412Q512 404 512 397Q512 388 505 384L430 330Q425 327 420 327Q410 327 403 337L340 431L277 337Q270 327 260 327Q254 327 250 330L175 384Q168 388 168 397Q168 404 174 412L242 502L136 532Q119 537 119 550Q119 553 120 555L149 644Q153 655 164 655Q166 655 174 653L280 616L277 727V728Q277 737 281 743T293 749H387Q396 749 399 743T403 728V727L401 616L506 653Q514 655 516 655Q527 655 531 644L560 555Q561 553 561 549Z"  />
<glyph unicode="+" horiz-adv-x="640" d="M639 326Q639 318 633 314T619 310H477V169Q477 161 473 155T461 149H331Q323 149 319 155T315 169V310H174Q166 310 160 314T154 326V456Q154 464 160 468T174 472H315V614Q315 622 319 628T331 634H461Q469 634 473 628T477 614V472H619Q627 472 633 468T639 456V326H639Z"  />
<glyph unicode="&#x2c;" horiz-adv-x="296" d="M297 180Q297 176 294 172L138 -80Q133 -88 128 -94T114 -100H-13Q-20 -100 -25 -96T-30 -86Q-30 -82 -29 -80L85 172Q89 180 95 186T110 192H283Q297 192 297 180Z"  />
<glyph unicode="-" horiz-adv-x="262" d="M310 356L289 238Q287 230 280 224T265 218H73Q57 218 57 234V238L78 356Q80 364 86 370T101 376H293Q310 376 310 359V356Z"  />
<glyph unicode="." horiz-adv-x="296" d="M286 172L260 20Q258 12 251 6T235 0H61Q44 0 44 17V20L70 172Q72 180 79 186T95 192H269Q286 192 286 175V172Z"  />
<glyph unicode="/" horiz-adv-x="445" d="M562 728Q562 724 561 722L238 22Q234 14 228 7T213 0H33Q25 0 19 5T13 17Q13 20 14 22L337 722Q341 730 348 736T364 743H544Q552 743 557 739T562 728Z"  />
<glyph unicode="0" horiz-adv-x="670" d="M708 525Q708 480 699 426L680 317Q651 150 563 70T335 -10Q218 -10 158 46T97 218Q97 263 106 317L125 426Q154 592 242 672T470 753Q587 753 647 697T708 525ZM470 501Q470 534 460 543T434 552Q423 552 413 548T394 531T377 493T362 426L343 317Q338 293 337 275T335 242Q335 209 345 200T371 191Q382 191 392 195T411 212T428 250T443 317L462 426Q467 450 468 468T470 501Z"  />
<glyph unicode="1" horiz-adv-x="670" d="M262 199L316 510L190 471Q181 468 177 468Q167 468 169 480L199 649Q202 663 216 669L410 738Q416 740 421 741T433 743H573Q581 743 586 737T589 723L497 199H618Q626 199 631 193T635 179L607 20Q605 12 598 6T583 0H106Q98 0 92 6T88 20L116 179Q118 187 125 193T141 199H262Z"  />
<glyph unicode="2" horiz-adv-x="670" d="M715 588Q715 578 714 569T711 548Q704 507 687 476T643 417T580 367T499 319Q439 287 394 259T329 199H616Q624 199 629 195T634 182V179L606 20Q604 12 597 6T581 0H95Q78 0 78 17V20L97 130Q107 188 130 233T185 314T255 378T333 431Q379 459 406 474T447 499T467 516T474 536Q474 538 474 540T475 544Q475 555 460 560T396 566Q347 566 298 561T201 556H200Q185 556 185 572V575V576L205 691Q207 699 213 703T228 711Q279 729 341 741T473 753Q539 753 585 741T660 706T702 653T715 588Z"  />
<glyph unicode="3" horiz-adv-x="670" d="M711 587Q711 510 681 463T584 377Q620 351 635 317T651 247Q651 173 625 124T554 45T451 3T329 -10Q297 -10 263 -7T197 3T140 16T100 31Q95 34 89 37T83 48V51L103 167Q105 175 112 181T127 187H128Q148 187 174 186T230 182T288 179T342 177Q377 177 401 192T425 246Q425 264 414 276T375 289H202Q194 289 190 294T185 306V309L208 438Q210 446 217 452T232 458H393Q426 458 450 475T474 527Q474 547 459 556T411 566Q386 566 358 565T301 561T246 558T200 556H199Q183 556 183 572V575V576L203 692Q205 700 212 704T228 712Q245 719 272 726T331 740T397 749T464 753Q585 753 648 713T711 587Z"  />
<glyph unicode="4" horiz-adv-x="670" d="M688 723L617 319H667Q684 319 684 302V299L660 162Q658 154 651 148T636 142H586L565 20Q563 12 556 6T541 0H346Q330 0 330 16V20L351 142H83Q67 142 67 158V162L89 292Q92 306 104 320L510 738Q515 743 524 743H533H672Q688 743 688 727V723ZM265 319H393L422 481L265 319Z"  />
<glyph unicode="5" horiz-adv-x="670" d="M711 723L686 576Q684 568 679 562T662 556H390L369 475H414Q483 475 528 460T601 419T639 361T650 295Q650 211 626 153T556 59T446 7T302 -10Q246 -10 195 0T101 27Q95 29 89 33T83 44V47L104 167Q108 187 126 187H129Q150 185 174 184T219 181T259 178T289 177Q314 177 335 179T373 190T397 214T406 257Q406 277 391 287T334 298H150Q131 298 131 317Q131 321 132 323L232 723Q234 731 241 737T256 743H695Q711 743 711 727V724V723Z"  />
<glyph unicode="6" horiz-adv-x="670" d="M705 703Q705 701 705 700T704 696L682 572Q679 552 660 552H655Q638 554 615 556T568 561T518 564T471 566Q447 566 431 563T404 551T387 526T374 482L373 477Q378 478 388 479T409 481T431 483T448 484Q496 484 536 475T605 444T651 390T667 310Q667 155 583 73T338 -10Q276 -10 231 7T157 54T113 123T99 205Q99 231 103 254L143 482Q158 566 191 619T268 701T365 742T471 753Q543 753 595 744T687 722Q705 716 705 703ZM435 288Q435 312 425 321T396 330Q380 330 368 329T347 327L334 254Q330 231 330 212Q330 183 340 173T367 163Q387 163 400 173T421 200T432 240T435 288Z"  />
<glyph unicode="7" horiz-adv-x="670" d="M733 723L714 612Q712 598 706 587T694 568L349 20Q344 12 339 6T325 0H112Q98 0 98 7Q98 12 103 20L447 556H217Q200 556 200 573V576L225 723Q227 731 234 737T250 743H717Q733 743 733 727V723Z"  />
<glyph unicode="8" horiz-adv-x="670" d="M723 573Q723 513 698 465T623 384Q647 361 660 327T674 259Q674 188 647 138T575 54T470 6T347 -10H335Q269 -10 222 7T144 51T98 112T83 182Q83 249 113 299T193 384Q167 409 156 441T145 501Q145 574 170 622T240 700T342 741T465 753H477Q544 753 590 738T666 698T709 640T723 573ZM494 533Q494 550 485 566T449 582H437Q402 582 386 560T369 503Q369 480 382 470T415 459H427Q462 459 478 480T494 533ZM445 257Q445 303 399 303H387Q368 303 355 295T332 272T319 241T315 208Q315 186 327 173T362 160H374Q393 160 407 169T429 192T441 223T445 257Z"  />
<glyph unicode="9" horiz-adv-x="670" d="M700 538Q700 512 696 489L656 261Q641 177 608 124T531 42T434 1T328 -10Q256 -10 204 -1T112 21Q94 27 94 40Q94 42 94 43T95 47L117 171Q120 191 139 191H144Q161 189 184 187T231 182T281 179T328 177Q352 177 368 180T395 192T412 217T425 261L426 266Q421 265 411 264T390 262T368 260T351 259Q303 259 263 268T194 299T148 353T132 433Q132 588 216 670T461 753Q523 753 568 736T642 689T686 620T700 538ZM469 531Q469 560 459 570T432 580Q412 580 399 570T378 543T367 503T364 455Q364 431 374 422T403 413Q419 413 431 414T452 416L465 489Q469 512 469 531Z"  />
<glyph unicode=":" horiz-adv-x="296" d="M350 531L323 379Q321 371 314 365T298 359H124Q107 359 107 376V379L134 531Q136 539 143 545T158 551H332Q340 551 345 547T350 534V531ZM286 172L260 20Q258 12 251 6T235 0H61Q44 0 44 17V20L70 172Q72 180 79 186T95 192H269Q286 192 286 175V172Z"  />
<glyph unicode=";" horiz-adv-x="296" d="M353 531L326 379Q324 371 317 365T302 359H128Q120 359 115 363T110 376V379L137 531Q139 539 146 545T162 551H336Q353 551 353 534V531ZM285 180Q285 175 283 172L126 -80Q121 -88 116 -94T103 -100H-24Q-31 -100 -36 -96T-42 -85Q-42 -82 -41 -80L74 172Q78 180 84 186T98 192H271Q285 192 285 180Z"  />
<glyph unicode="&lt;" horiz-adv-x="640" d="M625 145Q625 134 612 134H415Q398 134 387 144L151 362Q136 377 136 391Q136 405 151 420L387 638Q398 648 415 648H612Q625 648 625 637Q625 631 618 625L362 391L618 157Q625 151 625 145Z"  />
<glyph unicode="=" horiz-adv-x="640" d="M635 468Q635 460 629 456T615 452H170Q162 452 156 456T150 468V598Q150 606 156 610T170 614H615Q623 614 629 610T635 598V468ZM635 184Q635 176 629 172T615 168H170Q162 168 156 172T150 184V314Q150 322 156 326T170 330H615Q623 330 629 326T635 314V184Z"  />
<glyph unicode="&gt;" horiz-adv-x="640" d="M648 391Q648 377 633 362L397 144Q386 134 369 134H172Q159 134 159 145Q159 151 166 157L422 391L166 625Q159 631 159 637Q159 648 172 648H369Q386 648 397 638L633 420Q648 405 648 391Z"  />
<glyph unicode="?" horiz-adv-x="500" d="M581 644Q581 623 577 604Q570 566 550 533T506 470L339 274Q330 263 322 259T304 254H170Q153 254 153 271V274L160 314Q164 339 169 356T181 388T199 418T227 456L290 538Q295 545 302 555T309 575Q309 580 305 583T288 586H283H280L151 575H149Q142 575 139 580T135 591V595L160 739Q162 747 169 751T184 759Q202 765 225 770T273 780T322 786T366 788Q477 788 529 751T581 644ZM340 172L314 20Q312 12 305 6T289 0H115Q107 0 103 5T98 17V19V20L124 172Q126 180 133 186T149 192H323Q331 192 335 187T340 175V173V172Z"  />
<glyph unicode="@" horiz-adv-x="792" d="M802 391Q802 296 771 229T684 120T555 57T394 37Q358 37 325 44T266 68T226 110T211 171Q211 180 212 188T215 206L237 321Q247 373 266 407T313 462T381 490T470 499Q503 499 537 495T606 483Q618 481 626 473T634 453Q634 449 633 446L575 159Q611 168 635 192T675 250T696 320T702 391Q702 433 691 468T654 528T590 567T493 581Q361 581 285 525T185 343L152 174Q149 157 147 139T145 106Q145 65 157 37T196 -8T265 -33T366 -41Q408 -41 451 -38T532 -31H533Q538 -31 539 -34T540 -40V-43L535 -94Q533 -104 525 -105Q484 -110 446 -114T366 -119Q296 -119 237 -107T135 -69T68 1T44 106Q44 140 51 174L87 350Q104 434 140 494T228 593T349 650T497 668Q579 668 636 645T731 583T785 494T802 391ZM468 376Q459 378 452 378T439 378Q426 378 418 376T403 367T393 348T385 316L362 208Q359 197 359 184Q359 173 363 167T375 157T392 153T411 152H426L468 376Z"  />
<glyph unicode="A" horiz-adv-x="716" d="M699 19Q699 0 680 0H473Q465 0 461 6T456 20L457 132H305L268 20Q265 12 258 6T243 0H34Q21 0 21 11Q21 14 23 20L248 624Q262 662 284 687T338 726T407 747T491 753Q537 753 573 747T633 727T671 687T686 624L699 20V19ZM464 554Q464 562 457 562Q451 562 450 559T446 549L368 316H460L464 549V554Z"  />
<glyph unicode="B" horiz-adv-x="704" d="M759 563Q759 537 753 510T734 458T702 413T658 381Q681 362 694 333T708 262Q708 204 691 161T644 88T577 39T495 9T408 -6T324 -10Q310 -10 285 -10T231 -8T174 -4T125 2Q94 8 81 18T67 55Q67 62 68 70T71 89L170 655Q174 678 180 693T196 717T220 732T256 741Q275 744 304 746T363 749T419 752T459 753Q526 753 581 744T676 712T737 654T759 563ZM526 518Q526 540 513 551T466 563H384L365 451H447Q494 451 510 471T526 518ZM481 250Q481 274 468 286T420 298H338L317 180H399Q445 180 463 202T481 250Z"  />
<glyph unicode="C" horiz-adv-x="548" d="M611 554Q608 533 588 536Q564 539 527 542T457 545Q442 545 427 542T398 525T373 485T352 412L337 331Q330 293 330 266Q330 242 335 229T350 208T371 200T396 198Q411 198 429 199T465 201T501 204T530 207Q543 209 545 204T546 189L518 31Q516 21 512 18T494 9Q468 1 435 -4T359 -10Q222 -10 156 57T89 240Q89 283 98 331L113 412Q131 507 162 572T239 678T346 735T487 753Q529 753 565 748T621 734Q629 731 635 727T639 712L611 554Z"  />
<glyph unicode="D" horiz-adv-x="706" d="M748 502Q748 482 747 461T740 417L723 326Q705 231 672 167T590 63T477 7T335 -10Q254 -10 196 -5T92 9Q78 12 71 18T63 38Q63 41 63 44T64 52L177 691Q181 714 190 722T219 734Q267 742 327 747T468 753Q529 753 580 737T669 690T727 611T748 502ZM509 484Q509 524 491 537T432 551H388L325 192H369Q395 192 413 197T445 217T467 258T484 326L501 417Q505 437 507 453T509 484Z"  />
<glyph unicode="E" horiz-adv-x="595" d="M651 742Q670 740 667 722L641 571Q639 563 635 557T617 551H416Q397 551 390 545T378 519L368 465H602Q611 465 615 460T618 445L594 304Q592 296 585 290T570 284H336L327 235Q325 223 325 219T324 211Q324 192 353 192H554Q573 192 570 172L544 21Q542 13 538 8T520 1Q488 -3 436 -6T317 -10Q270 -10 228 -1T154 28T103 83T84 169Q84 182 85 195T89 224L142 519Q157 603 189 650T264 720T356 748T452 753Q518 753 569 750T651 742Z"  />
<glyph unicode="F" horiz-adv-x="590" d="M651 742Q670 741 667 722L641 571Q639 563 635 557T617 551H416Q397 551 390 545T378 519L368 465H602Q621 465 618 445L594 304Q592 296 588 290T570 284H336L290 20Q288 12 281 6T266 0H71Q63 0 58 5T54 20L142 519Q156 598 186 644T258 715T349 746T452 753Q518 753 569 750T651 742Z"  />
<glyph unicode="G" horiz-adv-x="673" d="M716 553Q714 542 711 538T695 535Q684 536 665 538T621 541T570 544T520 545Q479 545 451 540T403 521T371 481T352 414L337 327Q331 291 331 268Q331 241 337 226T352 203T372 194T392 192Q399 192 408 192T425 195L457 375Q459 383 463 389T481 395H668Q687 395 684 375L625 40Q623 27 619 24T600 18Q552 8 490 -1T356 -10Q314 -10 267 1T181 40T116 118T90 243Q90 263 91 284T98 329L113 414Q133 529 175 596T270 698T384 743T501 753Q582 753 637 743T724 722Q738 718 740 714T741 700L716 553Z"  />
<glyph unicode="H" horiz-adv-x="753" d="M805 743Q828 743 825 723L702 20Q700 12 696 6T678 0H483Q475 0 470 6T466 20L510 275H339L295 20Q293 12 289 6T271 0H76Q68 0 63 6T59 20L182 723Q184 731 189 737T207 743H402Q422 743 418 723L375 477H546L589 723Q591 731 596 737T614 743H805Z"  />
<glyph unicode="I" horiz-adv-x="356" d="M407 743Q426 743 423 723L300 20Q298 12 294 6T276 0H81Q70 0 66 6T64 20L187 723Q189 731 194 737T212 743H407H407Z"  />
<glyph unicode="J" horiz-adv-x="356" d="M407 743Q419 743 422 737T423 723L297 5Q286 -54 266 -94T216 -159T149 -195T70 -206Q48 -206 16 -205T-40 -200Q-48 -198 -53 -194T-57 -180L-33 -46Q-31 -38 -27 -32T-10 -26H33Q47 -26 52 -20T61 5L187 723Q189 731 194 737T212 743H407H407Z"  />
<glyph unicode="K" horiz-adv-x="744" d="M849 734Q849 728 845 723L587 370L723 20Q726 13 723 7T712 0H478Q467 0 463 6T457 20L350 334L295 20Q293 12 289 6T271 0H76Q68 0 63 4T59 20L182 723Q184 731 189 737T207 743H402Q421 743 418 723L362 404L576 723Q581 731 588 737T611 743H839Q849 743 849 734Z"  />
<glyph unicode="L" horiz-adv-x="520" d="M509 192Q528 192 525 172L499 21Q496 5 475 1Q444 -4 403 -7T322 -10Q280 -10 238 -3T163 23T110 77T89 166Q89 180 90 194T94 224L182 723Q184 731 188 737T207 743H402Q410 743 415 739T418 723L330 224Q329 221 329 218T329 212Q329 200 335 196T358 192H509H509Z"  />
<glyph unicode="M" horiz-adv-x="866" d="M902 743Q922 743 927 733T931 708L808 11Q806 3 801 2T790 0H599Q585 0 583 6T583 20L638 333Q640 342 633 342Q629 342 622 333L528 223Q512 204 498 204H440Q432 204 427 208T416 223L362 333Q357 342 353 342Q350 342 349 341T346 333L291 20Q289 12 286 6T273 0H80Q73 0 67 3T63 17L185 708Q187 722 199 732T226 743H357Q380 743 390 735T409 710L507 489Q512 478 517 478Q523 478 531 489L707 710Q720 727 734 735T771 743H902H902Z"  />
<glyph unicode="N" horiz-adv-x="763" d="M814 743Q825 743 828 737T830 723L709 35Q707 21 699 11T668 0H497Q486 0 480 6T469 22L352 297Q350 303 349 304T345 305H344Q338 305 337 296L289 20Q287 12 283 6T264 0H81Q73 0 68 4T64 20L185 708Q187 722 196 732T226 743H390Q404 743 411 735T423 715L542 439Q545 432 547 431T551 430Q553 430 554 431T557 439L607 723Q609 731 613 737T631 743H814H814Z"  />
<glyph unicode="O" horiz-adv-x="716" d="M757 499Q757 479 755 459T749 415L734 328Q716 226 679 161T590 57T479 5T356 -10Q302 -10 254 4T169 50T111 129T90 245Q90 265 92 285T98 328L113 415Q131 516 168 581T257 685T368 738T491 753Q545 753 593 739T678 694T736 615T757 499ZM516 474Q516 512 501 528T454 545Q412 545 388 516T352 415L337 328Q331 293 331 269Q331 231 346 215T393 198Q435 198 459 227T495 328L510 415Q516 449 516 474Z"  />
<glyph unicode="P" horiz-adv-x="697" d="M757 536Q757 516 754 492L753 485Q741 402 702 351T611 271T499 234T387 224Q372 224 360 224T327 226L291 20Q289 12 285 6T267 0H72Q67 0 61 4T57 16L170 656Q174 679 180 694T196 718T220 733T255 741Q274 744 301 746T359 749T419 752T476 753Q527 753 577 742T667 706T732 639T757 536ZM521 504Q521 532 501 544T446 556H385L361 421H422Q460 421 487 437T519 485L520 492Q521 496 521 504Z"  />
<glyph unicode="Q" horiz-adv-x="716" d="M757 499Q757 479 755 459T749 415L734 328Q720 250 695 194T635 98T558 36T470 2L468 -14Q466 -22 469 -24T477 -26H553Q564 -26 571 -28T576 -42L554 -165Q552 -173 544 -179T525 -189Q491 -198 460 -202T386 -206Q359 -206 333 -200T286 -179T254 -137T241 -71Q241 -63 243 -47T247 -14L250 6Q179 29 135 87T90 245Q90 265 92 285T98 328L113 415Q131 516 168 581T257 685T368 738T491 753Q545 753 593 739T678 694T736 615T757 499ZM516 474Q516 512 501 528T454 545Q412 545 388 516T352 415L337 328Q331 293 331 269Q331 231 346 215T393 198Q435 198 459 227T495 328L510 415Q516 449 516 474Z"  />
<glyph unicode="R" horiz-adv-x="731" d="M765 545Q765 508 756 470T726 397T676 334T606 290L698 29Q699 26 699 21Q699 0 678 0H468Q460 0 457 6T452 20L374 255H336L295 20Q293 12 289 6T271 0H76Q68 0 63 4T59 20L171 656Q175 679 181 694T197 718T221 733T256 741Q269 743 295 745T353 749T418 752T477 753Q614 753 689 703T765 545ZM525 505Q525 532 511 544T464 556H389L367 430H442Q491 430 508 453T525 505Z"  />
<glyph unicode="S" horiz-adv-x="624" d="M674 725Q682 723 687 719T690 705L664 556Q662 547 659 541T641 536Q621 538 592 540T529 545T462 549T400 551Q391 551 384 547T376 534Q376 527 382 521T408 503L536 428Q588 397 610 354T632 266Q632 194 604 142T528 56T420 6T294 -10Q229 -10 177 -2T85 20Q78 22 72 27T67 40L93 189Q95 198 99 204T118 209Q133 207 159 205T214 199T274 194T330 192Q347 192 359 199T372 222Q372 232 368 239T350 254L215 341Q190 357 174 377T147 419T133 464T128 508Q128 578 152 625T219 700T317 741T436 753Q468 753 503 751T571 744T631 735T674 725Z"  />
<glyph unicode="T" horiz-adv-x="602" d="M687 743Q698 743 702 737T704 723L678 571Q676 563 672 557T653 551H517L424 20Q422 12 418 6T400 0H205Q194 0 191 6T189 20L282 551H142Q122 551 126 571L152 723Q154 731 161 737T176 743H687H687Z"  />
<glyph unicode="U" horiz-adv-x="752" d="M802 743Q813 743 816 737T819 723L742 286Q727 198 697 141T621 50T514 3T377 -10Q327 -10 278 2T191 43T130 116T106 227Q106 259 112 297L187 723Q189 731 196 737T212 743H407Q418 743 421 737T423 723L346 286Q344 275 343 266T342 249Q342 214 360 202T410 190Q429 190 444 194T472 208T492 237T506 286L583 723Q585 731 590 737T607 743H802Z"  />
<glyph unicode="V" horiz-adv-x="726" d="M830 734Q830 729 828 723L603 119Q589 81 567 56T514 17T445 -4T361 -10Q315 -10 279 -4T218 16T180 56T165 119L152 723Q152 743 171 743H377Q388 743 391 737T394 723L386 194V192Q386 181 393 181Q398 181 400 184T404 194L582 723Q585 731 590 737T607 743H817Q830 743 830 734Z"  />
<glyph unicode="W" horiz-adv-x="945" d="M1026 743Q1038 743 1042 736T1044 718L836 63Q822 21 800 6T742 -10H639Q602 -10 588 3T568 55L531 283Q530 288 529 291T523 294Q519 294 513 283L396 55Q378 20 358 5T301 -10H198Q186 -10 174 -8T152 3T136 25T130 63L153 718Q154 733 162 738T179 743H363Q375 743 379 738T382 721L361 370Q360 358 366 358Q370 358 377 370L446 503Q457 524 469 532T508 541H618Q644 541 654 533T668 503L689 370Q690 367 690 363T695 358Q702 358 705 370L808 723Q813 743 830 743H1026H1026Z"  />
<glyph unicode="X" horiz-adv-x="740" d="M843 734Q843 728 839 723L575 360L716 20Q717 18 717 14Q717 9 713 5T703 0H474Q459 0 451 20L388 173L283 20Q278 13 271 7T256 0H29Q20 0 20 9Q20 15 24 20L294 400L160 723Q157 730 160 736T173 743H400Q412 743 417 737T425 723L485 578L579 723Q587 737 594 740T622 743H834Q843 743 843 734Z"  />
<glyph unicode="Y" horiz-adv-x="709" d="M824 732Q824 727 821 723L614 379Q591 340 569 318T523 287L476 20Q474 12 470 6T451 0H256Q237 0 240 20L287 287Q267 296 253 318T228 379L142 723Q139 736 144 739T158 743H363Q376 743 380 737T386 723L427 475Q428 469 432 469Q436 469 439 475L567 723Q571 731 578 737T602 743H812Q824 743 824 732Z"  />
<glyph unicode="Z" horiz-adv-x="629" d="M686 743Q706 743 702 723L678 583Q675 567 666 552T645 524L396 222Q390 214 390 209Q390 202 402 202H594Q606 202 609 196T611 182L583 20Q581 12 577 6T558 0H70Q54 0 54 16V20L76 150Q78 163 85 175T106 205L362 520Q369 528 369 534Q369 541 358 541H168Q156 541 153 547T152 561L180 723Q182 731 187 737T204 743H686H686Z"  />
<glyph unicode="[" horiz-adv-x="408" d="M506 726L482 588Q479 572 460 572H375L270 -23H355Q371 -23 371 -37V-40L347 -178Q344 -194 325 -194H33Q26 -194 23 -190T19 -179V-175L178 724Q180 732 185 737T198 743H490Q506 743 506 729V726Z"  />
<glyph unicode="\" horiz-adv-x="445" d="M433 21Q433 13 424 7T406 0H236Q227 0 224 7T219 22L142 722V723Q142 731 150 737T167 743H337Q346 743 350 737T356 722L433 22V21H433Z"  />
<glyph unicode="]" horiz-adv-x="408" d="M486 724L327 -175Q325 -183 320 -188T307 -194H15Q-1 -194 -1 -181V-178L23 -40Q26 -23 45 -23H130L235 572H150Q134 572 134 585V588L158 726Q161 743 180 743H472Q479 743 482 739T486 728V724Z"  />
<glyph unicode="^" horiz-adv-x="640" d="M700 576Q700 566 688 566H501Q487 566 481 569T468 579L406 643L344 579Q337 572 331 569T311 566H124Q112 566 112 576Q112 581 117 588L225 734Q233 745 240 749T263 753H549Q565 753 572 749T587 734L695 588Q700 581 700 576Z"  />
<glyph unicode="_" horiz-adv-x="580" d="M605 -46L593 -114Q591 -122 585 -126T570 -130H-35Q-52 -130 -52 -117V-114L-40 -46Q-38 -38 -32 -34T-17 -30H588Q605 -30 605 -43V-46Z"  />
<glyph unicode="`" horiz-adv-x="500" d="M443 644Q443 635 433 635H291Q280 635 277 637T268 645L159 764Q156 768 156 771Q156 779 168 779H345Q357 779 362 776T372 764L441 652Q443 649 443 644Z"  />
<glyph unicode="a" horiz-adv-x="642" d="M654 576Q671 573 680 566T687 541L596 20Q594 12 591 6T576 0H433Q419 0 415 6T413 20L417 48Q400 33 383 22T348 4T306 -6T254 -10Q173 -10 126 38T78 173Q78 198 79 212T83 241L99 334Q113 415 142 466T214 548T309 589T423 600Q480 600 538 593T654 576ZM442 413Q418 416 399 416Q367 416 349 400T322 334L304 237Q301 220 301 208Q301 185 311 179T340 172Q355 172 372 177T402 188L442 413Z"  />
<glyph unicode="b" horiz-adv-x="636" d="M665 391Q665 377 664 363T660 334L646 256Q621 118 538 54T324 -10Q246 -10 186 -2T92 14Q69 19 63 27T59 49L184 758Q186 767 191 773T210 779H389Q398 779 403 774T406 758L377 595Q388 597 403 598T432 600Q492 600 535 584T608 540T651 474T665 391ZM441 366Q441 389 431 402T393 416Q369 416 345 413L303 177Q317 175 327 175T357 174Q375 174 386 180T405 197T416 223T424 256L438 334Q441 350 441 366Z"  />
<glyph unicode="c" horiz-adv-x="475" d="M385 600Q429 600 466 594T523 583Q531 581 536 577T539 564L515 428Q513 420 506 414T491 407H490Q466 407 440 410T383 413Q352 413 338 393T315 328L303 262Q301 251 300 241T299 222Q299 199 308 188T341 177Q371 177 398 179T450 183Q464 184 467 178T469 162L445 26Q443 17 437 13T421 7Q390 0 356 -5T277 -10Q225 -10 187 5T124 49T87 114T75 196Q75 227 81 262L93 328Q118 467 189 533T385 600Z"  />
<glyph unicode="d" horiz-adv-x="636" d="M700 779Q709 779 715 775T720 758L595 49Q593 36 584 28T548 14Q511 7 449 -1T308 -10Q253 -10 210 6T137 51T91 119T75 206Q75 228 80 256L94 334Q119 476 196 538T405 600Q422 600 440 598T469 594L498 758Q500 767 504 773T521 779H700ZM437 413Q425 414 413 415T383 416Q352 416 338 397T316 334L302 256Q298 236 298 218Q298 195 308 185T341 174Q361 174 371 174T395 177L437 413Z"  />
<glyph unicode="e" horiz-adv-x="614" d="M641 387Q641 353 635 319L624 258Q622 249 615 243T599 237H297Q296 231 296 226T295 215Q295 191 312 182T372 173Q388 173 414 174T469 176T522 178T561 180Q573 181 577 177T580 162L561 57Q559 44 554 39T537 28Q516 20 488 13T429 1T364 -7T301 -10Q253 -10 212 3T140 42T92 107T74 198Q74 226 80 258L91 319Q105 397 134 450T205 537T301 585T419 600Q478 600 520 584T589 539T628 471T641 387ZM434 383Q434 406 424 419T387 432Q356 432 341 412T317 349H430Q432 359 433 367T434 383Z"  />
<glyph unicode="f" horiz-adv-x="427" d="M428 797Q448 797 477 794T528 786Q542 783 544 778T545 765L526 656Q524 647 520 641T501 635H466Q448 635 440 631T427 601L425 590H493Q504 590 508 586T510 569L489 448Q487 439 482 433T464 426H395L322 8Q311 -54 292 -92T245 -152T180 -180T97 -188Q77 -188 51 -185T3 -177Q-17 -173 -14 -156L5 -47Q7 -38 11 -32T30 -26H59Q77 -26 85 -22T98 8L171 426L107 435Q99 436 93 440T89 457L108 569Q110 578 115 584T134 590H200L202 603Q211 665 230 703T277 762T343 790T428 797Z"  />
<glyph unicode="g" horiz-adv-x="637" d="M416 600Q494 600 555 594T648 579Q674 572 679 567T682 547L587 5Q567 -107 491 -156T272 -206Q204 -206 152 -195T77 -173Q68 -169 65 -163T63 -144L80 -47Q82 -38 86 -32T103 -27Q119 -29 145 -31T199 -34T254 -37T301 -39Q335 -39 351 -30T372 5L376 27Q365 25 348 23T314 21Q254 21 210 37T138 81T95 147T81 231Q81 245 82 259T86 287L94 334Q106 404 134 454T205 536T300 584T416 600ZM444 413Q415 416 393 416Q370 416 357 410T335 393T323 367T316 334L308 287Q305 269 305 250Q305 231 314 218T358 205Q366 205 375 205T408 208L444 413Z"  />
<glyph unicode="h" horiz-adv-x="652" d="M672 425Q672 411 671 397T667 366L606 22Q604 13 600 7T581 0H401Q379 0 383 22L443 363Q444 368 444 372T445 381Q445 399 434 406T398 413Q384 413 372 412T345 407L277 22Q275 13 271 7T253 0H73Q64 0 58 4T54 22L184 759Q186 767 190 773T207 779H390Q398 779 403 775T407 759L376 582Q408 590 435 595T494 600Q584 600 628 553T672 425Z"  />
<glyph unicode="i" horiz-adv-x="329" d="M396 779Q405 779 411 776T416 758L398 656Q396 647 391 641T371 635H182Q168 635 165 641T163 656L181 758Q183 767 188 773T207 779H396ZM76 0Q67 0 61 6T57 22L153 569Q155 578 160 584T180 590H359Q373 590 376 584T377 569L281 22Q279 13 274 7T255 0H76Z"  />
<glyph unicode="j" horiz-adv-x="329" d="M182 635Q173 635 167 640T163 656L181 758Q183 767 188 773T207 779H396Q405 779 411 775T416 758L398 656Q396 647 391 641T371 635H182ZM359 590Q369 590 374 586T377 569L275 -11Q265 -69 245 -107T196 -168T134 -200T60 -210Q34 -210 9 -207T-45 -199Q-54 -197 -59 -193T-62 -177L-43 -69Q-41 -60 -37 -54T-18 -48H24Q38 -48 43 -37T51 -11L153 569Q155 578 160 584T180 590H359Z"  />
<glyph unicode="k" horiz-adv-x="669" d="M726 590Q740 590 740 580T735 564L529 300L644 26Q648 18 644 9T626 0H422Q413 0 406 3T394 22L317 259L276 22Q274 13 269 7T252 0H73Q50 0 54 22L184 758Q186 767 191 773T210 779H385Q396 779 402 775T406 758L334 346L486 569Q496 584 504 587T522 590H726Z"  />
<glyph unicode="l" horiz-adv-x="324" d="M390 779Q412 779 408 758L278 22Q276 13 272 7T253 0H73Q64 0 58 5T54 22L184 758Q186 767 191 773T210 779H390H390Z"  />
<glyph unicode="m" horiz-adv-x="929" d="M950 438Q950 421 949 403T943 364L883 22Q881 13 876 7T858 0H678Q668 0 663 5T660 22L720 364Q721 369 721 373T722 380Q722 397 714 402T690 407Q670 407 645 401Q643 390 643 384T640 364L580 22Q578 13 574 7T555 0H375Q363 0 359 7T357 22L417 364Q418 369 418 373T419 381Q419 397 411 402T388 407Q378 407 366 406T344 401L277 22Q275 13 271 7T253 0H73Q64 0 58 5T54 22L151 570Q153 578 156 584T174 590H339Q349 590 353 584T356 570L350 540Q397 577 438 588T522 600Q559 600 590 587T635 540Q673 572 716 586T802 600Q879 600 914 556T950 438Z"  />
<glyph unicode="n" horiz-adv-x="652" d="M674 438Q674 421 672 403T667 368L606 22Q604 13 600 7T581 0H401Q379 0 383 22L444 368Q445 373 445 377T445 386Q445 401 433 409T402 417Q374 417 344 402L277 22Q275 13 272 7T253 0H73Q64 0 58 5T54 22L151 570Q153 578 159 584T174 590H339Q351 590 354 584T356 570L351 542Q391 570 430 585T522 600Q568 600 597 587T644 551T667 499T674 438Z"  />
<glyph unicode="o" horiz-adv-x="620" d="M648 389Q648 372 646 355T641 318L633 272Q619 192 591 138T521 51T426 4T308 -10Q195 -10 136 46T77 204Q77 236 83 272L91 318Q104 396 132 450T202 537T298 585T416 600Q528 600 588 546T648 389ZM424 365Q424 394 414 405T383 416Q357 416 340 393T313 318L305 272Q303 258 302 247T300 225Q300 196 310 185T341 174Q354 174 364 178T383 194T399 224T411 272L419 318Q421 332 422 343T424 365Z"  />
<glyph unicode="p" horiz-adv-x="636" d="M665 389Q665 375 664 362T660 334L646 256Q622 122 544 56T325 -10Q316 -10 299 -8T271 -4L242 -168Q240 -177 234 -183T219 -189H40Q32 -189 25 -185T20 -168L145 541Q147 554 156 562T192 576Q229 583 291 591T432 600Q487 600 530 585T604 542T649 475T665 389ZM442 371Q442 394 432 405T399 416Q379 416 369 416T345 413L303 177Q315 176 327 175T357 174Q388 174 402 194T424 256L438 334Q440 345 441 354T442 371Z"  />
<glyph unicode="q" horiz-adv-x="636" d="M416 600Q494 600 554 592T648 576Q671 571 677 563T681 541L556 -168Q554 -177 550 -183T530 -189H351Q342 -189 337 -185T334 -168L363 -4Q352 -6 335 -8T308 -10Q254 -10 211 5T137 48T91 114T75 201Q75 215 76 228T80 256L94 334Q107 407 136 458T206 540T301 586T416 600ZM437 413Q420 415 413 415T396 416Q374 416 360 410T338 393T324 367T316 334L302 256Q299 241 299 224Q299 204 307 189T349 174Q360 174 367 174T395 177L437 413Z"  />
<glyph unicode="r" horiz-adv-x="439" d="M494 600Q519 600 515 580L490 439Q488 431 485 425T467 419H460Q414 419 388 415T344 402L277 22Q275 13 271 7T253 0H73Q64 0 58 4T54 22L151 570Q153 578 157 584T174 590H332Q341 590 346 586T349 570L343 541Q373 576 412 588T487 600H494Z"  />
<glyph unicode="s" horiz-adv-x="540" d="M567 573Q578 570 582 567T584 552L561 422Q559 411 556 405T537 401Q526 403 503 406T453 412T402 417T362 419Q355 419 347 418T339 408Q339 402 342 398T361 386L440 344Q473 326 493 308T523 270T537 231T540 191Q540 137 519 99T459 37T366 1T247 -10Q182 -10 138 -2T65 16Q47 23 50 38L72 163Q74 175 80 181T102 186Q126 182 151 179T198 173T240 169T272 167Q284 167 297 170T311 190Q311 195 308 199T292 210L203 259Q114 309 114 401Q114 461 136 499T196 560T281 591T381 600Q437 600 486 591T567 573Z"  />
<glyph unicode="t" horiz-adv-x="440" d="M494 590Q507 590 512 586T515 569L494 448Q492 439 488 433T469 426H397L354 181Q353 176 353 173T352 166Q352 158 355 155T370 152H418Q429 152 433 149T435 131L416 22Q414 13 410 8T391 0Q375 -3 363 -4T338 -7T313 -9T283 -10Q257 -10 229 -4T178 19T141 63T126 135Q126 146 127 158T131 185L173 426L118 436Q110 438 104 442T100 458L119 569Q121 578 126 584T145 590H202L216 672Q218 681 222 686T242 693L421 723Q451 727 446 703L426 590H494Z"  />
<glyph unicode="u" horiz-adv-x="652" d="M683 590Q692 590 698 586T702 568L605 20Q603 12 599 6T582 0H417Q409 0 404 4T400 20L405 48Q387 36 371 25T335 7T293 -5T239 -10Q196 -10 167 4T119 41T92 95T83 161Q83 192 89 222L150 568Q152 577 159 583T175 590H355Q377 590 373 568L315 238Q313 230 312 221T311 208Q311 188 323 181T354 173Q382 173 412 188L479 568Q481 577 485 583T503 590H683H683Z"  />
<glyph unicode="v" horiz-adv-x="651" d="M723 590Q732 590 736 585T736 569L531 115Q510 70 486 45T435 7T380 -7T324 -10Q296 -10 269 -8T220 7T181 44T161 115L116 569V570Q116 578 120 584T137 590H327Q340 590 342 584T345 569L353 232Q353 226 354 222T359 217Q363 217 366 221T371 232L497 569Q500 577 505 583T523 590H723H723Z"  />
<glyph unicode="w" horiz-adv-x="898" d="M965 590Q973 590 976 587T977 575L796 73Q785 43 775 27T753 2T726 -8T691 -10H597Q576 -10 563 -7T542 4T528 28T519 68L495 212Q493 221 488 221Q481 221 477 212L403 68Q390 43 380 28T358 5T332 -7T297 -10H203Q183 -10 169 -9T146 1T133 26T128 73L123 575Q123 590 141 590H340Q348 590 349 586T351 574L337 276Q337 272 337 270T343 267Q348 267 353 276L426 414Q437 435 447 442T478 450H578Q598 450 606 443T618 414L643 276Q644 271 645 267T651 263Q655 263 656 267T659 276L749 574Q751 581 755 585T772 590H965H965Z"  />
<glyph unicode="x" horiz-adv-x="667" d="M723 590Q731 590 734 584T730 569L514 289L646 22Q650 14 647 7T631 0H426Q415 0 408 4T395 22L340 141L257 21Q252 13 245 7T229 0H34Q26 0 24 8T27 21L250 313L126 562Q118 576 123 583T137 590H336Q356 590 362 584T371 569L421 457L498 569Q506 581 513 585T537 590H723H723Z"  />
<glyph unicode="y" horiz-adv-x="656" d="M730 590Q738 590 741 585T740 569L464 -31Q446 -70 424 -102T369 -158T292 -193T184 -206Q167 -206 146 -204T104 -199T65 -193T37 -185Q24 -180 20 -177T18 -165L38 -51Q40 -43 44 -35T65 -29Q81 -30 100 -31T139 -34T178 -35T214 -36Q247 -36 258 -13L273 21H260Q246 21 233 23T208 34T189 58T177 99L116 569Q114 581 120 585T142 590H333Q342 590 345 584T349 569L362 257Q362 243 369 243H376L497 569Q500 577 505 583T523 590H730H730Z"  />
<glyph unicode="z" horiz-adv-x="567" d="M600 590Q608 590 613 586T617 570L598 463Q596 455 595 449T590 437T580 424T563 405L370 194Q363 185 363 182Q363 175 373 175H531Q538 175 542 173T545 159L521 20Q519 12 515 6T497 0H70Q51 0 54 20L72 125Q75 141 79 151T97 175L302 397Q309 406 309 409Q309 415 299 415H144Q128 415 131 431L156 570Q158 578 162 584T179 590H600H600Z"  />
<glyph unicode="{" horiz-adv-x="436" d="M441 572Q415 572 407 560T394 519L376 419Q367 368 338 330T257 271Q294 254 310 226T327 159Q327 141 324 122L306 22Q303 5 303 -6Q303 -20 310 -25T335 -31H382Q398 -31 398 -44V-47L373 -185Q370 -202 351 -202H284Q227 -202 187 -191T123 -158T87 -107T76 -40Q76 -11 82 22L100 122Q101 127 101 132T102 142Q102 162 93 178T62 208L84 333Q121 353 134 372T152 419L170 519Q183 591 201 635T250 703T330 735T451 743H518Q526 743 531 740T534 726L510 588Q508 580 504 576T488 572H441H441Z"  />
<glyph unicode="|" horiz-adv-x="324" d="M338 -172Q338 -181 332 -187T317 -194H137Q128 -194 121 -188T114 -172V722Q114 731 121 737T137 743H317Q326 743 332 737T338 722V-172H338Z"  />
<glyph unicode="}" horiz-adv-x="436" d="M448 208Q423 195 404 172T380 122L362 22Q350 -47 332 -90T282 -158T202 -192T80 -202H13Q-3 -202 -3 -188V-185L22 -47Q25 -31 44 -31H91Q117 -31 125 -18T138 22L156 122Q165 173 194 212T275 271Q239 287 223 322T206 393Q206 400 206 406T208 419L226 519Q229 534 229 545Q229 559 222 565T197 572H150Q134 572 134 585V588L158 726Q161 743 180 743H247Q308 743 349 735T414 709T449 665T459 605Q459 567 450 519L432 419Q431 414 431 404Q431 382 442 363T470 333L448 208Z"  />
<glyph unicode="~" horiz-adv-x="640" d="M687 490Q687 441 674 408T637 354T579 325T501 316Q493 316 481 318T455 323T427 331T403 342L353 368Q320 385 306 385Q286 385 286 366V345Q286 323 263 323H137Q126 323 120 328T113 345V366Q113 414 126 447T164 501T223 531T302 540Q319 540 343 536T397 516L447 490Q483 471 498 471Q508 471 511 476T514 491V512Q514 534 537 534H663Q674 534 680 529T687 512V490H687Z"  />
<glyph unicode="&#xA0;" horiz-adv-x="230" />
<glyph unicode="&#xA1;" horiz-adv-x="309" d="M363 570L336 418Q334 410 327 404T312 398H137Q121 398 121 414V418L148 570Q150 578 156 584T171 590H346Q363 590 363 573V570ZM294 314L239 -168Q238 -177 231 -183T214 -189H27Q19 -189 14 -185T9 -173Q9 -171 9 -171T10 -168L125 314Q127 323 133 329T149 336H276Q284 336 289 331T294 317V314Z"  />
<glyph unicode="&#xA2;" horiz-adv-x="670" d="M616 564L592 428Q590 420 585 414T569 407H567Q543 409 517 411T460 413Q429 413 415 393T392 328L380 262Q378 249 377 239T375 220Q375 198 385 188T418 177Q448 177 475 179T527 183H528Q536 183 541 178T546 165V162L522 26Q520 17 514 13T498 7Q481 3 464 0T428 -6L417 -67Q415 -75 409 -81T394 -87H253Q236 -87 236 -70V-67L250 10Q197 33 174 80T151 189Q151 206 152 224T158 262L170 328Q181 390 197 433T236 507T288 556T352 587L363 654Q365 662 372 668T387 674H528Q544 674 544 658V654L534 595Q555 592 572 589T600 583Q616 579 616 568V564Z"  />
<glyph unicode="&#xA3;" horiz-adv-x="670" d="M716 721Q716 719 716 718T715 714L688 562Q685 544 668 544H665Q636 546 589 547T496 549Q478 549 467 547T449 539T437 520T428 488L423 461H559Q576 461 576 444V441L551 300Q549 292 542 286T527 280H391L383 231Q380 212 374 201T362 181H601Q617 181 617 165V161L593 20Q591 12 584 6T569 0H96Q80 0 80 16V20L99 130Q101 141 105 146T114 156Q119 160 125 169T138 188T150 210T157 231L165 280H117Q101 280 101 296V300L126 441Q128 449 134 455T149 461H197L201 484Q216 569 243 621T311 703T407 742T532 753Q574 753 616 748T698 736Q709 734 712 731T716 721Z"  />
<glyph unicode="&#xA4;" horiz-adv-x="670" d="M676 547Q676 539 669 532L582 445Q598 407 598 370Q598 327 580 290L665 205Q672 198 672 190Q672 184 667 179L592 104Q587 99 581 99Q573 99 566 106L478 194Q446 181 409 181Q372 181 334 197L247 110Q244 107 240 105T231 102Q226 102 221 107L146 182Q141 187 141 194Q141 202 148 209L235 295Q219 333 219 370Q219 408 232 440L144 528Q137 535 137 543Q137 549 142 554L217 629Q222 634 228 634Q236 634 243 627L328 542Q347 551 367 555T409 559Q448 559 484 544L570 631Q577 638 585 638Q591 638 596 633L671 558Q676 553 676 547ZM478 372Q478 400 459 419T411 439Q383 439 363 420T343 372Q343 344 363 324T411 304Q439 304 458 324T478 372Z"  />
<glyph unicode="&#xA5;" horiz-adv-x="670" d="M804 732Q804 727 801 723L660 505H733Q750 505 750 488V485L732 388Q730 380 724 374T709 368H570L513 281H694Q710 281 710 265V261L693 164Q691 156 684 150T669 144H487L466 20Q464 12 457 6T441 0H246Q230 0 230 16V20L251 144H70Q54 144 54 160V164L71 261Q73 269 80 275T95 281H276L251 368H110Q93 368 93 385V388L111 485Q113 493 119 499T134 505H209L142 723Q142 724 142 725T141 727Q141 743 158 743H374Q382 743 385 737T391 723L433 504L552 723Q557 731 563 737T577 743H792Q804 743 804 732Z"  />
<glyph unicode="&#xA6;" horiz-adv-x="324" d="M342 364Q342 355 336 349T321 342H141Q132 342 125 348T118 364V707Q118 716 125 722T141 728H321Q330 728 336 722T342 707V364ZM342 -189Q342 -198 336 -204T321 -211H141Q132 -211 125 -205T118 -189V154Q118 163 125 169T141 175H321Q330 175 336 169T342 154V-189Z"  />
<glyph unicode="&#xA7;" horiz-adv-x="624" d="M690 705L664 556Q662 548 657 542T643 536H641Q621 538 592 540T529 545T462 549T400 551Q376 551 376 532Q376 527 382 521T408 503L536 428Q587 399 610 361T633 273Q633 230 620 195T582 125Q588 108 592 91T596 53Q596 38 593 22Q584 -30 561 -74T497 -149T397 -199T258 -217Q193 -217 141 -209T48 -187Q41 -185 36 -181T31 -170V-167L57 -18Q59 -10 65 -4T79 2H81Q96 0 122 -2T177 -8T237 -13T293 -15Q310 -15 323 -9T336 16Q336 25 332 31T313 47L179 134Q129 166 110 208T91 295Q91 336 103 375T139 448Q135 461 132 479T129 517Q129 533 132 550Q141 598 160 636T214 700T303 739T436 753Q468 753 503 751T571 744T631 735T674 725Q690 720 690 708V705ZM440 248Q440 268 427 283T378 320L325 353Q314 360 306 365T292 379Q281 368 275 353T269 322Q269 304 281 290T324 256L375 224Q405 205 421 188Q429 200 434 216T440 248Z"  />
<glyph unicode="&#xA8;" horiz-adv-x="500" d="M592 758L574 656Q572 647 564 641T547 635H408Q400 635 395 640T389 653V656L407 758Q409 767 416 773T433 779H572Q580 779 586 774T592 761V758ZM362 758L344 656Q342 647 334 641T317 635H178Q170 635 165 640T159 653V656L177 758Q179 767 186 773T203 779H342Q350 779 356 774T362 761V758Z"  />
<glyph unicode="&#xA9;" horiz-adv-x="750" d="M787 374Q787 303 760 242T687 134T579 62T446 35Q375 35 314 61T206 134T134 241T107 374Q107 444 133 506T206 615T313 689T446 716Q516 716 578 689T687 616T760 507T787 374ZM728 374Q728 432 706 483T645 573T556 634T446 657Q388 657 337 635T248 574T188 484T166 374Q166 316 188 265T248 176T337 116T446 94Q504 94 555 116T645 176T705 265T728 374ZM550 182Q550 177 548 175T538 170Q524 165 505 162T463 159Q369 159 325 209T280 353V400Q280 495 325 544T463 594Q486 594 506 591T538 583Q546 581 548 579T550 571V481Q550 470 540 470H538Q529 471 522 472T507 473T489 474T463 475Q454 475 446 473T431 462T420 440T416 400V353Q416 327 420 313T431 290T446 280T463 278Q489 278 504 279T538 283H540Q550 283 550 273V182Z"  />
<glyph unicode="&#xAA;" horiz-adv-x="401" d="M476 639Q476 623 473 604L435 392Q433 380 425 377Q410 374 392 371T352 364T310 359T270 357Q192 357 156 385T119 461Q119 466 119 470T120 480L121 487Q125 519 141 539T183 570T241 586T311 591H327L330 604Q332 614 332 616Q332 628 324 631T302 634Q270 634 237 633T188 630H187Q178 630 178 641V644L191 718Q192 729 206 734Q214 737 228 740T258 746T292 751T325 753Q356 753 383 748T431 729T464 694T476 639ZM298 518Q284 518 272 511T257 487L256 480V475Q256 461 265 458T287 455Q292 455 297 455T308 457L318 518H298Z"  />
<glyph unicode="&#xAB;" horiz-adv-x="776" d="M858 523Q858 516 850 508L631 294L759 80Q763 72 763 69Q763 57 749 57H589Q581 57 574 58T563 67L437 273Q429 286 429 297Q429 313 445 331L628 521Q634 528 642 529T658 531H848Q858 531 858 523ZM503 523Q503 516 495 508L276 294L404 80Q408 72 408 69Q408 57 394 57H234Q226 57 219 58T208 67L82 273Q74 286 74 297Q74 313 90 331L273 521Q279 528 287 529T303 531H493Q503 531 503 523Z"  />
<glyph unicode="&#xAC;" horiz-adv-x="640" d="M635 188Q635 180 631 174T619 168H489Q481 168 477 174T473 188V452H170Q162 452 156 456T150 468V598Q150 606 156 610T170 614H615Q623 614 629 610T635 598V188H635Z"  />
<glyph unicode="&#xAD;" horiz-adv-x="262" d="M310 356L289 238Q287 230 280 224T265 218H73Q57 218 57 234V238L78 356Q80 364 86 370T101 376H293Q310 376 310 359V356Z"  />
<glyph unicode="&#xAE;" horiz-adv-x="646" d="M699 483Q699 423 677 371T615 280T524 219T411 196Q351 196 299 218T207 280T146 371T123 483Q123 543 145 595T207 687T298 748T411 771Q471 771 523 749T615 687T676 596T699 483ZM641 483Q641 531 623 572T574 645T501 695T411 713Q363 713 322 695T249 646T200 573T182 483Q182 435 200 394T249 321T321 272T411 254Q459 254 500 272T573 321T623 393T641 483ZM558 329Q558 321 550 321H453Q449 321 448 324T444 330L390 436H376V330Q376 321 367 321H279Q270 321 270 330V616Q270 637 276 644T301 654Q307 655 318 656T344 658T373 659T400 660Q468 660 507 636T546 547V537Q546 505 531 485T495 453L557 334Q558 332 558 329ZM445 547Q445 560 437 567T409 574H372V510H409Q428 510 436 518T445 537V547Z"  />
<glyph unicode="&#xAF;" horiz-adv-x="500" d="M581 759L562 655Q560 647 554 641T539 635H185Q168 635 168 652V655L187 759Q189 767 195 773T210 779H564Q581 779 581 762V759Z"  />
<glyph unicode="&#xB0;" horiz-adv-x="376" d="M455 590Q455 556 442 527T407 475T356 440T292 427Q259 427 229 440T177 475T142 526T129 590Q129 624 142 653T177 705T229 740T292 753Q326 753 355 740T407 705T442 654T455 590ZM352 590Q352 615 334 632T292 650Q268 650 251 633T233 590Q233 566 250 549T292 531Q317 531 334 548T352 590Z"  />
<glyph unicode="&#xB1;" horiz-adv-x="640" d="M615 326Q615 318 609 314T595 310H453V169Q453 161 449 155T437 149H307Q299 149 295 155T291 169V310H150Q142 310 136 314T130 326V456Q130 464 136 468T150 472H291V614Q291 622 295 628T307 634H437Q445 634 449 628T453 614V472H595Q603 472 609 468T615 456V326ZM615 -14Q615 -22 609 -26T595 -30H150Q142 -30 136 -26T130 -14V87Q130 95 136 99T150 103H595Q603 103 609 99T615 87V-14Z"  />
<glyph unicode="&#xB2;" horiz-adv-x="367" d="M446 662Q446 635 437 613T411 572T373 538T329 511Q320 506 308 500T284 486T261 469T243 450H389Q397 450 400 447T402 435L387 349Q385 342 380 338T368 334H109Q93 334 96 349L106 408Q112 440 125 466T155 512T194 549T237 579Q261 594 275 602T297 616Q304 621 306 624T308 633Q308 638 302 640T271 643Q245 643 219 641T168 637H167Q160 637 157 642T155 653L166 715Q167 721 171 724T182 730Q210 740 243 746T313 753Q446 753 446 662Z"  />
<glyph unicode="&#xB3;" horiz-adv-x="366" d="M130 449Q140 448 154 447T183 446T214 445T244 444Q267 444 274 453T282 477Q282 494 260 494H168Q152 494 154 510L167 579Q169 595 185 595H270Q290 595 299 603T308 624Q308 632 302 637T279 643Q252 643 220 642T167 638H166Q160 638 156 642T154 653L164 712Q166 722 169 724T181 731Q200 739 237 746T309 753Q368 753 406 732T445 659Q445 646 442 633Q437 599 420 580T381 547Q413 526 413 481Q413 406 363 370T235 334Q223 334 206 335T170 340T136 347T108 358Q99 363 100 371L111 434Q114 449 129 449H130Z"  />
<glyph unicode="&#xB4;" horiz-adv-x="500" d="M621 773Q621 768 615 764L464 645Q457 640 453 638T437 635H283Q275 635 275 641Q275 646 281 652L388 764Q396 772 401 775T419 779H610Q621 779 621 773Z"  />
<glyph unicode="&#xB5;" horiz-adv-x="652" d="M702 568L610 46Q608 33 599 25T564 11Q525 3 468 -3T325 -10Q298 -10 273 -7L244 -169Q242 -177 236 -183T221 -189H37Q20 -189 20 -172V-169L150 568Q152 577 159 583T175 590H354Q362 590 367 585T372 572V568L309 209Q309 207 309 205T308 201Q308 169 356 169Q388 169 409 172L479 568Q481 577 487 583T503 590H683Q702 590 702 571V568Z"  />
<glyph unicode="&#xB6;" horiz-adv-x="689" d="M768 731Q768 729 768 728T767 724L608 -176Q606 -184 601 -189T588 -195H528Q514 -195 514 -179V-176L659 649H593L448 -176Q446 -184 441 -189T428 -195H368Q354 -195 354 -179V-176L425 225H336Q290 225 251 237T182 271T137 327T120 405Q120 428 124 448L137 520Q147 574 174 615T240 685T327 728T427 743H754Q768 743 768 731Z"  />
<glyph unicode="&#xB7;" horiz-adv-x="296" d="M335 449L308 297Q306 289 299 283T284 277H110Q102 277 97 281T92 294V297L119 449Q121 457 128 463T144 469H318Q335 469 335 452V449Z"  />
<glyph unicode="&#xB8;" horiz-adv-x="500" d="M373 -57Q373 -62 367 -66L216 -185Q209 -190 205 -192T189 -195H39Q31 -195 31 -189Q31 -184 37 -178L146 -66Q154 -58 159 -55T177 -51H362Q373 -51 373 -57Z"  />
<glyph unicode="&#xB9;" horiz-adv-x="277" d="M303 346Q299 335 290 335H173Q168 335 165 338T164 346L210 611L150 589Q144 587 143 587Q139 587 139 594L157 692Q158 700 166 703L262 741Q269 744 275 744H362Q373 744 371 733L303 346H303Z"  />
<glyph unicode="&#xBA;" horiz-adv-x="417" d="M493 617Q493 606 492 595T488 570L482 540Q462 439 409 398T272 357Q200 357 160 392T120 493Q120 504 121 515T125 540L131 570Q141 621 159 656T205 712T266 743T342 753Q414 753 453 718T493 617ZM348 602Q348 620 341 626T321 633Q304 633 294 621T275 570L269 540Q267 531 266 524T265 509Q265 490 272 483T293 476Q310 476 320 489T338 540L344 570Q348 587 348 602Z"  />
<glyph unicode="&#xBB;" horiz-adv-x="776" d="M804 291Q804 275 788 257L605 67Q599 60 591 59T575 57H385Q375 57 375 65Q375 72 383 80L602 294L474 508Q470 516 470 519Q470 531 484 531H644Q652 531 659 530T670 521L796 315Q804 302 804 291ZM449 291Q449 275 433 257L250 67Q244 60 236 59T220 57H30Q20 57 20 65Q20 72 28 80L247 294L119 508Q115 516 115 519Q115 531 129 531H289Q297 531 304 530T315 521L441 315Q449 302 449 291Z"  />
<glyph unicode="&#xBC;" horiz-adv-x="836" d="M833 393L796 181H817Q830 181 830 169V166L817 92Q813 76 798 76H777L767 16Q766 9 761 5T748 0H644Q631 0 631 13V16L641 76H503Q491 76 491 89V92L504 162Q505 171 513 180L727 401Q735 409 746 409H820Q833 409 833 396V393ZM821 734Q821 729 816 722L274 15Q266 5 262 3T250 0H108Q97 0 97 11Q97 17 101 22L643 728Q650 737 655 740T669 743H811Q821 743 821 734ZM371 732L303 345Q301 334 290 334H173Q164 334 164 343V345L211 610L151 588Q145 586 144 586Q140 586 140 591V593L157 691Q158 699 167 702L262 740Q269 743 275 743H362Q371 743 371 734V732ZM608 181H666L679 255L608 181Z"  />
<glyph unicode="&#xBD;" horiz-adv-x="855" d="M875 319Q875 290 867 269T843 231T805 200T757 172Q748 167 736 161T712 148T690 132T672 116H818Q832 116 832 103V101L817 15Q815 8 810 4T798 0H539Q526 0 526 12V15L536 74Q542 106 554 131T584 176T622 211T665 240L702 262Q710 267 716 271T726 277Q731 281 734 284T737 295Q737 300 730 302T700 304Q674 304 648 301T597 298H596Q583 298 583 312V314L594 376Q595 382 600 385T611 391Q639 401 672 407T743 414Q781 414 806 406T847 384T868 353T875 319ZM821 734Q821 729 816 722L274 15Q266 5 262 3T250 0H108Q97 0 97 11Q97 17 101 22L643 728Q650 737 655 740T669 743H811Q821 743 821 734ZM371 732L303 345Q301 334 290 334H173Q164 334 164 343V345L211 610L151 588Q145 586 144 586Q140 586 140 591V593L157 691Q158 699 167 702L262 740Q269 743 275 743H362Q371 743 371 734V732Z"  />
<glyph unicode="&#xBE;" horiz-adv-x="886" d="M883 393L846 181H867Q880 181 880 169V166L867 92Q863 76 848 76H827L817 16Q816 9 811 5T798 0H694Q681 0 681 13V16L691 76H553Q541 76 541 89V92L554 162Q555 171 563 180L777 401Q785 409 796 409H870Q883 409 883 396V393ZM900 734Q900 729 895 722L353 15Q345 5 341 3T329 0H187Q176 0 176 11Q176 17 180 22L722 728Q729 737 734 740T748 743H890Q900 743 900 734ZM445 657Q445 620 429 594T381 547Q414 524 414 480Q414 439 401 412T363 367T307 342T238 334Q226 334 208 335T172 340T136 347T108 358Q100 363 100 369V371L112 434Q115 449 129 449H130Q151 449 184 447T244 444Q261 444 272 450T283 475Q283 494 260 494H168Q155 494 155 507V509V510L167 579Q168 586 173 590T186 595H271Q285 595 296 602T308 625Q308 633 302 638T279 643Q252 643 221 641T167 638H166Q154 638 154 650V653L165 716Q167 723 172 726T182 731Q201 739 238 746T310 753Q371 753 408 729T445 657ZM658 181H716L729 255L658 181Z"  />
<glyph unicode="&#xBF;" horiz-adv-x="500" d="M506 571L480 419Q478 411 471 405T455 399H281Q264 399 264 416V418V419L290 571Q292 579 299 585T315 591H489Q497 591 501 586T506 574V572V571ZM469 -4L444 -148Q442 -156 435 -160T420 -168Q402 -174 379 -179T331 -189T282 -195T238 -197Q127 -197 75 -160T23 -53Q23 -44 24 -34T27 -13Q34 25 53 58T98 121L265 317Q282 337 300 337H434Q442 337 446 332T451 320V317L444 277Q439 252 435 235T423 203T404 173T377 135L314 53Q309 46 302 35T295 16Q295 11 299 8T316 5H321H324L453 16H454Q462 16 465 11T469 0V-4Z"  />
<glyph unicode="&#xC0;" horiz-adv-x="716" d="M699 19Q699 0 680 0H473Q465 0 461 6T456 20L457 132H305L268 20Q265 12 258 6T243 0H34Q21 0 21 11Q21 14 23 20L248 624Q262 662 284 687T338 726T407 747T491 753Q537 753 573 747T633 727T671 687T686 624L699 20V19ZM464 554Q464 562 457 562Q451 562 450 559T446 549L368 316H460L464 549V554ZM631 803Q631 794 621 794H479Q468 794 465 796T456 804L347 923Q344 927 344 930Q344 938 356 938H533Q545 938 550 935T560 923L629 811Q631 808 631 803Z"  />
<glyph unicode="&#xC1;" horiz-adv-x="716" d="M699 19Q699 0 680 0H473Q465 0 461 6T456 20L457 132H305L268 20Q265 12 258 6T243 0H34Q21 0 21 11Q21 14 23 20L248 624Q262 662 284 687T338 726T407 747T491 753Q537 753 573 747T633 727T671 687T686 624L699 20V19ZM464 554Q464 562 457 562Q451 562 450 559T446 549L368 316H460L464 549V554ZM735 932Q735 927 729 923L578 804Q571 799 567 797T551 794H397Q389 794 389 800Q389 805 395 811L502 923Q510 931 515 934T533 938H724Q735 938 735 932Z"  />
<glyph unicode="&#xC2;" horiz-adv-x="716" d="M699 19Q699 0 680 0H473Q465 0 461 6T456 20L457 132H305L268 20Q265 12 258 6T243 0H34Q21 0 21 11Q21 14 23 20L248 624Q262 662 284 687T338 726T407 747T491 753Q537 753 573 747T633 727T671 687T686 624L699 20V19ZM464 554Q464 562 457 562Q451 562 450 559T446 549L368 316H460L464 549V554ZM717 803Q717 794 707 794H569Q558 794 555 796T546 804L506 853L450 804Q444 799 439 797T423 794H273Q265 794 265 800Q265 805 271 811L374 923Q382 932 387 935T405 938H625Q637 938 642 935T652 923L715 811Q717 808 717 803Z"  />
<glyph unicode="&#xC3;" horiz-adv-x="716" d="M699 19Q699 0 680 0H473Q465 0 461 6T456 20L457 132H305L268 20Q265 12 258 6T243 0H34Q21 0 21 11Q21 14 23 20L248 624Q262 662 284 687T338 726T407 747T491 753Q537 753 573 747T633 727T671 687T686 624L699 20V19ZM464 554Q464 562 457 562Q451 562 450 559T446 549L368 316H460L464 549V554ZM752 938L746 898Q737 838 699 811T605 783Q582 783 558 789T513 807L477 827Q464 834 456 836T442 839Q437 839 433 837T426 826L423 810Q420 793 402 793H306Q291 793 291 806V810L296 843Q306 906 344 935T434 965Q457 965 483 959T531 941L567 921Q592 908 603 908Q611 908 613 911T618 922L621 938Q624 955 642 955H737Q752 955 752 942V938Z"  />
<glyph unicode="&#xC4;" horiz-adv-x="716" d="M699 19Q699 0 680 0H473Q465 0 461 6T456 20L457 132H305L268 20Q265 12 258 6T243 0H34Q21 0 21 11Q21 14 23 20L248 624Q262 662 284 687T338 726T407 747T491 753Q537 753 573 747T633 727T671 687T686 624L699 20V19ZM464 554Q464 562 457 562Q451 562 450 559T446 549L368 316H460L464 549V554ZM740 917L722 815Q720 806 712 800T695 794H556Q548 794 543 799T537 812V815L555 917Q557 926 564 932T581 938H720Q728 938 734 933T740 920V917ZM510 917L492 815Q490 806 482 800T465 794H326Q318 794 313 799T307 812V815L325 917Q327 926 334 932T351 938H490Q498 938 504 933T510 920V917Z"  />
<glyph unicode="&#xC5;" horiz-adv-x="716" d="M699 19Q699 0 680 0H473Q465 0 461 6T456 20L457 132H305L268 20Q265 12 258 6T243 0H34Q21 0 21 11Q21 14 23 20L248 624Q262 662 284 687T338 726T407 747T491 753Q537 753 573 747T633 727T671 687T686 624L699 20V19ZM464 554Q464 562 457 562Q451 562 450 559T446 549L368 316H460L464 549V554ZM634 909Q634 882 624 859T597 819T556 791T506 781Q479 781 456 791T416 818T388 859T378 909Q378 936 388 959T415 999T456 1027T506 1037Q533 1037 556 1027T596 1000T624 959T634 909ZM544 910Q544 925 533 936T507 947Q493 947 482 937T471 910Q471 894 482 884T507 873Q522 873 533 884T544 910Z"  />
<glyph unicode="&#xC6;" horiz-adv-x="968" d="M1040 723L1012 561Q1010 553 1003 547T988 541H774L761 465H975Q991 465 991 449V445L967 304Q965 296 958 290T943 284H729L718 224Q717 220 717 212Q717 192 746 192H927Q943 192 943 176V172L917 21Q915 13 908 8T893 1Q861 -3 819 -6T710 -10Q671 -10 633 -5T562 15T508 58T480 132H306L268 20Q265 12 258 6T243 0H35Q22 0 22 12Q22 14 24 20L247 614Q261 652 283 677T336 716T405 737T489 743H1024Q1040 743 1040 727V723ZM460 541Q447 541 440 520L370 316H499L538 541H460Z"  />
<glyph unicode="&#xC7;" horiz-adv-x="548" d="M640 717Q640 716 640 715T639 712L611 554Q608 536 591 536H589H588Q564 539 527 542T457 545Q442 545 427 542T398 525T373 485T352 412L337 331Q330 293 330 266Q330 242 335 229T350 208T371 200T396 198Q411 198 429 199T465 201T501 204T530 207H531H534Q547 207 547 195Q547 193 547 192T546 189L518 31Q516 21 512 18T494 9Q468 1 435 -4T359 -10Q222 -10 156 57T89 240Q89 283 98 331L113 412Q131 507 162 572T239 678T346 735T487 753Q529 753 565 748T621 734Q629 731 634 728T640 717ZM443 -51Q443 -56 437 -60L286 -179Q279 -184 275 -186T259 -189H109Q101 -189 101 -183Q101 -178 107 -172L216 -60Q224 -52 229 -49T247 -45H432Q443 -45 443 -51Z"  />
<glyph unicode="&#xC8;" horiz-adv-x="595" d="M651 742Q670 740 667 722L641 571Q639 563 635 557T617 551H416Q397 551 390 545T378 519L368 465H602Q611 465 615 460T618 445L594 304Q592 296 585 290T570 284H336L327 235Q325 223 325 219T324 211Q324 192 353 192H554Q573 192 570 172L544 21Q542 13 538 8T520 1Q488 -3 436 -6T317 -10Q270 -10 228 -1T154 28T103 83T84 169Q84 182 85 195T89 224L142 519Q157 603 189 650T264 720T356 748T452 753Q518 753 569 750T651 742ZM575 803Q575 794 565 794H423Q412 794 409 796T400 804L291 923Q288 927 288 930Q288 938 300 938H477Q489 938 494 935T504 923L573 811Q575 808 575 803Z"  />
<glyph unicode="&#xC9;" horiz-adv-x="595" d="M651 742Q670 740 667 722L641 571Q639 563 635 557T617 551H416Q397 551 390 545T378 519L368 465H602Q611 465 615 460T618 445L594 304Q592 296 585 290T570 284H336L327 235Q325 223 325 219T324 211Q324 192 353 192H554Q573 192 570 172L544 21Q542 13 538 8T520 1Q488 -3 436 -6T317 -10Q270 -10 228 -1T154 28T103 83T84 169Q84 182 85 195T89 224L142 519Q157 603 189 650T264 720T356 748T452 753Q518 753 569 750T651 742ZM669 932Q669 927 663 923L512 804Q505 799 501 797T485 794H331Q323 794 323 800Q323 805 329 811L436 923Q444 931 449 934T467 938H658Q669 938 669 932Z"  />
<glyph unicode="&#xCA;" horiz-adv-x="595" d="M651 742Q670 740 667 722L641 571Q639 563 635 557T617 551H416Q397 551 390 545T378 519L368 465H602Q611 465 615 460T618 445L594 304Q592 296 585 290T570 284H336L327 235Q325 223 325 219T324 211Q324 192 353 192H554Q573 192 570 172L544 21Q542 13 538 8T520 1Q488 -3 436 -6T317 -10Q270 -10 228 -1T154 28T103 83T84 169Q84 182 85 195T89 224L142 519Q157 603 189 650T264 720T356 748T452 753Q518 753 569 750T651 742ZM672 803Q672 794 662 794H524Q513 794 510 796T501 804L461 853L405 804Q399 799 394 797T378 794H228Q220 794 220 800Q220 805 226 811L329 923Q337 932 342 935T360 938H580Q592 938 597 935T607 923L670 811Q672 808 672 803Z"  />
<glyph unicode="&#xCB;" horiz-adv-x="595" d="M651 742Q670 740 667 722L641 571Q639 563 635 557T617 551H416Q397 551 390 545T378 519L368 465H602Q611 465 615 460T618 445L594 304Q592 296 585 290T570 284H336L327 235Q325 223 325 219T324 211Q324 192 353 192H554Q573 192 570 172L544 21Q542 13 538 8T520 1Q488 -3 436 -6T317 -10Q270 -10 228 -1T154 28T103 83T84 169Q84 182 85 195T89 224L142 519Q157 603 189 650T264 720T356 748T452 753Q518 753 569 750T651 742ZM668 917L650 815Q648 806 640 800T623 794H484Q476 794 471 799T465 812V815L483 917Q485 926 492 932T509 938H648Q656 938 662 933T668 920V917ZM438 917L420 815Q418 806 410 800T393 794H254Q246 794 241 799T235 812V815L253 917Q255 926 262 932T279 938H418Q426 938 432 933T438 920V917Z"  />
<glyph unicode="&#xCC;" horiz-adv-x="356" d="M407 743Q426 743 423 723L300 20Q298 12 294 6T276 0H81Q70 0 66 6T64 20L187 723Q189 731 194 737T212 743H407H407ZM442 803Q442 794 432 794H290Q279 794 276 796T267 804L158 923Q155 927 155 930Q155 938 167 938H344Q356 938 361 935T371 923L440 811Q442 808 442 803Z"  />
<glyph unicode="&#xCD;" horiz-adv-x="356" d="M407 743Q426 743 423 723L300 20Q298 12 294 6T276 0H81Q70 0 66 6T64 20L187 723Q189 731 194 737T212 743H407H407ZM542 932Q542 927 536 923L385 804Q378 799 374 797T358 794H204Q196 794 196 800Q196 805 202 811L309 923Q317 931 322 934T340 938H531Q542 938 542 932Z"  />
<glyph unicode="&#xCE;" horiz-adv-x="356" d="M407 743Q426 743 423 723L300 20Q298 12 294 6T276 0H81Q70 0 66 6T64 20L187 723Q189 731 194 737T212 743H407H407ZM546 803Q546 794 536 794H398Q387 794 384 796T375 804L335 853L279 804Q273 799 268 797T252 794H102Q94 794 94 800Q94 805 100 811L203 923Q211 932 216 935T234 938H454Q466 938 471 935T481 923L544 811Q546 808 546 803Z"  />
<glyph unicode="&#xCF;" horiz-adv-x="356" d="M407 743Q426 743 423 723L300 20Q298 12 294 6T276 0H81Q70 0 66 6T64 20L187 723Q189 731 194 737T212 743H407H407ZM548 917L530 815Q528 806 520 800T503 794H364Q356 794 351 799T345 812V815L363 917Q365 926 372 932T389 938H528Q536 938 542 933T548 920V917ZM318 917L300 815Q298 806 290 800T273 794H134Q126 794 121 799T115 812V815L133 917Q135 926 142 932T159 938H298Q306 938 312 933T318 920V917Z"  />
<glyph unicode="&#xD0;" horiz-adv-x="706" d="M748 502Q748 482 747 461T740 417L723 326Q705 231 672 167T590 63T477 7T335 -10Q254 -10 196 -5T92 9Q78 12 71 18T63 38Q63 41 63 44T64 52L105 284H57Q41 284 41 300V303V304L65 445Q67 453 74 459T89 465H137L177 691Q181 714 190 722T219 734Q267 742 327 747T468 753Q529 753 580 737T669 690T727 611T748 502ZM509 484Q509 524 491 537T432 551H388L373 465H417Q433 465 433 449V446V445L409 304Q407 296 400 290T385 284H341L325 192H369Q395 192 413 197T445 217T467 258T484 326L501 417Q505 437 507 453T509 484Z"  />
<glyph unicode="&#xD1;" horiz-adv-x="763" d="M814 743Q825 743 828 737T830 723L709 35Q707 21 699 11T668 0H497Q486 0 480 6T469 22L352 297Q350 303 349 304T345 305H344Q338 305 337 296L289 20Q287 12 283 6T264 0H81Q73 0 68 4T64 20L185 708Q187 722 196 732T226 743H390Q404 743 411 735T423 715L542 439Q545 432 547 431T551 430Q553 430 554 431T557 439L607 723Q609 731 613 737T631 743H814H814ZM760 938L754 898Q745 838 707 811T613 783Q590 783 566 789T521 807L485 827Q472 834 464 836T450 839Q445 839 441 837T434 826L431 810Q428 793 410 793H314Q299 793 299 806V810L304 843Q314 906 352 935T442 965Q465 965 491 959T539 941L575 921Q600 908 611 908Q619 908 621 911T626 922L629 938Q632 955 650 955H745Q760 955 760 942V938Z"  />
<glyph unicode="&#xD2;" horiz-adv-x="716" d="M757 499Q757 479 755 459T749 415L734 328Q716 226 679 161T590 57T479 5T356 -10Q302 -10 254 4T169 50T111 129T90 245Q90 265 92 285T98 328L113 415Q131 516 168 581T257 685T368 738T491 753Q545 753 593 739T678 694T736 615T757 499ZM516 474Q516 512 501 528T454 545Q412 545 388 516T352 415L337 328Q331 293 331 269Q331 231 346 215T393 198Q435 198 459 227T495 328L510 415Q516 449 516 474ZM600 803Q600 794 590 794H448Q437 794 434 796T425 804L316 923Q313 927 313 930Q313 938 325 938H502Q514 938 519 935T529 923L598 811Q600 808 600 803Z"  />
<glyph unicode="&#xD3;" horiz-adv-x="716" d="M757 499Q757 479 755 459T749 415L734 328Q716 226 679 161T590 57T479 5T356 -10Q302 -10 254 4T169 50T111 129T90 245Q90 265 92 285T98 328L113 415Q131 516 168 581T257 685T368 738T491 753Q545 753 593 739T678 694T736 615T757 499ZM516 474Q516 512 501 528T454 545Q412 545 388 516T352 415L337 328Q331 293 331 269Q331 231 346 215T393 198Q435 198 459 227T495 328L510 415Q516 449 516 474ZM735 932Q735 927 729 923L578 804Q571 799 567 797T551 794H397Q389 794 389 800Q389 805 395 811L502 923Q510 931 515 934T533 938H724Q735 938 735 932Z"  />
<glyph unicode="&#xD4;" horiz-adv-x="716" d="M757 499Q757 479 755 459T749 415L734 328Q716 226 679 161T590 57T479 5T356 -10Q302 -10 254 4T169 50T111 129T90 245Q90 265 92 285T98 328L113 415Q131 516 168 581T257 685T368 738T491 753Q545 753 593 739T678 694T736 615T757 499ZM516 474Q516 512 501 528T454 545Q412 545 388 516T352 415L337 328Q331 293 331 269Q331 231 346 215T393 198Q435 198 459 227T495 328L510 415Q516 449 516 474ZM725 804Q725 795 715 795H577Q566 795 563 797T554 805L514 854L458 805Q452 800 447 798T431 795H281Q273 795 273 801Q273 806 279 812L382 924Q390 933 395 936T413 939H633Q645 939 650 936T660 924L723 812Q725 809 725 804Z"  />
<glyph unicode="&#xD5;" horiz-adv-x="716" d="M757 499Q757 479 755 459T749 415L734 328Q716 226 679 161T590 57T479 5T356 -10Q302 -10 254 4T169 50T111 129T90 245Q90 265 92 285T98 328L113 415Q131 516 168 581T257 685T368 738T491 753Q545 753 593 739T678 694T736 615T757 499ZM516 474Q516 512 501 528T454 545Q412 545 388 516T352 415L337 328Q331 293 331 269Q331 231 346 215T393 198Q435 198 459 227T495 328L510 415Q516 449 516 474ZM754 939L748 899Q739 839 701 812T607 784Q584 784 560 790T515 808L479 828Q466 835 458 837T444 840Q439 840 435 838T428 827L425 811Q422 794 404 794H308Q293 794 293 807V811L298 844Q308 907 346 936T436 966Q459 966 485 960T533 942L569 922Q594 909 605 909Q613 909 615 912T620 923L623 939Q626 956 644 956H739Q754 956 754 943V939Z"  />
<glyph unicode="&#xD6;" horiz-adv-x="716" d="M757 499Q757 479 755 459T749 415L734 328Q716 226 679 161T590 57T479 5T356 -10Q302 -10 254 4T169 50T111 129T90 245Q90 265 92 285T98 328L113 415Q131 516 168 581T257 685T368 738T491 753Q545 753 593 739T678 694T736 615T757 499ZM516 474Q516 512 501 528T454 545Q412 545 388 516T352 415L337 328Q331 293 331 269Q331 231 346 215T393 198Q435 198 459 227T495 328L510 415Q516 449 516 474ZM726 917L708 815Q706 806 698 800T681 794H542Q534 794 529 799T523 812V815L541 917Q543 926 550 932T567 938H706Q714 938 720 933T726 920V917ZM496 917L478 815Q476 806 468 800T451 794H312Q304 794 299 799T293 812V815L311 917Q313 926 320 932T337 938H476Q484 938 490 933T496 920V917Z"  />
<glyph unicode="&#xD7;" horiz-adv-x="640" d="M611 505Q611 497 603 489L503 389L602 289Q610 281 610 274Q610 269 605 264L513 172Q508 167 503 167Q496 167 488 175L388 274L288 175Q280 167 273 167Q268 167 263 172L171 264Q166 269 166 274Q166 281 174 289L273 389L173 489Q165 497 165 505Q165 510 170 515L262 607Q267 612 273 612Q280 612 288 604L388 503L488 604Q496 612 503 612Q509 612 514 607L606 515Q611 510 611 505Z"  />
<glyph unicode="&#xD8;" horiz-adv-x="716" d="M832 745Q832 739 827 734L731 626Q744 600 750 569T757 499Q757 479 755 459T749 415L734 328Q716 226 679 161T590 57T479 5T356 -10Q311 -10 271 0T197 30L178 9Q173 3 165 -3T148 -10H24Q15 -10 15 -2Q15 4 20 9L117 117Q104 143 97 175T90 245Q90 265 92 285T98 328L113 415Q131 516 168 581T257 685T368 738T491 753Q536 753 576 744T651 714L669 734Q674 740 682 746T699 753H823Q832 753 832 745ZM492 536Q477 545 454 545Q412 545 388 516T352 415L345 371L492 536ZM355 207Q370 198 393 198Q435 198 458 227T495 328L503 371L355 207Z"  />
<glyph unicode="&#xD9;" horiz-adv-x="752" d="M802 743Q813 743 816 737T819 723L742 286Q727 198 697 141T621 50T514 3T377 -10Q327 -10 278 2T191 43T130 116T106 227Q106 259 112 297L187 723Q189 731 196 737T212 743H407Q418 743 421 737T423 723L346 286Q344 275 343 266T342 249Q342 214 360 202T410 190Q429 190 444 194T472 208T492 237T506 286L583 723Q585 731 590 737T607 743H802ZM630 803Q630 794 620 794H478Q467 794 464 796T455 804L346 923Q343 927 343 930Q343 938 355 938H532Q544 938 549 935T559 923L628 811Q630 808 630 803Z"  />
<glyph unicode="&#xDA;" horiz-adv-x="752" d="M802 743Q813 743 816 737T819 723L742 286Q727 198 697 141T621 50T514 3T377 -10Q327 -10 278 2T191 43T130 116T106 227Q106 259 112 297L187 723Q189 731 196 737T212 743H407Q418 743 421 737T423 723L346 286Q344 275 343 266T342 249Q342 214 360 202T410 190Q429 190 444 194T472 208T492 237T506 286L583 723Q585 731 590 737T607 743H802ZM747 932Q747 927 741 923L590 804Q583 799 579 797T563 794H409Q401 794 401 800Q401 805 407 811L514 923Q522 931 527 934T545 938H736Q747 938 747 932Z"  />
<glyph unicode="&#xDB;" horiz-adv-x="752" d="M802 743Q813 743 816 737T819 723L742 286Q727 198 697 141T621 50T514 3T377 -10Q327 -10 278 2T191 43T130 116T106 227Q106 259 112 297L187 723Q189 731 196 737T212 743H407Q418 743 421 737T423 723L346 286Q344 275 343 266T342 249Q342 214 360 202T410 190Q429 190 444 194T472 208T492 237T506 286L583 723Q585 731 590 737T607 743H802ZM742 803Q742 794 732 794H594Q583 794 580 796T571 804L531 853L475 804Q469 799 464 797T448 794H298Q290 794 290 800Q290 805 296 811L399 923Q407 932 412 935T430 938H650Q662 938 667 935T677 923L740 811Q742 808 742 803Z"  />
<glyph unicode="&#xDC;" horiz-adv-x="752" d="M802 743Q813 743 816 737T819 723L742 286Q727 198 697 141T621 50T514 3T377 -10Q327 -10 278 2T191 43T130 116T106 227Q106 259 112 297L187 723Q189 731 196 737T212 743H407Q418 743 421 737T423 723L346 286Q344 275 343 266T342 249Q342 214 360 202T410 190Q429 190 444 194T472 208T492 237T506 286L583 723Q585 731 590 737T607 743H802ZM745 917L727 815Q725 806 717 800T700 794H561Q553 794 548 799T542 812V815L560 917Q562 926 569 932T586 938H725Q733 938 739 933T745 920V917ZM515 917L497 815Q495 806 487 800T470 794H331Q323 794 318 799T312 812V815L330 917Q332 926 339 932T356 938H495Q503 938 509 933T515 920V917Z"  />
<glyph unicode="&#xDD;" horiz-adv-x="709" d="M824 732Q824 727 821 723L614 379Q591 340 569 318T523 287L476 20Q474 12 470 6T451 0H256Q237 0 240 20L287 287Q267 296 253 318T228 379L142 723Q139 736 144 739T158 743H363Q376 743 380 737T386 723L427 475Q428 469 432 469Q436 469 439 475L567 723Q571 731 578 737T602 743H812Q824 743 824 732ZM734 932Q734 927 728 923L577 804Q570 799 566 797T550 794H396Q388 794 388 800Q388 805 394 811L501 923Q509 931 514 934T532 938H723Q734 938 734 932Z"  />
<glyph unicode="&#xDE;" horiz-adv-x="697" d="M743 463Q743 451 742 437T738 412L737 405Q726 327 693 276T610 196T500 156T372 144Q357 144 345 144T311 146L289 20Q287 12 280 6T265 0H73Q57 0 57 16V20L180 723Q182 731 189 737T204 743H396Q412 743 412 727V723L403 672H426Q435 672 444 672T461 673Q514 673 565 664T655 631T719 567T743 463ZM508 429Q508 456 489 466T431 476H369L345 341H407Q485 341 503 405L505 412Q506 415 507 420T508 429Z"  />
<glyph unicode="&#xDF;" horiz-adv-x="696" d="M751 577Q751 574 751 572T750 564L745 533Q737 486 713 455T648 400Q676 378 689 344T702 284V268V262L697 232Q686 166 659 120T592 45T506 3T406 -10Q392 -10 371 -9T335 -3Q319 1 319 14V17L344 160Q346 168 353 174T368 180H414Q446 180 457 193T473 232L478 262Q479 267 479 277Q479 295 466 305T418 316H395Q378 316 378 333V336L398 450Q400 458 407 464T422 470H445Q484 470 499 481T519 518L525 549Q526 553 526 561Q526 578 513 587T465 597Q444 597 428 594T399 583T378 558T365 516L278 20Q276 12 269 6T254 0H70Q62 0 58 5T54 17V20L141 516Q155 596 183 648T256 731T360 774T499 787Q572 787 621 768T698 718T739 654T751 589V577H751Z"  />
<glyph unicode="&#xE0;" horiz-adv-x="642" d="M654 576Q671 573 680 566T687 541L596 20Q594 12 591 6T576 0H433Q419 0 415 6T413 20L417 48Q400 33 383 22T348 4T306 -6T254 -10Q173 -10 126 38T78 173Q78 198 79 212T83 241L99 334Q113 415 142 466T214 548T309 589T423 600Q480 600 538 593T654 576ZM442 413Q418 416 399 416Q367 416 349 400T322 334L304 237Q301 220 301 208Q301 185 311 179T340 172Q355 172 372 177T402 188L442 413ZM554 644Q554 635 544 635H402Q391 635 388 637T379 645L270 764Q267 768 267 771Q267 779 279 779H456Q468 779 473 776T483 764L552 652Q554 649 554 644Z"  />
<glyph unicode="&#xE1;" horiz-adv-x="642" d="M654 576Q671 573 680 566T687 541L596 20Q594 12 591 6T576 0H433Q419 0 415 6T413 20L417 48Q400 33 383 22T348 4T306 -6T254 -10Q173 -10 126 38T78 173Q78 198 79 212T83 241L99 334Q113 415 142 466T214 548T309 589T423 600Q480 600 538 593T654 576ZM442 413Q418 416 399 416Q367 416 349 400T322 334L304 237Q301 220 301 208Q301 185 311 179T340 172Q355 172 372 177T402 188L442 413ZM686 773Q686 768 680 764L529 645Q522 640 518 638T502 635H348Q340 635 340 641Q340 646 346 652L453 764Q461 772 466 775T484 779H675Q686 779 686 773Z"  />
<glyph unicode="&#xE2;" horiz-adv-x="642" d="M654 576Q671 573 680 566T687 541L596 20Q594 12 591 6T576 0H433Q419 0 415 6T413 20L417 48Q400 33 383 22T348 4T306 -6T254 -10Q173 -10 126 38T78 173Q78 198 79 212T83 241L99 334Q113 415 142 466T214 548T309 589T423 600Q480 600 538 593T654 576ZM442 413Q418 416 399 416Q367 416 349 400T322 334L304 237Q301 220 301 208Q301 185 311 179T340 172Q355 172 372 177T402 188L442 413ZM657 644Q657 635 647 635H509Q498 635 495 637T486 645L446 694L390 645Q384 640 379 638T363 635H213Q205 635 205 641Q205 646 211 652L314 764Q322 773 327 776T345 779H565Q577 779 582 776T592 764L655 652Q657 649 657 644Z"  />
<glyph unicode="&#xE3;" horiz-adv-x="642" d="M654 576Q671 573 680 566T687 541L596 20Q594 12 591 6T576 0H433Q419 0 415 6T413 20L417 48Q400 33 383 22T348 4T306 -6T254 -10Q173 -10 126 38T78 173Q78 198 79 212T83 241L99 334Q113 415 142 466T214 548T309 589T423 600Q480 600 538 593T654 576ZM442 413Q418 416 399 416Q367 416 349 400T322 334L304 237Q301 220 301 208Q301 185 311 179T340 172Q355 172 372 177T402 188L442 413ZM670 784L664 744Q655 684 617 657T523 629Q500 629 476 635T431 653L395 673Q382 680 374 682T360 685Q355 685 351 683T344 672L341 656Q338 639 320 639H224Q209 639 209 652V656L214 689Q224 752 262 781T352 811Q375 811 401 805T449 787L485 767Q510 754 521 754Q529 754 531 757T536 768L539 784Q542 801 560 801H655Q670 801 670 788V784Z"  />
<glyph unicode="&#xE4;" horiz-adv-x="642" d="M654 576Q671 573 680 566T687 541L596 20Q594 12 591 6T576 0H433Q419 0 415 6T413 20L417 48Q400 33 383 22T348 4T306 -6T254 -10Q173 -10 126 38T78 173Q78 198 79 212T83 241L99 334Q113 415 142 466T214 548T309 589T423 600Q480 600 538 593T654 576ZM442 413Q418 416 399 416Q367 416 349 400T322 334L304 237Q301 220 301 208Q301 185 311 179T340 172Q355 172 372 177T402 188L442 413ZM660 758L642 656Q640 647 632 641T615 635H476Q468 635 463 640T457 653V656L475 758Q477 767 484 773T501 779H640Q648 779 654 774T660 761V758ZM430 758L412 656Q410 647 402 641T385 635H246Q238 635 233 640T227 653V656L245 758Q247 767 254 773T271 779H410Q418 779 424 774T430 761V758Z"  />
<glyph unicode="&#xE5;" horiz-adv-x="642" d="M654 576Q671 573 680 566T687 541L596 20Q594 12 591 6T576 0H433Q419 0 415 6T413 20L417 48Q400 33 383 22T348 4T306 -6T254 -10Q173 -10 126 38T78 173Q78 198 79 212T83 241L99 334Q113 415 142 466T214 548T309 589T423 600Q480 600 538 593T654 576ZM442 413Q418 416 399 416Q367 416 349 400T322 334L304 237Q301 220 301 208Q301 185 311 179T340 172Q355 172 372 177T402 188L442 413ZM568 763Q568 736 558 713T531 673T490 645T440 635Q413 635 390 645T350 672T322 713T312 763Q312 790 322 813T349 853T390 881T440 891Q467 891 490 881T530 854T558 813T568 763ZM478 764Q478 779 467 790T441 801Q427 801 416 791T405 764Q405 748 416 738T441 727Q456 727 467 738T478 764Z"  />
<glyph unicode="&#xE6;" horiz-adv-x="903" d="M930 385Q930 353 924 319L913 258Q911 249 904 243T888 237H586Q585 231 585 226T584 215Q584 191 601 182T661 173Q677 173 703 173T758 175T811 177T850 180H851H854Q870 180 870 168Q870 166 870 165T869 162L850 57Q848 44 843 39T826 28Q781 8 731 -1T612 -10Q581 -10 544 -2T482 21Q431 7 386 -1T295 -10Q236 -10 193 2T122 35T79 85T65 147V156Q65 161 65 167T67 180L69 190Q79 242 105 273T169 321T256 343T362 349H386L389 371Q390 375 390 382Q390 405 379 411T348 417Q303 417 259 415T169 411H168Q161 411 158 416T155 428V432L175 546Q177 555 182 560T200 571Q234 583 284 591T380 600Q444 600 482 588T547 555Q579 575 614 587T708 600Q766 600 808 584T877 539T917 471T930 385ZM723 385Q723 406 713 419T676 432Q644 432 629 412T606 349H719Q721 359 722 368T723 385ZM342 237Q316 237 300 226T278 190L276 180V176V170Q276 153 289 148T325 142Q333 142 340 142T356 144L373 237H342Z"  />
<glyph unicode="&#xE7;" horiz-adv-x="475" d="M539 564L515 428Q513 420 506 414T491 407H490Q466 407 440 410T383 413Q352 413 338 393T315 328L303 262Q301 251 300 241T299 222Q299 199 308 188T341 177Q371 177 398 180T450 183H451Q459 183 464 178T469 165V163V162L445 26Q443 17 437 13T421 7Q390 0 356 -5T277 -10Q225 -10 187 5T124 49T87 114T75 196Q75 227 81 262L93 328Q118 467 189 533T385 600Q429 600 466 594T523 583Q531 581 535 578T539 568V565V564ZM374 -50Q374 -55 368 -59L217 -178Q210 -183 206 -185T190 -188H40Q32 -188 32 -182Q32 -177 38 -171L147 -59Q155 -51 160 -48T178 -44H363Q374 -44 374 -50Z"  />
<glyph unicode="&#xE8;" horiz-adv-x="614" d="M641 387Q641 353 635 319L624 258Q622 249 615 243T599 237H297Q296 231 296 226T295 215Q295 191 312 182T372 173Q388 173 414 174T469 176T522 178T561 180Q573 181 577 177T580 162L561 57Q559 44 554 39T537 28Q516 20 488 13T429 1T364 -7T301 -10Q253 -10 212 3T140 42T92 107T74 198Q74 226 80 258L91 319Q105 397 134 450T205 537T301 585T419 600Q478 600 520 584T589 539T628 471T641 387ZM434 383Q434 406 424 419T387 432Q356 432 341 412T317 349H430Q432 359 433 367T434 383ZM511 644Q511 635 501 635H359Q348 635 345 637T336 645L227 764Q224 768 224 771Q224 779 236 779H413Q425 779 430 776T440 764L509 652Q511 649 511 644Z"  />
<glyph unicode="&#xE9;" horiz-adv-x="614" d="M641 387Q641 353 635 319L624 258Q622 249 615 243T599 237H297Q296 231 296 226T295 215Q295 191 312 182T372 173Q388 173 414 174T469 176T522 178T561 180Q573 181 577 177T580 162L561 57Q559 44 554 39T537 28Q516 20 488 13T429 1T364 -7T301 -10Q253 -10 212 3T140 42T92 107T74 198Q74 226 80 258L91 319Q105 397 134 450T205 537T301 585T419 600Q478 600 520 584T589 539T628 471T641 387ZM434 383Q434 406 424 419T387 432Q356 432 341 412T317 349H430Q432 359 433 367T434 383ZM665 773Q665 768 659 764L508 645Q501 640 497 638T481 635H327Q319 635 319 641Q319 646 325 652L432 764Q440 772 445 775T463 779H654Q665 779 665 773Z"  />
<glyph unicode="&#xEA;" horiz-adv-x="614" d="M641 387Q641 353 635 319L624 258Q622 249 615 243T599 237H297Q296 231 296 226T295 215Q295 191 312 182T372 173Q388 173 414 174T469 176T522 178T561 180Q573 181 577 177T580 162L561 57Q559 44 554 39T537 28Q516 20 488 13T429 1T364 -7T301 -10Q253 -10 212 3T140 42T92 107T74 198Q74 226 80 258L91 319Q105 397 134 450T205 537T301 585T419 600Q478 600 520 584T589 539T628 471T641 387ZM434 383Q434 406 424 419T387 432Q356 432 341 412T317 349H430Q432 359 433 367T434 383ZM654 644Q654 635 644 635H506Q495 635 492 637T483 645L443 694L387 645Q381 640 376 638T360 635H210Q202 635 202 641Q202 646 208 652L311 764Q319 773 324 776T342 779H562Q574 779 579 776T589 764L652 652Q654 649 654 644Z"  />
<glyph unicode="&#xEB;" horiz-adv-x="614" d="M641 387Q641 353 635 319L624 258Q622 249 615 243T599 237H297Q296 231 296 226T295 215Q295 191 312 182T372 173Q388 173 414 174T469 176T522 178T561 180Q573 181 577 177T580 162L561 57Q559 44 554 39T537 28Q516 20 488 13T429 1T364 -7T301 -10Q253 -10 212 3T140 42T92 107T74 198Q74 226 80 258L91 319Q105 397 134 450T205 537T301 585T419 600Q478 600 520 584T589 539T628 471T641 387ZM434 383Q434 406 424 419T387 432Q356 432 341 412T317 349H430Q432 359 433 367T434 383ZM652 758L634 656Q632 647 624 641T607 635H468Q460 635 455 640T449 653V656L467 758Q469 767 476 773T493 779H632Q640 779 646 774T652 761V758ZM422 758L404 656Q402 647 394 641T377 635H238Q230 635 225 640T219 653V656L237 758Q239 767 246 773T263 779H402Q410 779 416 774T422 761V758Z"  />
<glyph unicode="&#xEC;" horiz-adv-x="329" d="M377 569L281 22Q279 13 272 7T255 0H76Q57 0 57 19V22L153 569Q155 578 163 584T180 590H359Q377 590 377 573V569ZM399 644Q399 635 389 635H247Q236 635 233 637T224 645L115 764Q112 768 112 771Q112 779 124 779H301Q313 779 318 776T328 764L397 652Q399 649 399 644Z"  />
<glyph unicode="&#xED;" horiz-adv-x="329" d="M377 569L281 22Q279 13 272 7T255 0H76Q57 0 57 19V22L153 569Q155 578 163 584T180 590H359Q377 590 377 573V569ZM515 773Q515 768 509 764L358 645Q351 640 347 638T331 635H177Q169 635 169 641Q169 646 175 652L282 764Q290 772 295 775T313 779H504Q515 779 515 773Z"  />
<glyph unicode="&#xEE;" horiz-adv-x="329" d="M377 569L281 22Q279 13 272 7T255 0H76Q57 0 57 19V22L153 569Q155 578 163 584T180 590H359Q377 590 377 573V569ZM510 644Q510 635 500 635H362Q351 635 348 637T339 645L299 694L243 645Q237 640 232 638T216 635H66Q58 635 58 641Q58 646 64 652L167 764Q175 773 180 776T198 779H418Q430 779 435 776T445 764L508 652Q510 649 510 644Z"  />
<glyph unicode="&#xEF;" horiz-adv-x="329" d="M377 569L281 22Q279 13 272 7T255 0H76Q57 0 57 19V22L153 569Q155 578 163 584T180 590H359Q377 590 377 573V569ZM513 758L495 656Q493 647 485 641T468 635H329Q321 635 316 640T310 653V656L328 758Q330 767 337 773T354 779H493Q501 779 507 774T513 761V758ZM283 758L265 656Q263 647 255 641T238 635H99Q91 635 86 640T80 653V656L98 758Q100 767 107 773T124 779H263Q271 779 277 774T283 761V758Z"  />
<glyph unicode="&#xF0;" horiz-adv-x="620" d="M644 387Q644 338 635 284L633 272Q620 196 592 143T522 55T426 6T308 -10Q196 -10 136 46T76 203Q76 220 78 236T83 272L85 283Q99 359 127 412T197 500T291 549T410 565H414Q385 591 337 616L266 568Q257 562 252 562Q246 562 242 568L223 595Q221 599 221 601Q221 606 225 610T234 619L272 644L231 659Q218 663 218 671Q218 676 220 679L267 767Q272 778 282 778Q286 778 292 776Q357 758 408 736L483 786Q491 791 498 791Q505 791 508 786L527 759Q529 757 529 753Q529 744 517 737L469 705Q560 652 602 572T644 387ZM418 331Q418 360 408 370T377 381Q364 381 354 377T335 361T319 331T307 283L305 272Q303 258 302 246T300 224Q300 195 310 185T341 174Q354 174 364 178T383 194T399 224T411 272L413 283Q415 297 416 309T418 331Z"  />
<glyph unicode="&#xF1;" horiz-adv-x="652" d="M674 438Q674 421 672 403T667 368L606 22Q604 13 600 7T581 0H401Q379 0 383 22L444 368Q445 373 445 377T445 386Q445 401 433 409T402 417Q374 417 344 402L277 22Q275 13 272 7T253 0H73Q64 0 58 5T54 22L151 570Q153 578 159 584T174 590H339Q351 590 354 584T356 570L351 542Q391 570 430 585T522 600Q568 600 597 587T644 551T667 499T674 438ZM679 776L673 736Q664 676 626 649T532 621Q509 621 485 627T440 645L404 665Q391 672 383 674T369 677Q364 677 360 675T353 664L350 648Q347 631 329 631H233Q218 631 218 644V648L223 681Q233 744 271 773T361 803Q384 803 410 797T458 779L494 759Q519 746 530 746Q538 746 540 749T545 760L548 776Q551 793 569 793H664Q679 793 679 780V776Z"  />
<glyph unicode="&#xF2;" horiz-adv-x="620" d="M648 389Q648 372 646 355T641 318L633 272Q619 192 591 138T521 51T426 4T308 -10Q195 -10 136 46T77 204Q77 236 83 272L91 318Q104 396 132 450T202 537T298 585T416 600Q528 600 588 546T648 389ZM424 365Q424 394 414 405T383 416Q357 416 340 393T313 318L305 272Q303 258 302 247T300 225Q300 196 310 185T341 174Q354 174 364 178T383 194T399 224T411 272L419 318Q421 332 422 343T424 365ZM534 644Q534 635 524 635H382Q371 635 368 637T359 645L250 764Q247 768 247 771Q247 779 259 779H436Q448 779 453 776T463 764L532 652Q534 649 534 644Z"  />
<glyph unicode="&#xF3;" horiz-adv-x="620" d="M648 389Q648 372 646 355T641 318L633 272Q619 192 591 138T521 51T426 4T308 -10Q195 -10 136 46T77 204Q77 236 83 272L91 318Q104 396 132 450T202 537T298 585T416 600Q528 600 588 546T648 389ZM424 365Q424 394 414 405T383 416Q357 416 340 393T313 318L305 272Q303 258 302 247T300 225Q300 196 310 185T341 174Q354 174 364 178T383 194T399 224T411 272L419 318Q421 332 422 343T424 365ZM651 773Q651 768 645 764L494 645Q487 640 483 638T467 635H313Q305 635 305 641Q305 646 311 652L418 764Q426 772 431 775T449 779H640Q651 779 651 773Z"  />
<glyph unicode="&#xF4;" horiz-adv-x="620" d="M648 389Q648 372 646 355T641 318L633 272Q619 192 591 138T521 51T426 4T308 -10Q195 -10 136 46T77 204Q77 236 83 272L91 318Q104 396 132 450T202 537T298 585T416 600Q528 600 588 546T648 389ZM424 365Q424 394 414 405T383 416Q357 416 340 393T313 318L305 272Q303 258 302 247T300 225Q300 196 310 185T341 174Q354 174 364 178T383 194T399 224T411 272L419 318Q421 332 422 343T424 365ZM649 644Q649 635 639 635H501Q490 635 487 637T478 645L438 694L382 645Q376 640 371 638T355 635H205Q197 635 197 641Q197 646 203 652L306 764Q314 773 319 776T337 779H557Q569 779 574 776T584 764L647 652Q649 649 649 644Z"  />
<glyph unicode="&#xF5;" horiz-adv-x="620" d="M648 389Q648 372 646 355T641 318L633 272Q619 192 591 138T521 51T426 4T308 -10Q195 -10 136 46T77 204Q77 236 83 272L91 318Q104 396 132 450T202 537T298 585T416 600Q528 600 588 546T648 389ZM424 365Q424 394 414 405T383 416Q357 416 340 393T313 318L305 272Q303 258 302 247T300 225Q300 196 310 185T341 174Q354 174 364 178T383 194T399 224T411 272L419 318Q421 332 422 343T424 365ZM665 776L659 736Q650 676 612 649T518 621Q495 621 471 627T426 645L390 665Q377 672 369 674T355 677Q350 677 346 675T339 664L336 648Q333 631 315 631H219Q204 631 204 644V648L209 681Q219 744 257 773T347 803Q370 803 396 797T444 779L480 759Q505 746 516 746Q524 746 526 749T531 760L534 776Q537 793 555 793H650Q665 793 665 780V776Z"  />
<glyph unicode="&#xF6;" horiz-adv-x="620" d="M648 389Q648 372 646 355T641 318L633 272Q619 192 591 138T521 51T426 4T308 -10Q195 -10 136 46T77 204Q77 236 83 272L91 318Q104 396 132 450T202 537T298 585T416 600Q528 600 588 546T648 389ZM424 365Q424 394 414 405T383 416Q357 416 340 393T313 318L305 272Q303 258 302 247T300 225Q300 196 310 185T341 174Q354 174 364 178T383 194T399 224T411 272L419 318Q421 332 422 343T424 365ZM651 758L633 656Q631 647 623 641T606 635H467Q459 635 454 640T448 653V656L466 758Q468 767 475 773T492 779H631Q639 779 645 774T651 761V758ZM421 758L403 656Q401 647 393 641T376 635H237Q229 635 224 640T218 653V656L236 758Q238 767 245 773T262 779H401Q409 779 415 774T421 761V758Z"  />
<glyph unicode="&#xF7;" horiz-adv-x="640" d="M500 572Q500 564 494 558T479 552H305Q297 552 291 558T284 572V704Q284 712 290 718T305 724H479Q487 724 493 718T500 704V572ZM635 326Q635 318 629 314T615 310H170Q162 310 156 314T150 326V456Q150 464 156 468T170 472H615Q623 472 629 468T635 456V326ZM500 57Q500 49 494 43T479 37H305Q297 37 291 43T284 57V189Q284 197 290 203T305 209H479Q487 209 493 203T500 189V57Z"  />
<glyph unicode="&#xF8;" horiz-adv-x="620" d="M695 619Q695 612 689 606L610 520Q628 494 638 462T648 389Q648 372 646 355T641 318L633 272Q619 192 591 138T521 51T426 4T308 -10Q216 -10 160 28L112 -25Q106 -32 103 -33T94 -35H36Q29 -35 29 -29Q29 -22 35 -16L115 71Q77 124 77 204Q77 236 83 272L91 318Q104 396 132 450T202 537T298 585T416 600Q506 600 565 563L612 615Q618 622 621 623T630 625H688Q695 625 695 619ZM416 401Q406 416 383 416Q357 416 339 393T313 318L307 281L416 401ZM308 189Q318 174 341 174Q354 174 364 178T384 194T399 224T411 272L417 309L308 189Z"  />
<glyph unicode="&#xF9;" horiz-adv-x="652" d="M683 590Q692 590 698 586T702 568L605 20Q603 12 599 6T582 0H417Q409 0 404 4T400 20L405 48Q387 36 371 25T335 7T293 -5T239 -10Q196 -10 167 4T119 41T92 95T83 161Q83 192 89 222L150 568Q152 577 159 583T175 590H355Q377 590 373 568L315 238Q313 230 312 221T311 208Q311 188 323 181T354 173Q382 173 412 188L479 568Q481 577 485 583T503 590H683H683ZM544 644Q544 635 534 635H392Q381 635 378 637T369 645L260 764Q257 768 257 771Q257 779 269 779H446Q458 779 463 776T473 764L542 652Q544 649 544 644Z"  />
<glyph unicode="&#xFA;" horiz-adv-x="652" d="M683 590Q692 590 698 586T702 568L605 20Q603 12 599 6T582 0H417Q409 0 404 4T400 20L405 48Q387 36 371 25T335 7T293 -5T239 -10Q196 -10 167 4T119 41T92 95T83 161Q83 192 89 222L150 568Q152 577 159 583T175 590H355Q377 590 373 568L315 238Q313 230 312 221T311 208Q311 188 323 181T354 173Q382 173 412 188L479 568Q481 577 485 583T503 590H683H683ZM681 773Q681 768 675 764L524 645Q517 640 513 638T497 635H343Q335 635 335 641Q335 646 341 652L448 764Q456 772 461 775T479 779H670Q681 779 681 773Z"  />
<glyph unicode="&#xFB;" horiz-adv-x="652" d="M683 590Q692 590 698 586T702 568L605 20Q603 12 599 6T582 0H417Q409 0 404 4T400 20L405 48Q387 36 371 25T335 7T293 -5T239 -10Q196 -10 167 4T119 41T92 95T83 161Q83 192 89 222L150 568Q152 577 159 583T175 590H355Q377 590 373 568L315 238Q313 230 312 221T311 208Q311 188 323 181T354 173Q382 173 412 188L479 568Q481 577 485 583T503 590H683H683ZM664 644Q664 635 654 635H516Q505 635 502 637T493 645L453 694L397 645Q391 640 386 638T370 635H220Q212 635 212 641Q212 646 218 652L321 764Q329 773 334 776T352 779H572Q584 779 589 776T599 764L662 652Q664 649 664 644Z"  />
<glyph unicode="&#xFC;" horiz-adv-x="652" d="M683 590Q692 590 698 586T702 568L605 20Q603 12 599 6T582 0H417Q409 0 404 4T400 20L405 48Q387 36 371 25T335 7T293 -5T239 -10Q196 -10 167 4T119 41T92 95T83 161Q83 192 89 222L150 568Q152 577 159 583T175 590H355Q377 590 373 568L315 238Q313 230 312 221T311 208Q311 188 323 181T354 173Q382 173 412 188L479 568Q481 577 485 583T503 590H683H683ZM670 758L652 656Q650 647 642 641T625 635H486Q478 635 473 640T467 653V656L485 758Q487 767 494 773T511 779H650Q658 779 664 774T670 761V758ZM440 758L422 656Q420 647 412 641T395 635H256Q248 635 243 640T237 653V656L255 758Q257 767 264 773T281 779H420Q428 779 434 774T440 761V758Z"  />
<glyph unicode="&#xFD;" horiz-adv-x="656" d="M730 590Q738 590 741 585T740 569L464 -31Q446 -70 424 -102T369 -158T292 -193T184 -206Q167 -206 146 -204T104 -199T65 -193T37 -185Q24 -180 20 -177T18 -165L38 -51Q40 -43 44 -35T65 -29Q81 -30 100 -31T139 -34T178 -35T214 -36Q247 -36 258 -13L273 21H260Q246 21 233 23T208 34T189 58T177 99L116 569Q114 581 120 585T142 590H333Q342 590 345 584T349 569L362 257Q362 243 369 243H376L497 569Q500 577 505 583T523 590H730H730ZM685 773Q685 768 679 764L528 645Q521 640 517 638T501 635H347Q339 635 339 641Q339 646 345 652L452 764Q460 772 465 775T483 779H674Q685 779 685 773Z"  />
<glyph unicode="&#xFE;" horiz-adv-x="636" d="M666 397Q666 367 660 334L646 256Q623 124 544 57T324 -10Q315 -10 298 -8T271 -4L242 -168Q240 -177 234 -183T219 -189H40Q32 -189 26 -184T20 -171V-169V-168L184 759Q186 767 192 773T207 779H389Q397 779 401 774T406 762V760V759L378 599Q392 600 405 600T432 600Q540 600 603 550T666 397ZM441 366Q441 389 432 402T399 416Q379 416 369 416T345 413L303 177Q316 175 328 175T357 174Q388 174 403 197T424 256L438 334Q441 352 441 366Z"  />
<glyph unicode="&#xFF;" horiz-adv-x="656" d="M730 590Q738 590 741 585T740 569L464 -31Q446 -70 424 -102T369 -158T292 -193T184 -206Q167 -206 146 -204T104 -199T65 -193T37 -185Q24 -180 20 -177T18 -165L38 -51Q40 -43 44 -35T65 -29Q81 -30 100 -31T139 -34T178 -35T214 -36Q247 -36 258 -13L273 21H260Q246 21 233 23T208 34T189 58T177 99L116 569Q114 581 120 585T142 590H333Q342 590 345 584T349 569L362 257Q362 243 369 243H376L497 569Q500 577 505 583T523 590H730H730ZM668 758L650 656Q648 647 640 641T623 635H484Q476 635 471 640T465 653V656L483 758Q485 767 492 773T509 779H648Q656 779 662 774T668 761V758ZM438 758L420 656Q418 647 410 641T393 635H254Q246 635 241 640T235 653V656L253 758Q255 767 262 773T279 779H418Q426 779 432 774T438 761V758Z"  />
<glyph unicode="&#x131;" horiz-adv-x="329" d="M377 569L281 22Q279 13 272 7T255 0H76Q57 0 57 19V22L153 569Q155 578 163 584T180 590H359Q377 590 377 573V569Z"  />
<glyph unicode="&#x152;" horiz-adv-x="980" d="M1057 722L1031 571Q1029 563 1022 557T1007 551H806Q787 551 780 545T768 519L758 465H992Q1008 465 1008 449V445L984 304Q982 296 975 290T960 284H726L715 224Q714 220 714 212Q714 192 743 192H944Q960 192 960 176V172L934 21Q932 13 925 8T910 1Q878 -3 826 -6T707 -10Q660 -10 615 -3T535 29Q493 9 448 0T356 -10Q302 -10 254 2T169 44T111 121T89 237Q89 278 98 328L113 415Q129 511 167 575T256 679T368 736T491 753Q537 753 579 744T656 714Q699 738 747 745T842 753Q908 753 959 750T1041 742Q1057 740 1057 726V722ZM516 474Q516 512 501 528T454 545Q412 545 388 516T352 415L337 328Q331 293 331 269Q331 231 346 215T393 198Q435 198 459 227T495 328L510 415Q516 449 516 474Z"  />
<glyph unicode="&#x153;" horiz-adv-x="944" d="M971 387Q971 353 965 319L954 258Q952 249 945 243T929 237H627Q626 231 626 226T625 215Q625 191 642 182T702 173Q718 173 744 173T799 175T852 177T891 180H895Q911 180 911 167Q911 166 911 165T910 162L891 57Q889 44 884 39T867 28Q816 8 754 -1T631 -10Q586 -10 548 3T482 40Q444 16 401 3T308 -10Q196 -10 137 46T77 205Q77 237 83 272L91 318Q105 397 133 451T203 538T298 585T416 600Q466 600 506 583T570 547Q611 581 655 590T749 600Q807 600 849 584T918 539T958 471T971 387ZM763 381Q763 404 753 418T717 432Q686 432 670 409T647 349H760Q763 365 763 381ZM424 365Q424 394 414 405T383 416Q370 416 360 412T341 396T325 366T313 318L305 272Q303 258 302 247T300 225Q300 196 310 185T341 174Q354 174 364 178T383 194T399 224T411 272L419 318Q421 332 422 343T424 365Z"  />
<glyph unicode="&#x160;" horiz-adv-x="624" d="M674 725Q682 723 687 719T690 705L664 556Q662 547 659 541T641 536Q621 538 592 540T529 545T462 549T400 551Q391 551 384 547T376 534Q376 527 382 521T408 503L536 428Q588 397 610 354T632 266Q632 194 604 142T528 56T420 6T294 -10Q229 -10 177 -2T85 20Q78 22 72 27T67 40L93 189Q95 198 99 204T118 209Q133 207 159 205T214 199T274 194T330 192Q347 192 359 199T372 222Q372 232 368 239T350 254L215 341Q190 357 174 377T147 419T133 464T128 508Q128 578 152 625T219 700T317 741T436 753Q468 753 503 751T571 744T631 735T674 725ZM694 932Q694 927 688 921L580 809Q572 801 566 798T548 794H328Q316 794 312 797T302 809L232 921Q229 925 229 929Q229 938 240 938H390Q401 938 405 936T414 928L454 883L510 928Q517 933 521 935T536 938H686Q694 938 694 932Z"  />
<glyph unicode="&#x161;" horiz-adv-x="540" d="M567 573Q578 570 582 567T584 552L561 422Q559 411 556 405T537 401Q526 403 503 406T453 412T402 417T362 419Q355 419 347 418T339 408Q339 402 342 398T361 386L440 344Q473 326 493 308T523 270T537 231T540 191Q540 137 519 99T459 37T366 1T247 -10Q182 -10 138 -2T65 16Q47 23 50 38L72 163Q74 175 80 181T102 186Q126 182 151 179T198 173T240 169T272 167Q284 167 297 170T311 190Q311 195 308 199T292 210L203 259Q114 309 114 401Q114 461 136 499T196 560T281 591T381 600Q437 600 486 591T567 573ZM639 773Q639 768 633 762L525 650Q517 642 511 639T493 635H273Q261 635 257 638T247 650L177 762Q174 766 174 770Q174 779 185 779H335Q346 779 350 777T359 769L399 724L455 769Q462 774 466 776T481 779H631Q639 779 639 773Z"  />
<glyph unicode="&#x178;" horiz-adv-x="709" d="M824 732Q824 727 821 723L614 379Q591 340 569 318T523 287L476 20Q474 12 470 6T451 0H256Q237 0 240 20L287 287Q267 296 253 318T228 379L142 723Q139 736 144 739T158 743H363Q376 743 380 737T386 723L427 475Q428 469 432 469Q436 469 439 475L567 723Q571 731 578 737T602 743H812Q824 743 824 732ZM733 917L715 815Q713 806 705 800T688 794H549Q541 794 536 799T530 812V815L548 917Q550 926 557 932T574 938H713Q721 938 727 933T733 920V917ZM503 917L485 815Q483 806 475 800T458 794H319Q311 794 306 799T300 812V815L318 917Q320 926 327 932T344 938H483Q491 938 497 933T503 920V917Z"  />
<glyph unicode="&#x17D;" horiz-adv-x="629" d="M686 743Q706 743 702 723L678 583Q675 567 666 552T645 524L396 222Q390 214 390 209Q390 202 402 202H594Q606 202 609 196T611 182L583 20Q581 12 577 6T558 0H70Q54 0 54 16V20L76 150Q78 163 85 175T106 205L362 520Q369 528 369 534Q369 541 358 541H168Q156 541 153 547T152 561L180 723Q182 731 187 737T204 743H686H686ZM723 932Q723 927 717 921L609 809Q601 801 595 798T577 794H357Q345 794 341 797T331 809L261 921Q258 925 258 929Q258 938 269 938H419Q430 938 434 936T443 928L483 883L539 928Q546 933 550 935T565 938H715Q723 938 723 932Z"  />
<glyph unicode="&#x17E;" horiz-adv-x="567" d="M600 590Q608 590 613 586T617 570L598 463Q596 455 595 449T590 437T580 424T563 405L370 194Q363 185 363 182Q363 175 373 175H531Q538 175 542 173T545 159L521 20Q519 12 515 6T497 0H70Q51 0 54 20L72 125Q75 141 79 151T97 175L302 397Q309 406 309 409Q309 415 299 415H144Q128 415 131 431L156 570Q158 578 162 584T179 590H600H600ZM656 773Q656 768 650 762L542 650Q534 642 528 639T510 635H290Q278 635 274 638T264 650L194 762Q191 766 191 770Q191 779 202 779H352Q363 779 367 777T376 769L416 724L472 769Q479 774 483 776T498 779H648Q656 779 656 773Z"  />
<glyph unicode="&#x192;" horiz-adv-x="670" d="M727 775Q727 771 726 768L702 659Q700 650 693 644T676 638H604Q585 638 574 637T557 631T547 621T542 604L513 475H639Q656 475 656 459Q656 457 656 457T655 454L627 333Q625 324 618 318T601 311H475L406 10Q392 -49 365 -87T302 -147T224 -177T136 -186Q102 -186 67 -183T14 -175Q-3 -171 -3 -161Q-3 -157 -2 -154L22 -45Q24 -36 31 -30T48 -24H120Q139 -24 150 -23T167 -17T177 -7T182 10L251 311H126Q118 311 114 316T109 328Q109 330 109 330T110 333L138 454Q140 463 147 469T164 475H289L318 604Q331 663 358 701T421 761T499 791T587 800Q621 800 657 797T710 789Q727 785 727 775Z"  />
<glyph unicode="&#x2C6;" horiz-adv-x="500" d="M589 644Q589 635 579 635H441Q430 635 427 637T418 645L378 694L322 645Q316 640 311 638T295 635H145Q137 635 137 641Q137 646 143 652L246 764Q254 773 259 776T277 779H497Q509 779 514 776T524 764L587 652Q589 649 589 644Z"  />
<glyph unicode="&#x2DC;" horiz-adv-x="500" d="M602 776L596 736Q587 676 549 649T455 621Q432 621 408 627T363 645L327 665Q314 672 306 674T292 677Q287 677 283 675T276 664L273 648Q270 631 252 631H156Q141 631 141 644V648L146 681Q156 744 194 773T284 803Q307 803 333 797T381 779L417 759Q442 746 453 746Q461 746 463 749T468 760L471 776Q474 793 492 793H587Q602 793 602 780V776Z"  />
<glyph unicode="&#x2013;" horiz-adv-x="339" d="M397 244Q395 236 388 230T373 224H44Q36 224 31 230T28 244L46 350Q48 358 55 364T70 370H399Q407 370 412 364T415 350L397 244H397Z"  />
<glyph unicode="&#x2014;" horiz-adv-x="662" d="M720 244Q718 236 711 230T696 224H44Q36 224 31 230T28 244L46 350Q48 358 55 364T70 370H722Q730 370 735 364T738 350L720 244H720Z"  />
<glyph unicode="&#x2018;" horiz-adv-x="290" d="M412 772Q412 766 409 760L305 518Q297 499 282 499H113Q103 499 103 508Q103 512 106 518L237 760Q242 770 246 774T259 779H404Q412 779 412 772Z"  />
<glyph unicode="&#x2019;" horiz-adv-x="290" d="M412 770Q412 766 409 760L278 518Q273 508 269 504T256 499H111Q103 499 103 506Q103 512 106 518L210 760Q218 779 233 779H402Q412 779 412 770Z"  />
<glyph unicode="&#x201A;" horiz-adv-x="290" d="M317 180Q317 176 314 172L158 -80Q153 -88 148 -94T134 -100H7Q0 -100 -5 -96T-10 -86Q-10 -82 -9 -80L105 172Q109 180 115 186T130 192H303Q317 192 317 180Z"  />
<glyph unicode="&#x201C;" horiz-adv-x="547" d="M669 772Q669 766 666 760L562 518Q554 499 539 499H370Q360 499 360 508Q360 512 363 518L494 760Q499 770 503 774T516 779H661Q669 779 669 772ZM412 772Q412 766 409 760L305 518Q297 499 282 499H113Q103 499 103 508Q103 512 106 518L237 760Q242 770 246 774T259 779H404Q412 779 412 772Z"  />
<glyph unicode="&#x201D;" horiz-adv-x="547" d="M669 770Q669 766 666 760L535 518Q530 508 526 504T513 499H368Q360 499 360 506Q360 512 363 518L467 760Q475 779 490 779H659Q669 779 669 770ZM412 770Q412 766 409 760L278 518Q273 508 269 504T256 499H111Q103 499 103 506Q103 512 106 518L210 760Q218 779 233 779H402Q412 779 412 770Z"  />
<glyph unicode="&#x201E;" horiz-adv-x="547" d="M585 180Q585 175 583 172L427 -80Q422 -88 417 -94T403 -100H276Q269 -100 264 -96T259 -86Q259 -82 260 -80L374 172Q378 180 384 186T398 192H571Q585 192 585 180ZM305 180Q305 175 303 172L147 -80Q142 -88 137 -94T123 -100H-4Q-11 -100 -16 -96T-21 -86Q-21 -82 -20 -80L94 172Q98 180 104 186T118 192H291Q305 192 305 180Z"  />
<glyph unicode="&#x2020;" horiz-adv-x="470" d="M549 592L523 442Q520 426 501 426H422L349 14Q347 6 343 0T330 -6H138Q125 -6 125 9V14L198 426H119Q103 426 103 439V442L129 592Q132 607 151 607H230L257 760Q259 768 264 773T277 779H468Q475 779 478 775T481 764V760L454 607H533Q549 607 549 595V592Z"  />
<glyph unicode="&#x2021;" horiz-adv-x="470" d="M549 592L523 442Q520 426 501 426H422L410 358H489Q505 358 505 346V343L479 193Q476 177 457 177H378L349 14Q347 6 343 0T330 -6H138Q125 -6 125 9V14L154 177H75Q59 177 59 190V193L85 343Q88 358 107 358H186L198 426H119Q103 426 103 439V442L129 592Q132 607 151 607H230L257 760Q259 768 264 773T277 779H468Q475 779 478 775T481 764V760L454 607H533Q549 607 549 595V592Z"  />
<glyph unicode="&#x2022;" horiz-adv-x="418" d="M443 367Q443 331 430 300T392 244T337 207T269 193Q233 193 202 206T146 244T109 299T95 367Q95 403 108 434T146 490T201 527T269 541Q305 541 336 528T392 490T429 435T443 367Z"  />
<glyph unicode="&#x2026;" horiz-adv-x="888" d="M878 172L852 20Q850 12 843 6T827 0H653Q636 0 636 17V20L662 172Q664 180 671 186T687 192H861Q878 192 878 175V172ZM582 172L556 20Q554 12 547 6T531 0H357Q340 0 340 17V20L366 172Q368 180 375 186T391 192H565Q582 192 582 175V172ZM286 172L260 20Q258 12 251 6T235 0H61Q44 0 44 17V20L70 172Q72 180 79 186T95 192H269Q286 192 286 175V172Z"  />
<glyph unicode="&#x2030;" horiz-adv-x="1256" d="M1266 282Q1266 257 1262 234L1252 174Q1235 75 1187 35T1062 -6Q996 -6 964 30T932 128Q932 139 933 150T936 174L946 234Q954 285 970 319T1011 375T1066 405T1136 414Q1202 414 1234 380T1266 282ZM906 282Q906 257 902 234L892 174Q875 75 827 35T702 -6Q636 -6 604 30T572 128Q572 139 573 150T576 174L586 234Q594 285 610 319T651 375T706 405T776 414Q842 414 874 380T906 282ZM876 734Q876 729 871 722L334 22Q326 11 320 6T305 0H163Q152 0 152 11Q152 17 156 22L693 722Q702 733 708 738T724 743H866Q876 743 876 734ZM455 616Q455 591 451 568L441 508Q424 409 376 369T251 328Q185 328 153 364T121 462Q121 473 122 484T125 508L135 568Q143 619 159 653T200 709T255 739T325 748Q391 748 423 714T455 616ZM1135 275Q1135 293 1130 298T1116 303Q1110 303 1104 301T1093 292T1084 271T1076 234L1066 174Q1064 160 1063 150T1062 132Q1062 114 1067 109T1081 104Q1087 104 1093 106T1104 116T1113 137T1121 174L1131 234Q1133 248 1134 257T1135 275ZM775 275Q775 293 770 298T756 303Q750 303 744 301T733 292T724 271T716 234L706 174Q704 160 703 150T702 132Q702 114 707 109T721 104Q727 104 733 106T744 116T753 137T761 174L771 234Q773 248 774 257T775 275ZM324 609Q324 627 319 632T305 637Q299 637 293 635T282 626T273 605T265 568L255 508Q253 494 252 484T251 466Q251 448 256 443T270 438Q276 438 282 440T293 450T302 471T310 508L320 568Q322 582 323 591T324 609Z"  />
<glyph unicode="&#x2039;" horiz-adv-x="436" d="M503 523Q503 516 495 508L276 294L404 80Q408 72 408 69Q408 57 394 57H234Q226 57 219 58T208 67L82 273Q74 286 74 297Q74 313 90 331L273 521Q279 528 287 529T303 531H493Q503 531 503 523Z"  />
<glyph unicode="&#x203A;" horiz-adv-x="436" d="M463 291Q463 275 447 257L264 67Q258 60 250 59T234 57H44Q34 57 34 65Q34 72 42 80L261 294L133 508Q129 516 129 519Q129 531 143 531H303Q311 531 318 530T329 521L455 315Q463 302 463 291Z"  />
<glyph unicode="&#x20AC;" horiz-adv-x="670" d="M710 717Q710 716 710 715T709 712L683 567Q680 549 664 549H660Q652 550 639 552T610 555T580 558T552 560Q534 560 517 558T486 547T461 524T443 485H600Q614 485 614 476Q614 471 611 465L591 418Q586 405 582 402T568 398H419L410 347H546Q561 347 561 337Q561 333 558 327L538 280Q534 272 529 266T516 260H402V255V245Q402 224 409 212T428 194T456 185T490 183Q518 183 547 187T597 194H601Q615 194 615 181Q615 180 615 179T614 176L588 31Q586 21 582 18T564 9Q538 1 505 -4T429 -10Q363 -10 313 9T228 62T177 142T160 245V254V260H102Q95 260 91 265T87 276V280L96 327Q98 335 103 341T116 347H171L180 398H127Q112 398 112 414V418L120 465Q122 473 127 479T141 485H200Q231 627 316 690T547 753Q568 753 589 751T631 747T666 741T691 734Q699 731 704 728T710 717Z"  />
<glyph unicode="&#x2122;" horiz-adv-x="863" d="M927 352Q927 342 916 342H807Q796 342 796 352V586V589Q796 603 796 611T791 624T780 630T757 632V352Q757 342 746 342H637Q626 342 626 352V632Q615 632 606 632T586 630V352Q586 342 575 342H467Q462 342 459 344T455 352V694Q455 720 463 729T493 740Q516 742 542 743T595 746T646 747T691 748Q752 748 797 743T870 721T913 672T927 586V352ZM427 648Q427 637 416 637H346V352Q346 342 336 342H222Q211 342 211 352V637H140Q129 637 129 648V732Q129 743 140 743H416Q427 743 427 732V648Z"  />

</font>
</defs>
</svg>
