<?xml  version="1.0" encoding="UTF-8"?>
<!DOCTYPE svg PUBLIC "-//W3C//DTD SVG 1.0//EN" "http://www.w3.org/TR/2001/REC-SVG-20010904/DTD/svg10.dtd" >
<svg xmlns="http://www.w3.org/2000/svg" >
<metadata>
<version>1.0</version>
<id><![CDATA[Neo Sans W01 Bold Italic]]></id>
<vendor>Monotype Imaging Inc.</vendor>
<credits>
<name>Fonts.com WebFonts</name>
<URL>http://webfonts.fonts.com</URL>
<role>Home of the Web fonts</role>
</credits>
<license>
<URL>http://webfonts.fonts.com/Legal</URL>
</license>
<copyright><![CDATA[Copyright 2004 Monotype Imaging Inc. All Rights Reserved. Neo Sans is designed by Sebastian Lester.]]></copyright>
<trademark><![CDATA[Neo Sans is a trademark of Monotype Imaging Inc. and may be registered in certain jurisdictions.]]></trademark>
<licensee>
<name></name>
</licensee>
</metadata>
<defs >
<font horiz-adv-x="560" id="5946ff35-b866-4617-8dd1-8ce5133ff617">
<font-face font-family="" panose-1="2 11 8 4 3 5 4 9 2 4" ascent="1012" descent="-216" units-per-em="1000" alphabetic="0">
</font-face>
<missing-glyph horiz-adv-x="0" />

<glyph unicode="&#xA;" />
<glyph unicode="&#xD;" horiz-adv-x="0" />
<glyph unicode=" " horiz-adv-x="250" />
<glyph unicode="!" horiz-adv-x="273" d="M352 747L244 248Q242 240 235 234T220 227H135Q127 227 122 232T117 245V248L185 747Q186 755 194 761T210 767H335Q352 767 352 751V747ZM241 146L219 20Q217 12 211 6T196 0H78Q62 0 62 16V20L84 146Q86 154 92 159T107 165H225Q241 165 241 150V146Z"  />
<glyph unicode="&quot;" horiz-adv-x="472" d="M582 759Q582 754 579 748L465 529Q460 519 456 515T443 510H342Q334 510 334 517Q334 521 337 529L430 748Q438 767 453 767H572Q582 767 582 759ZM363 759Q363 754 360 748L246 529Q241 519 237 515T224 510H123Q115 510 115 517Q115 521 118 529L211 748Q219 767 234 767H353Q363 767 363 759Z"  />
<glyph unicode="#" horiz-adv-x="699" d="M747 541Q747 539 747 539T746 537L720 461Q718 456 713 453T703 450H618L575 289H659Q665 289 670 286T675 276Q675 275 675 275T674 273L651 202Q649 197 643 192T632 187H548L504 19Q502 11 497 6T483 0H381Q367 0 367 14Q367 15 367 16T368 19L412 187H299L254 19Q252 11 247 6T233 0H130Q116 0 116 14Q116 16 116 16T117 19L161 187H76Q64 187 64 197Q64 200 65 202L90 277Q93 289 106 289H189L231 450H146Q134 450 134 459Q134 462 135 464L160 541Q162 546 167 549T178 552H258L304 724Q306 732 312 737T326 743H429Q442 743 442 729Q442 728 442 727T441 724L395 552H508L555 724Q557 732 563 737T577 743H679Q692 743 692 730Q692 726 691 724L644 552H731Q737 552 742 549T747 541ZM369 450L326 289H439L482 450H369Z"  />
<glyph unicode="$" horiz-adv-x="645" d="M671 711L654 612Q652 604 647 599T633 594H631Q585 599 529 602T421 605Q402 605 386 603T358 593T340 573T333 539Q333 523 344 511T386 479L501 410Q560 375 583 332T607 243Q607 191 591 149T545 75T474 24T381 -1L364 -95Q362 -103 356 -109T341 -115H231Q214 -115 214 -98V-95L230 -6Q193 -4 163 1T106 13Q91 16 91 30V33L108 131Q110 139 116 144T130 150H132Q147 148 171 146T223 142T275 139T319 138Q342 138 361 141T394 154T415 179T423 221Q423 238 412 252T372 286L249 368Q198 402 178 444T157 526Q157 576 172 614T214 679T278 722T362 745L378 832Q380 840 387 846T402 852H512Q528 852 528 836V832L513 749Q557 746 596 741T656 730Q662 728 666 724T671 714V711Z"  />
<glyph unicode="%" horiz-adv-x="839" d="M848 280Q848 258 844 238L831 163Q814 67 769 29T652 -9Q592 -9 562 27T531 121Q531 143 535 163L548 238Q557 287 572 320T610 372T661 400T726 409Q784 409 816 375T848 280ZM827 737Q827 730 821 723L282 21Q274 10 269 5T255 0H152Q143 0 143 8Q143 15 148 21L687 723Q696 734 702 738T716 743H819Q827 743 827 737ZM440 623Q440 601 436 581L423 506Q406 410 361 372T244 334Q184 334 154 370T123 464Q123 486 127 506L140 581Q149 630 164 663T202 715T253 743T318 752Q376 752 408 718T440 623ZM747 278Q747 304 738 313T711 323Q689 323 673 306T648 238L635 163Q633 151 632 141T631 123Q631 97 640 87T667 77Q689 77 705 94T730 163L743 238Q745 250 746 260T747 278ZM339 621Q339 647 330 656T303 666Q281 666 265 649T240 581L227 506Q225 494 224 484T223 466Q223 440 232 430T259 420Q281 420 297 437T322 506L335 581Q337 593 338 603T339 621Z"  />
<glyph unicode="&amp;" horiz-adv-x="732" d="M728 358L727 350Q720 293 698 240T630 132L713 24Q717 18 717 15Q717 9 713 5T702 0H560Q554 0 551 1T544 8L520 40Q478 17 430 4T325 -9Q277 -9 233 0T156 31T103 88T83 176Q83 218 97 250T134 307T188 352T252 390L245 399Q208 447 198 484T187 550Q187 609 208 648T267 710T351 742T452 752Q501 752 539 741T602 709T641 660T654 599Q654 558 641 527T605 470T552 423T487 383L452 363L558 226Q570 246 581 274T598 350L599 358Q600 366 606 372T620 378H713Q728 378 728 361V358ZM505 591Q505 614 488 627T436 640Q389 640 361 619T332 549Q332 533 339 515T372 467L379 459L408 475Q426 485 443 495T474 519T496 550T505 591ZM326 293Q306 282 291 271T266 246T252 215T247 176Q247 139 270 123T346 107Q406 107 450 130L326 293Z"  />
<glyph unicode="&apos;" horiz-adv-x="253" d="M363 759Q363 754 360 748L246 529Q241 519 237 515T224 510H123Q115 510 115 517Q115 521 118 529L211 748Q219 767 234 767H353Q363 767 363 759Z"  />
<glyph unicode="(" horiz-adv-x="361" d="M462 735Q462 728 454 717Q352 574 300 422T248 95Q248 17 259 -50T288 -168Q291 -174 291 -181Q291 -194 277 -194H187Q163 -194 155 -180Q120 -117 103 -39T86 125Q86 207 100 288T141 447T210 596T306 729Q314 737 322 740T342 743H452Q462 743 462 735Z"  />
<glyph unicode=")" horiz-adv-x="361" d="M371 418Q371 337 357 256T316 99T247 -48T152 -180Q144 -188 136 -191T116 -194H6Q-5 -194 -5 -186Q-5 -178 3 -168Q106 -25 158 129T211 460Q211 539 200 602T169 717Q167 725 167 729Q167 743 181 743H271Q295 743 303 729Q331 677 351 597T371 418Z"  />
<glyph unicode="*" horiz-adv-x="479" d="M545 570Q545 560 530 555L415 521L487 423Q492 415 492 409Q492 401 486 397L434 359Q429 356 425 356Q416 356 409 366L340 466L271 366Q264 356 255 356Q250 356 246 359L193 397Q186 401 186 409Q186 412 188 415T192 423L264 521L150 555Q134 560 134 571Q134 574 135 576L155 639Q158 649 168 649Q171 649 173 649T179 647L294 609L291 728Q291 736 295 742T307 749H373Q381 749 384 743T388 728L387 609L500 647Q503 648 505 648T511 649Q521 649 524 639L544 576Q545 574 545 570Z"  />
<glyph unicode="+" horiz-adv-x="645" d="M651 346Q651 338 645 334T631 330H461V161Q461 153 457 147T445 141H355Q347 141 343 147T339 161V330H170Q162 330 156 334T150 346V436Q150 444 156 448T170 452H339V622Q339 630 343 636T355 642H445Q453 642 457 636T461 622V452H631Q639 452 645 448T651 436V346H651Z"  />
<glyph unicode="&#x2c;" horiz-adv-x="274" d="M258 155Q258 150 255 146L119 -78Q114 -86 110 -92T97 -98H9Q-6 -98 -6 -85Q-6 -82 -4 -78L100 146Q109 165 123 165H245Q258 165 258 155Z"  />
<glyph unicode="-" horiz-adv-x="302" d="M328 341L315 267Q313 259 307 254T292 249H98Q81 249 81 264V267L94 341Q96 349 102 354T117 360H311Q328 360 328 344V341Z"  />
<glyph unicode="." horiz-adv-x="274" d="M242 146L220 20Q218 12 211 6T196 0H79Q62 0 62 17V20L84 146Q86 154 93 159T108 165H225Q242 165 242 149V146Z"  />
<glyph unicode="/" horiz-adv-x="405" d="M519 730Q519 727 517 723L183 21Q179 13 173 7T159 0H32Q16 0 16 14Q16 17 18 21L353 723Q357 731 363 737T377 743H504Q510 743 514 740T519 730Z"  />
<glyph unicode="0" horiz-adv-x="645" d="M678 513Q678 468 669 414L654 328Q638 235 611 171T543 66T448 9T324 -9Q225 -9 166 50T106 230Q106 275 115 328L130 414Q147 514 176 579T246 682T340 736T459 752Q562 752 620 692T678 513ZM509 515Q509 571 489 590T434 610Q410 610 390 601T354 570T324 510T301 414L286 328Q281 296 278 271T275 226Q275 171 294 152T349 133Q372 133 392 141T428 171T458 231T483 328L498 414Q509 478 509 515Z"  />
<glyph unicode="1" horiz-adv-x="645" d="M279 142L354 572L214 516Q206 513 202 513Q191 513 193 526L213 640Q216 650 226 654L422 739Q431 743 446 743H536Q554 743 551 724L449 142H582Q601 142 598 123L580 20Q578 12 572 6T557 0H121Q113 0 108 6T104 20L122 123Q124 131 131 136T146 142H279Z"  />
<glyph unicode="2" horiz-adv-x="645" d="M679 597Q679 516 640 463T528 366L433 309Q405 292 378 277T328 243T288 200T262 142H573Q590 142 590 126V124V123L572 20Q570 12 563 6T548 0H103Q87 0 87 16V19V20L105 122Q119 205 165 271T285 384L389 449Q426 472 449 487T487 516T506 541T512 570Q512 595 491 606T416 617Q370 617 317 613T217 604H215Q200 604 200 620V624L214 702Q217 716 236 721Q281 734 336 743T455 752Q568 752 623 711T679 597Z"  />
<glyph unicode="3" horiz-adv-x="645" d="M677 582Q677 518 647 463T556 380Q584 363 603 329T622 256Q622 186 598 136T533 54T435 6T315 -9Q256 -9 203 -1T113 19Q107 21 103 25T98 35V37V38L112 118Q114 126 119 131T133 136H134H135Q187 131 239 129T332 127Q400 127 427 163T454 263Q454 289 438 302T384 316H208Q192 316 192 332V335V336L207 421Q209 429 215 434T230 440H402Q432 440 452 449T484 474T501 513T506 563Q506 591 488 603T419 616Q393 616 370 615T323 613T274 609T220 604H219H218Q203 604 203 618V621V622L217 702Q219 710 225 714T240 721Q282 733 336 742T450 752Q554 752 615 709T677 582Z"  />
<glyph unicode="4" horiz-adv-x="645" d="M651 279L635 187Q633 179 626 173T611 167H545L520 20Q518 12 512 6T497 0H364Q349 0 349 16V20L374 167H85Q69 167 69 183V187L86 284Q89 299 103 315L492 729Q499 736 505 739T520 743H627Q643 743 643 727V723L569 299H635Q651 299 651 283V279ZM440 510Q440 514 437 514Q435 514 433 512L248 309Q245 306 245 303Q245 299 251 299H403L440 508V510Z"  />
<glyph unicode="5" horiz-adv-x="645" d="M675 724L657 624Q655 616 649 611T634 605H362L325 467H354Q415 467 463 457T546 425T598 367T616 282Q616 206 594 151T531 61T430 8T298 -9Q250 -9 200 -2T107 20Q101 22 96 26T90 38V41V42L104 121Q106 129 112 134T126 139H127H128Q151 136 176 134T226 131T270 128T305 127Q380 127 411 162T443 269Q443 289 437 302T415 322T376 333T315 336H160Q155 336 152 339T149 348V350V351L246 724Q248 732 254 737T269 743H658Q675 743 675 727V725V724Z"  />
<glyph unicode="6" horiz-adv-x="645" d="M669 732Q690 727 687 710L672 623Q670 610 665 605T645 602Q627 605 606 607T560 612T512 615T466 616Q430 616 404 609T361 585T332 540T315 470L314 463Q334 467 368 471T434 475Q478 475 516 464T582 431T627 374T644 293Q644 220 622 164T560 69T465 11T344 -9Q229 -9 169 48T109 208Q109 221 110 239T116 283T126 346T142 438Q158 532 186 592T255 688T350 738T476 752Q544 752 592 746T669 732ZM476 278Q476 324 451 340T386 356Q366 356 339 353T293 346Q287 314 281 280T274 213Q274 185 280 168T296 140T322 125T354 121Q388 121 411 134T448 168T469 218T476 278Z"  />
<glyph unicode="7" horiz-adv-x="645" d="M496 600Q496 605 490 605H217Q209 605 203 608T199 624L217 724Q219 732 223 737T241 743H674Q689 743 697 736T702 710L689 637Q687 627 681 616T665 591L301 19Q289 0 273 0H132Q116 0 116 10Q116 16 121 23L494 594Q496 598 496 600Z"  />
<glyph unicode="8" horiz-adv-x="645" d="M688 569Q688 509 661 462T577 386Q605 363 620 330T636 257Q636 186 613 136T548 53T450 6T327 -9H316Q265 -9 223 4T151 41T105 99T88 177Q88 244 118 296T206 386Q179 410 165 440T151 512Q151 580 175 626T240 700T335 740T451 752H462Q573 752 630 702T688 569ZM528 561Q528 593 507 610T440 627H429Q371 627 340 597T309 509Q309 480 327 462T386 444H417Q471 444 499 477T528 561ZM471 251Q471 265 467 278T454 302T431 318T396 324H365Q337 324 316 313T281 282T260 239T253 189Q253 157 272 137T339 117H350Q380 117 403 127T441 156T463 198T471 251Z"  />
<glyph unicode="9" horiz-adv-x="645" d="M669 535Q669 521 668 504T662 460T652 397T636 305Q619 211 592 151T523 55T427 5T302 -9Q234 -9 186 -3T109 11Q101 13 96 16T91 28V33L106 120Q110 145 133 141Q168 135 218 131T312 127Q348 127 374 134T417 158T446 203T463 273L464 280Q444 276 410 272T344 268Q300 268 262 279T196 312T151 369T134 450Q134 523 156 579T220 674T318 732T447 752Q552 752 610 695T669 535ZM504 530Q504 558 498 575T482 603T456 618T424 622Q390 622 367 609T330 575T309 525T302 465Q302 419 327 403T392 387Q412 387 439 390T485 397Q491 429 497 463T504 530Z"  />
<glyph unicode=":" horiz-adv-x="275" d="M309 528L287 402Q285 394 279 389T264 383H147Q139 383 134 387T129 399V402L151 528Q153 536 160 542T176 548H293Q309 548 309 532V528ZM242 146L220 20Q218 12 211 6T196 0H79Q62 0 62 17V20L84 146Q86 154 93 159T108 165H225Q242 165 242 149V146Z"  />
<glyph unicode=";" horiz-adv-x="275" d="M309 528L287 402Q285 394 278 389T263 383H146Q129 383 129 399V402L151 528Q153 536 160 542T175 548H292Q309 548 309 531V528ZM242 153Q242 150 239 144L105 -80Q100 -88 95 -94T81 -100H-7Q-21 -100 -21 -88Q-21 -86 -19 -80L84 144Q92 163 108 163H230Q242 163 242 153Z"  />
<glyph unicode="&lt;" horiz-adv-x="645" d="M588 150Q588 137 576 137H437Q429 137 424 140T413 148L180 355Q160 372 160 391Q160 410 180 427L413 634Q418 639 423 642T437 645H576Q588 645 588 632Q588 626 582 620L323 391L582 162Q588 156 588 150Z"  />
<glyph unicode="=" horiz-adv-x="645" d="M620 474Q620 466 614 462T600 458H181Q173 458 167 462T161 474V564Q161 572 167 576T181 580H600Q608 580 614 576T620 564V474ZM620 218Q620 210 614 206T600 202H181Q173 202 167 206T161 218V308Q161 316 167 320T181 324H600Q608 324 614 320T620 308V218Z"  />
<glyph unicode="&gt;" horiz-adv-x="645" d="M624 391Q624 380 619 372T603 355L371 148Q366 143 361 140T347 137H208Q196 137 196 150Q196 156 202 162L461 391L202 620Q196 626 196 632Q196 645 208 645H347Q355 645 360 642T371 634L603 427Q614 418 619 410T624 391Z"  />
<glyph unicode="?" horiz-adv-x="479" d="M539 628Q539 595 531 567T507 514T473 466T431 421L375 363Q354 341 341 328T319 305T306 289T301 274L296 246Q294 237 286 232T269 227H169Q161 227 158 232T154 243V247L158 274Q161 293 165 309T175 341T193 373T222 408L281 471Q305 496 326 523T348 588Q348 602 340 609T306 617Q267 617 233 614T161 606H158Q144 606 144 620Q144 622 144 623T145 627L160 716Q162 727 166 733T183 742Q217 752 261 757T347 763Q388 763 423 755T484 730T524 688T539 628ZM288 145L265 19Q263 11 257 6T242 0H124Q107 0 107 16V19L130 145Q132 153 138 159T153 165H271Q288 165 288 148V145Z"  />
<glyph unicode="@" horiz-adv-x="774" d="M781 393Q781 295 751 229T666 122T538 64T375 46Q303 46 259 79T215 174Q215 183 216 191T219 209L241 325Q250 374 268 406T314 458T376 484T456 492Q488 492 522 488T588 477Q609 472 609 454Q609 449 608 446L549 147Q591 154 620 179T667 240T692 316T700 394Q700 435 688 471T650 533T583 575T484 590Q219 590 169 344L137 184Q134 167 132 152T129 120Q129 -48 359 -48Q404 -48 442 -44T507 -40H508H509H512Q519 -40 519 -46V-49V-50L515 -89Q513 -100 501 -102Q475 -105 437 -108T352 -112Q284 -112 228 -97T132 -53T70 20T48 120Q48 136 50 152T55 184L88 349Q120 508 223 584T492 661Q564 661 618 639T708 579T763 494T781 393ZM484 392Q456 397 433 397Q397 397 380 381T354 321L331 210Q329 204 329 196T328 181Q328 157 343 149T392 141Q403 141 413 141T434 142L484 392Z"  />
<glyph unicode="A" horiz-adv-x="669" d="M653 20Q653 11 647 6T633 0H496Q488 0 484 5T479 18L472 182H267L202 18Q199 10 193 5T179 0H36Q22 0 22 12Q22 15 24 21L282 641Q297 677 318 699T364 732T415 748T468 752Q494 752 519 748T564 733T597 699T613 641L653 21V20ZM456 595Q456 603 455 606T446 610Q435 610 429 595L319 319H468L456 595Z"  />
<glyph unicode="B" horiz-adv-x="669" d="M717 581Q717 550 710 520T689 462T653 413T601 378Q634 358 650 325T667 257Q667 179 636 128T553 46T438 3T309 -9Q284 -9 258 -8T207 -6T161 -2T126 3Q102 8 91 16T80 46Q80 51 80 56T82 68L189 676Q195 710 209 723T254 741Q267 743 288 745T335 748T386 751T437 752Q499 752 550 743T639 713T696 660T717 581ZM549 553Q549 586 520 599T423 612Q417 612 407 612T385 612T363 612T347 611L316 438H428Q485 438 517 466T549 553ZM500 250Q500 279 480 299T407 319H295L262 132Q268 132 279 132T303 132T327 131T344 131Q375 131 403 135T453 153T487 189T500 250Z"  />
<glyph unicode="C" horiz-adv-x="561" d="M646 713L629 616Q626 596 605 596H604H603Q575 598 537 601T457 604Q431 604 407 597T363 570T328 518T303 435L280 309Q274 274 274 248Q274 186 303 163T375 140Q417 140 456 143T524 148H527Q544 148 544 133Q544 132 544 131T543 128L525 31Q523 20 517 16T499 8Q482 3 441 -3T347 -9Q298 -9 253 6T174 51T120 127T100 235Q100 252 101 270T107 309L130 435Q148 534 182 595T263 692T366 739T482 752Q535 752 574 746T628 735Q637 732 641 729T646 718V715V713Z"  />
<glyph unicode="D" horiz-adv-x="682" d="M715 508Q715 471 708 436L685 307Q670 222 641 162T566 64T457 9T310 -9Q279 -9 248 -8T189 -4T138 0T100 6Q89 8 83 13T76 31Q76 37 77 41L194 702Q197 719 205 727T229 737Q245 740 269 742T321 747T382 750T445 752Q507 752 557 736T642 688T696 612T715 508ZM543 495Q543 528 534 549T509 583T470 601T419 607Q400 607 380 607T348 605L265 138Q276 137 296 137T336 136Q372 136 401 143T452 170T489 223T514 307L537 436Q543 469 543 495Z"  />
<glyph unicode="E" horiz-adv-x="581" d="M652 725Q652 723 652 722T651 719L634 626Q632 618 626 612T611 606H408Q393 606 381 604T359 595T343 575T332 539L316 447H575Q591 447 591 430V427L575 332Q573 324 566 318T551 312H292L273 206Q270 191 270 180Q270 156 283 147T325 138H528Q545 138 545 121V118L528 25Q525 7 505 4Q491 2 475 0T435 -4T382 -7T311 -9Q272 -9 234 -1T166 26T117 77T98 157Q98 178 103 206L162 538Q175 611 201 653T264 718T347 746T444 752Q484 752 514 751T566 747T605 743T634 739Q652 736 652 725Z"  />
<glyph unicode="F" horiz-adv-x="581" d="M652 723Q652 722 652 721T651 718L634 625Q632 617 626 611T611 605H408Q373 605 356 591T332 537L316 447H575Q591 447 591 431V427L575 332Q573 324 566 318T551 312H292L241 20Q239 12 232 6T217 0H87Q71 0 71 16V20L162 537Q174 608 200 650T263 715T345 745T443 752Q483 752 513 751T566 747T605 743T634 738Q652 735 652 723Z"  />
<glyph unicode="G" horiz-adv-x="645" d="M706 714L687 608Q685 600 681 598T670 595H667Q631 597 578 600T460 603Q430 603 404 596T358 570T323 518T299 433L277 308Q274 289 272 273T270 242Q270 211 277 191T296 159T325 143T359 138Q401 138 437 141L477 371Q479 379 485 385T500 391H628Q644 391 644 375V371L585 35Q583 24 578 19T561 12Q519 4 464 -2T333 -9Q295 -9 253 3T177 45T120 120T97 234Q97 271 104 309L126 433Q144 536 180 599T264 696T369 741T487 752Q562 752 613 744T692 729Q697 727 701 725T706 717V714Z"  />
<glyph unicode="H" horiz-adv-x="729" d="M787 724L663 20Q661 12 654 6T639 0H508Q492 0 492 16V20L542 309H295L245 20Q243 12 236 6T221 0H90Q74 0 74 16V20L198 724Q200 732 206 737T221 743H352Q369 743 369 727V724L322 458H569L616 724Q618 732 624 737T639 743H770Q787 743 787 727V724Z"  />
<glyph unicode="I" horiz-adv-x="311" d="M369 724L245 20Q243 12 237 6T222 0H88Q81 0 78 4T74 15V20L198 724Q201 743 219 743H353Q369 743 369 728V724Z"  />
<glyph unicode="J" horiz-adv-x="311" d="M369 724L240 -6Q231 -57 212 -90T164 -143T102 -171T30 -179Q13 -179 0 -178T-33 -175Q-45 -173 -45 -161V-158L-27 -56Q-26 -51 -22 -47T-13 -42H37Q54 -42 60 -34T69 -6L198 724Q200 732 206 737T221 743H352Q369 743 369 727V724Z"  />
<glyph unicode="K" horiz-adv-x="678" d="M782 733Q782 728 774 718L465 380L641 21Q643 18 643 12Q643 0 627 0H466Q457 0 453 4T446 14L302 344L245 20Q243 12 236 6T221 0H90Q74 0 74 16V20L198 724Q200 732 206 737T221 743H352Q369 743 369 727V724L315 421L579 731Q589 743 603 743H767Q782 743 782 733Z"  />
<glyph unicode="L" horiz-adv-x="519" d="M518 118L501 25Q498 8 478 4Q465 1 445 -1T402 -5T356 -8T312 -9Q271 -9 233 -1T165 26T119 77T101 156Q101 167 102 179T106 206L197 723Q199 731 206 737T221 743H352Q368 743 368 727V723L277 206Q274 191 274 180Q274 156 287 147T329 138H501Q518 138 518 121V118Z"  />
<glyph unicode="M" horiz-adv-x="816" d="M872 715Q872 713 872 712T871 708L748 14Q746 6 741 3T729 0H597Q585 0 585 16V20L658 437V440Q658 445 654 445Q651 445 645 438L526 273Q513 256 493 256H413Q393 256 386 273L325 438Q322 445 318 445Q313 445 312 437L239 20Q237 12 232 6T219 0H87Q82 0 77 2T72 11V14L195 709Q198 725 209 734T237 743H324Q340 743 349 736T363 716L466 431Q471 418 475 418Q478 418 480 421T488 431L691 716Q710 743 740 743H841Q872 743 872 715Z"  />
<glyph unicode="N" horiz-adv-x="729" d="M787 724L666 38Q663 22 651 11T622 0H538Q522 0 507 5T483 31L317 425Q313 433 309 433Q304 433 303 425L232 20Q230 12 223 6T208 0H90Q74 0 74 17V20L194 705Q197 721 210 732T239 743H315Q330 743 345 737T369 712L541 300Q545 292 547 292Q549 292 551 294T554 301L629 724Q631 732 637 737T652 743H770Q787 743 787 727V724Z"  />
<glyph unicode="O" horiz-adv-x="698" d="M728 509Q728 491 727 472T721 431L700 312Q685 224 654 163T579 64T476 8T347 -9Q296 -9 251 6T173 52T120 128T101 236Q101 274 108 312L129 431Q145 524 179 586T259 684T362 736T482 752Q532 752 577 738T655 695T708 619T728 509ZM556 497Q556 554 531 578T455 602Q392 602 355 564T302 431L281 312Q274 274 274 242Q274 185 299 163T374 141Q437 141 474 181T528 312L549 431Q552 450 554 466T556 497Z"  />
<glyph unicode="P" horiz-adv-x="652" d="M710 549Q710 540 710 531T708 511L707 502Q699 431 669 385T594 310T490 271T366 260Q348 260 326 261T285 263L243 20Q241 12 234 6T219 0H90Q73 0 73 16V19L192 691Q197 717 209 726T245 739Q284 745 340 748T451 752Q508 752 555 741T637 704T691 641T710 549ZM539 530Q539 573 512 591T428 610Q423 610 411 610T386 609T362 608T346 607L310 403Q314 403 325 403T350 402T375 401T391 401Q525 401 537 502L538 511Q539 516 539 520T539 530Z"  />
<glyph unicode="Q" horiz-adv-x="698" d="M728 509Q728 491 727 472T721 431L700 312Q687 238 663 183T605 89T526 29T428 -3L425 -21V-24V-29Q425 -40 430 -43T446 -46H536Q543 -46 550 -48T557 -59V-62L543 -144Q540 -160 516 -166Q494 -171 463 -175T402 -179Q372 -179 346 -173T301 -153T272 -115T261 -59Q261 -42 264 -22L268 1Q194 20 148 79T101 236Q101 274 108 312L129 431Q145 524 179 586T259 684T362 736T482 752Q532 752 577 738T655 695T708 619T728 509ZM556 497Q556 554 531 578T455 602Q392 602 355 564T302 431L281 312Q274 274 274 242Q274 185 299 163T374 141Q437 141 474 181T528 312L549 431Q552 450 554 466T556 497Z"  />
<glyph unicode="R" horiz-adv-x="680" d="M713 561Q713 471 673 403T544 305L645 23Q647 17 647 15Q647 9 643 5T629 0H484Q476 0 474 6T468 20L378 273H377Q374 273 370 273T359 272Q343 272 323 273T288 274L244 20Q242 12 235 6T220 0H90Q74 0 74 16V19V20L192 691Q197 717 209 726T245 739Q263 742 287 744T339 748T395 751T451 752Q507 752 555 741T638 707T693 648T713 561ZM542 539Q542 578 513 592T425 607Q420 607 409 607T385 606T362 605T347 604L313 412Q317 412 327 412T348 411T369 410T383 410Q420 410 449 415T499 435T531 474T542 539Z"  />
<glyph unicode="S" horiz-adv-x="588" d="M651 712L633 611Q630 594 613 594H611Q600 595 576 596T521 600T459 603T401 605Q383 605 367 603T339 594T319 575T312 541Q312 525 322 514T363 483L479 407Q536 370 561 331T586 247Q586 178 561 130T494 51T395 6T275 -9Q215 -9 169 -3T86 13Q70 17 70 30V33L87 131Q90 150 108 150H111Q126 148 152 146T205 143T258 140T299 138Q320 138 338 142T371 155T394 180T402 220Q402 237 391 253T350 290L227 371Q179 402 158 443T137 526Q137 592 161 635T227 705T321 741T431 752Q458 752 489 750T549 745T601 738T639 730Q651 727 651 716V712Z"  />
<glyph unicode="T" horiz-adv-x="587" d="M690 724L672 621Q670 613 663 608T647 602H485L383 20Q381 12 374 6T359 0H228Q212 0 212 16V20L314 602H151Q135 602 135 617V621L153 724Q155 732 161 737T176 743H672Q680 743 685 739T690 727V724Z"  />
<glyph unicode="U" horiz-adv-x="711" d="M772 724L693 279Q676 185 643 128T566 41T467 1T353 -9Q300 -9 256 3T179 42T129 110T110 208Q110 225 111 242T116 279L195 724Q197 732 203 737T218 743H349Q366 743 366 727V724L287 279Q281 246 281 220Q281 175 303 155T379 134Q413 134 437 142T477 168T504 213T522 279L601 724Q603 732 609 737T624 743H754Q762 743 767 739T772 727V724Z"  />
<glyph unicode="V" horiz-adv-x="686" d="M786 731Q786 728 784 722L526 102Q511 66 490 44T445 11T394 -5T341 -9Q315 -9 290 -5T245 10T211 44T195 102L155 722V723Q155 732 161 737T176 743H310Q318 743 322 738T327 725L350 148Q350 133 361 133Q373 133 378 148L605 725Q608 733 613 738T627 743H772Q786 743 786 731Z"  />
<glyph unicode="W" horiz-adv-x="889" d="M1001 733Q1001 730 1000 728L792 73Q778 29 752 13T686 -3H636Q603 -3 578 12T549 65L523 364Q522 370 521 371T516 372Q512 372 510 371T506 364L374 65Q357 27 330 12T270 -3H219Q181 -3 158 24T135 94V99L157 728Q157 736 163 739T176 743H308Q321 743 321 726V724L286 188V183Q286 175 290 175Q293 175 299 188L420 463Q433 492 451 501T490 511H589Q609 511 625 502T643 463L666 188Q667 175 671 175Q676 175 679 188L834 724Q839 743 853 743H987Q992 743 996 741T1001 733Z"  />
<glyph unicode="X" horiz-adv-x="703" d="M782 732Q782 728 779 724L510 371L664 20Q666 14 666 13Q666 0 650 0H507Q497 0 493 3T484 15L391 226L238 20Q223 0 209 0H61Q48 0 48 10Q48 14 52 20L324 381L174 724Q173 726 173 729Q173 734 178 738T190 743H335Q343 743 348 737T357 724L445 522L593 724Q598 731 605 737T621 743H769Q782 743 782 732Z"  />
<glyph unicode="Y" horiz-adv-x="649" d="M755 731Q755 725 752 721L540 375Q519 340 501 323T462 298L413 20Q411 12 404 6T389 0H258Q242 0 242 17V20L291 298Q274 306 261 323T238 375L148 721Q148 722 148 723T147 725Q147 733 153 738T167 743H307Q315 743 318 738T324 726L382 444Q384 434 387 432T395 429Q400 429 403 431T412 444L570 726Q574 733 579 738T593 743H741Q755 743 755 731Z"  />
<glyph unicode="Z" horiz-adv-x="615" d="M685 715Q682 695 678 671T669 624Q666 612 656 598L308 166Q301 157 301 153Q301 148 311 148H571Q588 148 588 133V130L569 20Q567 12 560 6T545 0H91Q75 0 65 5T54 25Q54 27 54 28T55 31L70 111Q72 122 76 131T92 155L435 577Q441 584 441 589Q441 595 431 595H193Q176 595 176 611V614L196 724Q198 732 204 737T219 743H650Q664 743 674 737T685 720V715Z"  />
<glyph unicode="[" horiz-adv-x="374" d="M470 723L455 636Q453 628 447 622T432 616H336L215 -67H312Q329 -67 329 -84V-87L313 -174Q311 -182 305 -188T290 -194H46Q39 -194 36 -190T32 -179V-175L191 724Q193 732 198 737T211 743H454Q470 743 470 727V723Z"  />
<glyph unicode="\" horiz-adv-x="405" d="M394 14Q394 6 387 1T372 -5H245Q237 -5 234 1T230 16L141 723V725Q141 733 148 738T163 743H289Q297 743 301 737T306 723L394 16V14H394Z"  />
<glyph unicode="]" horiz-adv-x="374" d="M439 724L280 -175Q278 -183 273 -188T260 -194H16Q-1 -194 -1 -177V-174L15 -87Q17 -79 23 -73T38 -67H135L256 616H160Q143 616 143 633V636L158 723Q160 731 167 737T182 743H425Q432 743 435 739T439 728V724Z"  />
<glyph unicode="^" horiz-adv-x="645" d="M659 574Q659 565 647 565H517Q504 565 499 568T486 580L406 669L326 580Q318 572 313 569T295 565H165Q153 565 153 574Q153 579 158 586L269 734Q277 745 283 748T303 752H509Q523 752 529 749T543 734L654 586Q659 579 659 574Z"  />
<glyph unicode="_" horiz-adv-x="541" d="M563 -55L555 -103Q553 -111 547 -115T532 -119H-32Q-49 -119 -49 -106V-103L-41 -55Q-39 -47 -33 -43T-18 -39H546Q563 -39 563 -52V-55Z"  />
<glyph unicode="`" horiz-adv-x="443" d="M402 639Q402 630 391 630H292Q282 630 279 633T270 642L170 764Q167 768 167 771Q167 779 179 779H303Q314 779 318 776T328 764L399 647Q402 642 402 639Z"  />
<glyph unicode="a" horiz-adv-x="581" d="M389 581Q440 581 493 575T596 556Q613 551 618 546T622 526L534 20Q532 12 528 6T511 0H409Q401 0 396 5T392 20L396 49Q355 17 318 4T241 -9Q196 -9 164 7T112 49T83 110T73 183Q73 197 74 211T78 239Q81 261 85 279Q88 295 90 310T94 333Q117 464 194 522T389 581ZM445 442Q431 444 410 446T368 448Q314 448 290 417T254 325L236 220Q233 203 233 187Q233 162 244 144T290 126Q316 126 343 136T396 161L445 442Z"  />
<glyph unicode="b" horiz-adv-x="596" d="M617 381Q617 367 616 353T612 325L599 247Q576 113 502 52T302 -9Q244 -9 190 -2T94 17Q76 22 71 28T68 46L192 747Q194 755 199 761T216 767H337Q345 767 350 763T354 747L323 574Q346 577 368 579T406 581Q458 581 497 567T563 526T603 463T617 381ZM455 374Q455 409 440 428T383 447Q365 447 342 446T300 442L245 130Q259 128 280 126T326 124Q379 124 403 155T437 247L450 325Q452 339 453 351T455 374Z"  />
<glyph unicode="c" horiz-adv-x="474" d="M380 581Q425 581 458 576T511 566Q525 562 527 558T528 543L512 454Q510 446 507 441T488 437Q474 438 461 439T435 442T405 443T367 444Q349 444 333 439T304 421T281 386T265 328L250 244Q248 230 247 218T245 196Q245 155 262 142T312 128Q333 128 349 128T380 130T408 132T435 135Q446 137 450 132T453 118L437 29Q435 18 430 14T412 6Q390 1 357 -4T279 -9Q235 -9 199 4T137 41T97 102T82 185Q82 212 88 244L103 328Q115 398 139 446T199 525T280 568T380 581Z"  />
<glyph unicode="d" horiz-adv-x="596" d="M650 767Q672 767 668 747L544 46Q542 34 536 28T508 17Q463 6 406 -1T291 -9Q241 -9 202 6T137 48T96 112T82 195Q82 208 83 220T86 247L99 325Q111 394 134 442T193 522T280 567T395 581Q410 581 432 579T476 574L507 747Q509 755 514 761T530 767H650ZM453 442Q436 444 413 445T372 447Q345 447 326 440T294 417T273 379T260 325L247 247Q245 232 244 219T242 194Q242 159 257 142T315 124Q340 124 361 126T398 130L453 442Z"  />
<glyph unicode="e" horiz-adv-x="590" d="M606 372Q606 359 605 346T601 318L591 260Q586 236 566 236H245Q243 225 242 215T241 195Q241 156 261 141T330 125Q354 125 381 126T435 128T485 131T524 134Q536 135 540 132T543 118L529 42Q527 30 523 24T504 15Q454 3 407 -3T294 -9Q253 -9 216 3T149 39T102 102T84 192Q84 205 85 219T89 248L101 318Q124 449 200 515T400 581Q451 581 489 565T554 521T593 454T606 372ZM455 380Q455 415 437 433T377 451Q326 451 300 420T262 336H450Q452 348 453 359T455 380Z"  />
<glyph unicode="f" horiz-adv-x="394" d="M429 661Q406 661 397 652T383 609L377 573H462Q476 573 478 567T479 552L465 472Q463 460 458 456T441 452H356L275 -1Q265 -58 246 -92T201 -144T140 -167T66 -173Q47 -173 30 -170T-4 -164Q-10 -162 -15 -159T-20 -149V-147L-7 -71Q-5 -62 0 -58T13 -53H53Q69 -53 79 -52T96 -45T106 -29T113 -1L193 452L117 464Q106 466 103 472T101 490L112 552Q114 564 119 568T136 573H214L220 609Q229 665 247 699T292 751T353 775T429 781Q448 781 465 778T500 772Q507 770 512 766T516 754L503 680Q501 671 497 666T481 661H429H429Z"  />
<glyph unicode="g" horiz-adv-x="573" d="M620 535Q620 533 620 532T619 528L526 -2Q507 -110 440 -156T248 -202Q183 -202 136 -193T62 -175Q46 -169 46 -157Q46 -155 46 -153T47 -149L59 -82Q62 -64 80 -64H82Q98 -66 123 -68T175 -71T227 -74T271 -76Q297 -76 313 -73T340 -61T357 -38T367 -2L369 9Q327 0 288 0Q243 0 204 12T135 49T89 111T72 199Q72 213 73 227T77 257L89 325Q101 395 124 443T183 522T269 567T385 581Q454 581 509 573T593 556Q608 552 614 548T620 535ZM445 440Q431 442 411 444T362 447Q335 447 316 438T284 413T263 374T250 325L238 257Q236 243 235 231T233 208Q233 162 255 147T313 132Q330 132 350 134T392 139L445 440Z"  />
<glyph unicode="h" horiz-adv-x="612" d="M621 414Q621 403 620 392T617 370L556 20Q554 12 547 6T532 0H410Q394 0 394 16V20L455 369Q458 385 458 397Q458 426 441 437T382 449Q335 449 300 441L226 21Q224 13 217 7T202 0H81Q73 0 69 5T64 18V21L192 747Q194 755 200 761T215 767H337Q354 767 354 750V747L322 568Q343 573 371 577T429 581Q478 581 514 569T574 534T609 481T621 414Z"  />
<glyph unicode="i" horiz-adv-x="290" d="M192 638Q173 638 176 658L192 751Q194 759 199 765T216 771H346Q366 771 362 751L346 658Q344 650 339 644T322 638H192ZM307 573Q315 573 320 569T324 553L230 20Q228 12 224 6T206 0H84Q65 0 68 20L162 553Q164 561 170 567T185 573H307Z"  />
<glyph unicode="j" horiz-adv-x="290" d="M192 638Q183 638 179 644T176 658L192 751Q194 759 199 765T216 771H345Q353 771 358 767T362 751L346 658Q344 650 339 644T321 638H192ZM19 -79Q40 -79 46 -69T58 -32L161 552Q163 560 168 566T184 573H308Q320 573 322 567T323 552L220 -32Q211 -83 196 -116T159 -168T105 -195T32 -203Q12 -203 -7 -202T-47 -196Q-66 -193 -63 -176L-49 -97Q-46 -79 -25 -79H19Z"  />
<glyph unicode="k" horiz-adv-x="588" d="M658 564Q658 558 652 552L412 299L553 21Q556 15 554 8T540 0H393Q385 0 379 6T368 21L266 249L226 21Q224 13 217 7T202 0H81Q73 0 68 5T64 21L192 747Q194 755 199 761T216 767H337Q349 767 352 761T354 747L282 342L465 558Q473 567 480 570T494 573H645Q658 573 658 564Z"  />
<glyph unicode="l" horiz-adv-x="282" d="M354 747L226 21Q224 13 218 7T203 0H81Q73 0 69 5T64 18V21L192 747Q194 755 201 761T216 767H338Q354 767 354 751V747Z"  />
<glyph unicode="m" horiz-adv-x="875" d="M885 423Q885 392 879 362L819 21Q817 13 810 7T794 0H673Q665 0 661 5T657 17V21L717 362Q719 375 720 385T722 405Q722 426 711 435T670 445Q658 445 635 442T589 429Q589 412 587 396T582 362L522 21Q520 13 513 7T498 0H377Q369 0 365 5T360 18V21L420 362Q422 376 424 387T426 409Q426 426 418 435T386 445Q367 445 343 436T295 415L226 21Q224 13 217 7T202 0H81Q73 0 69 5T64 18V21L158 553Q160 561 166 567T181 573H290Q307 573 307 556V553L303 530Q333 550 367 565T444 581Q488 581 515 569T560 536Q604 561 645 571T737 581Q779 581 807 569T852 534T877 484T885 423Z"  />
<glyph unicode="n" horiz-adv-x="612" d="M620 415Q620 387 614 354L556 21Q554 13 547 7T531 0H410Q402 0 398 5T394 17V21L452 354Q457 382 457 398Q457 426 442 436T403 447Q374 447 343 436T295 415L226 21Q224 13 217 7T202 0H81Q73 0 69 5T64 18V21L158 553Q160 561 166 567T181 573H290Q307 573 307 556V553L303 529Q337 555 378 568T459 581Q491 581 520 572T572 542T607 491T620 415Z"  />
<glyph unicode="o" horiz-adv-x="590" d="M608 379Q608 365 606 348T602 321L589 251Q565 123 496 57T293 -9Q242 -9 203 6T137 49T97 113T83 195Q83 209 84 223T88 251L101 321Q126 457 199 519T397 581Q499 581 553 526T608 379ZM446 367Q446 443 373 443Q329 443 302 415T262 321L249 251Q247 237 246 226T244 203Q244 164 262 146T318 128Q367 128 392 159T428 251L441 321Q446 349 446 367Z"  />
<glyph unicode="p" horiz-adv-x="596" d="M617 379Q617 366 616 353T612 325L599 247Q587 177 562 129T501 50T416 5T311 -9Q290 -9 268 -7T222 -2L191 -175Q189 -183 183 -189T168 -195H47Q39 -195 34 -191T29 -178V-175L153 526Q155 538 161 544T189 555Q234 566 291 573T406 581Q507 581 562 526T617 379ZM455 377Q455 412 440 429T383 447Q358 447 337 446T300 442L245 130Q287 124 320 124Q344 124 362 129T395 148T420 186T437 247L450 325Q452 340 453 353T455 377Z"  />
<glyph unicode="q" horiz-adv-x="596" d="M630 534Q630 529 629 526L505 -175Q503 -183 496 -189T481 -195H361Q344 -195 344 -178V-175L375 -2Q355 -6 336 -7T298 -9Q253 -9 214 2T145 37T98 98T81 188Q81 202 82 216T86 247L99 325Q121 458 192 519T395 581Q453 581 507 574T603 555Q619 551 624 547T630 534ZM453 442Q439 444 418 445T372 447Q318 447 295 417T260 325L247 247Q245 233 244 222T242 199Q242 153 262 139T320 124Q337 124 356 126T398 130L453 442Z"  />
<glyph unicode="r" horiz-adv-x="396" d="M473 561L456 466Q454 459 450 453T438 447H430Q393 447 359 437T295 412L226 21Q224 13 217 7T202 0H81Q73 0 69 5T64 17V21L158 553Q160 561 166 567T181 573H300Q317 573 317 557V553L313 533Q350 564 383 572T456 581Q473 581 473 564V561Z"  />
<glyph unicode="s" horiz-adv-x="503" d="M538 535L524 454Q521 435 504 435H501Q490 436 471 438T428 443T380 446T337 448H333Q313 448 296 443T278 413Q278 397 302 382L413 311Q460 281 476 249T492 187Q492 133 472 96T417 35T338 1T245 -9Q203 -9 154 -4T67 13Q52 17 52 31V36L67 117Q70 136 90 136H93Q113 133 135 131T180 126T223 123T261 122Q274 122 286 123T307 128T321 142T327 167Q327 177 321 186T297 207L180 282Q146 304 131 336T115 401Q115 453 134 488T187 543T262 572T349 581Q402 581 444 575T523 558Q538 553 538 540V535Z"  />
<glyph unicode="t" horiz-adv-x="421" d="M487 553L472 472Q470 464 464 458T449 452H367L315 161Q312 143 312 133Q312 122 318 118T340 114H389Q397 114 402 111T407 100V97L393 19Q390 2 371 -1Q348 -5 330 -7T290 -9Q221 -9 185 18T148 111Q148 122 149 135T153 162L204 452L126 465Q109 468 109 483V486L120 552Q122 560 129 566T145 573H225L239 655Q241 663 247 668T263 675L389 696H392Q407 696 407 682V679L388 573H470Q487 573 487 556V553Z"  />
<glyph unicode="u" horiz-adv-x="612" d="M649 552L555 20Q553 12 547 6T532 0H420Q403 0 403 16V20L408 44Q373 21 337 6T249 -9Q174 -9 134 35T93 158Q93 186 99 219L157 552Q159 560 166 566T182 573H303Q311 573 315 568T319 556V552L261 219Q256 191 256 173Q256 147 269 136T318 125Q325 125 337 127T364 134T392 145T418 158L487 552Q489 560 496 566T511 573H632Q640 573 644 568T649 555V552Z"  />
<glyph unicode="v" horiz-adv-x="585" d="M662 559Q662 556 660 550L454 96Q439 63 420 42T380 10T335 -5T290 -9Q268 -9 247 -5T209 10T180 42T165 96L120 550V552Q120 561 125 567T139 573H266Q274 573 278 567T283 552L300 160Q301 139 312 139Q323 139 331 160L486 552Q490 561 496 567T511 573H648Q662 573 662 559Z"  />
<glyph unicode="w" horiz-adv-x="845" d="M914 560Q914 555 913 552L739 70Q723 27 697 14T639 0H578Q542 0 525 17T505 64L484 325Q484 330 480 330Q476 330 474 325L361 64Q349 35 326 18T266 0H205Q189 0 176 3T152 13T135 35T129 70L125 552Q125 560 130 566T144 573H261Q270 573 274 571T279 557V556L272 174V173Q272 161 276 161Q280 161 286 174L402 440Q413 466 427 475T466 485H548Q572 485 583 476T596 440L616 176Q617 163 621 163Q625 163 630 176L756 556Q760 567 765 570T780 573H902Q914 573 914 560Z"  />
<glyph unicode="x" horiz-adv-x="617" d="M662 563Q662 556 658 552L447 290L581 21Q582 19 582 15Q582 9 579 5T569 0H426Q418 0 414 5T405 21L333 176L213 20Q204 9 198 5T183 0H49Q40 0 40 9Q40 15 44 20L268 298L142 552Q140 556 140 559Q140 564 143 568T153 573H296Q304 573 308 568T317 552L382 414L488 552Q497 563 503 568T518 573H652Q662 573 662 563Z"  />
<glyph unicode="y" horiz-adv-x="592" d="M668 558Q668 556 666 550L394 -39Q373 -83 353 -114T307 -164T243 -193T150 -202Q136 -202 119 -201T84 -197T52 -192T28 -186Q20 -184 15 -181T10 -171V-168L25 -87Q27 -79 33 -74T48 -68H50Q62 -69 78 -70T111 -72T145 -75T174 -76Q201 -76 218 -65T249 -24L263 7H258Q243 7 229 10T204 24T184 52T172 100L119 550V553Q119 573 142 573H273Q281 573 284 568T289 554L312 172Q313 163 315 161T322 159H330L493 554Q496 562 502 567T517 573H652Q659 573 663 569T668 558Z"  />
<glyph unicode="z" horiz-adv-x="515" d="M566 548Q566 542 565 539L552 465Q550 457 547 449T535 430L286 147Q282 143 282 140Q282 136 288 136H478Q493 136 493 123V120L476 20Q474 12 467 6T452 0H77Q65 0 57 5T48 24Q48 30 49 33L60 97Q62 111 67 117T81 135L342 431Q346 435 346 439Q346 443 340 443H147Q133 443 133 456V459L150 553Q152 561 158 567T173 573H538Q550 573 558 568T566 548Z"  />
<glyph unicode="{" horiz-adv-x="407" d="M503 723L488 636Q486 628 480 622T465 616H407Q383 616 374 606T358 558L335 423Q326 369 303 333T225 273Q256 256 270 223T285 154Q285 137 282 122L258 -9Q256 -19 255 -27T254 -41Q254 -57 262 -62T287 -67H345Q362 -67 362 -84V-87L346 -174Q344 -182 338 -188T323 -194H265Q174 -194 132 -161T90 -61Q90 -49 91 -36T95 -9L119 122Q121 129 121 135T121 147Q121 196 80 225L96 320Q127 338 146 362T171 423L194 558Q204 619 220 655T264 711T331 737T429 743H487Q503 743 503 727V723Z"  />
<glyph unicode="|" horiz-adv-x="290" d="M296 -173Q296 -181 290 -187T276 -194H153Q145 -194 139 -188T132 -173V723Q132 731 138 737T153 743H276Q284 743 290 737T296 723V-173H296Z"  />
<glyph unicode="}" horiz-adv-x="407" d="M407 225Q392 216 380 207T358 187T343 160T332 122L308 -9Q297 -67 282 -103T241 -159T175 -187T74 -194H16Q-1 -194 -1 -177V-174L15 -87Q17 -79 23 -73T38 -67H96Q108 -67 116 -65T129 -57T138 -39T145 -9L169 122Q179 174 201 212T278 273Q250 293 235 323T219 392Q219 406 222 423L245 558Q247 569 248 577T249 592Q249 607 242 611T218 616H160Q143 616 143 633V636L158 723Q160 731 167 737T182 743H240Q325 743 369 712T414 608Q414 597 413 585T409 558L386 423Q384 413 383 405T382 389Q382 368 391 353T423 320L407 225Z"  />
<glyph unicode="~" horiz-adv-x="645" d="M657 480Q657 401 622 365T514 329Q485 329 463 338T423 358L352 401Q338 409 328 411T309 414Q288 414 283 402T278 374V356Q278 348 273 342T260 336H171Q151 336 151 356V374Q151 419 161 449T190 498T235 524T294 532Q308 532 330 528T367 515L457 461Q471 453 481 450T500 447Q516 447 522 454T529 480V505Q529 525 548 525H637Q657 525 657 505V480H657Z"  />
<glyph unicode="&#xA0;" horiz-adv-x="250" />
<glyph unicode="&#xA1;" horiz-adv-x="273" d="M313 557Q313 554 312 553L290 427Q288 419 282 414T267 408H149Q133 408 133 423V427L155 553Q157 561 163 567T178 573H296Q313 573 313 557ZM257 325L189 -174Q188 -182 180 -188T164 -194H39Q32 -194 27 -190T22 -178V-174L130 325Q132 333 139 339T154 346H239Q247 346 252 341T257 328V325Z"  />
<glyph unicode="&#xA2;" horiz-adv-x="645" d="M602 550Q602 548 602 547T601 543L585 454Q583 446 577 442T563 437H561Q534 440 509 442T440 444Q401 444 376 420T338 328L323 244Q321 230 320 219T318 197Q318 157 335 143T385 128Q406 128 422 128T453 130T481 132T508 135H510Q526 135 526 121V118L510 29Q508 18 503 14T485 6Q470 2 450 -1T404 -7L391 -80Q389 -88 382 -94T367 -100H266Q250 -100 250 -84V-80L265 4Q217 26 187 72T156 188Q156 202 157 215T161 244L176 328Q187 388 205 429T247 499T300 543T364 568L379 650Q381 658 387 664T402 670H503Q520 670 520 653V650L507 579Q532 577 551 574T584 566Q593 564 597 561T602 550Z"  />
<glyph unicode="&#xA3;" horiz-adv-x="645" d="M693 720Q693 718 693 717T692 713L674 614Q671 596 655 596H652Q621 600 575 604T489 608Q461 608 443 605T414 592T395 567T384 527L369 445H538Q555 445 555 429V426L538 329Q535 310 516 310H346L328 210Q323 185 315 167T295 134H569Q585 134 585 120V116L568 19Q566 11 560 6T545 0H103Q95 0 91 5T87 18Q87 20 87 21T88 24L101 94Q103 103 106 108T114 118Q127 132 142 158T163 210L181 310H131Q115 310 115 325V329L132 426Q134 434 140 439T155 445H204L219 526Q231 593 253 637T310 706T395 742T515 752Q536 752 560 750T606 745T646 739T676 733Q693 729 693 720Z"  />
<glyph unicode="&#xA4;" horiz-adv-x="645" d="M652 557Q652 549 645 542L559 457Q582 416 582 371Q582 323 558 281L642 197Q649 190 649 182Q649 176 644 171L587 114Q582 109 576 109Q568 109 561 116L475 203Q437 182 393 182Q347 182 307 204L222 119Q219 116 215 114T206 111Q201 111 196 116L139 173Q134 178 134 185Q134 193 141 200L226 284Q203 325 203 371Q203 392 207 413T223 453L138 539Q131 546 131 554Q131 560 136 565L193 622Q198 627 204 627Q212 627 219 620L302 537Q323 549 346 554T393 560Q439 560 479 538L564 623Q571 630 579 630Q585 630 590 625L647 568Q652 563 652 557ZM479 374Q479 409 455 433T395 457Q360 457 335 433T310 374Q310 339 335 315T395 290Q430 290 454 314T479 374Z"  />
<glyph unicode="&#xA5;" horiz-adv-x="645" d="M764 732Q764 726 760 721L610 497H697Q713 497 713 482V478L700 404Q697 385 678 385H536L474 293L470 282H659Q676 282 676 267V264L662 189Q659 171 640 171H450L424 20Q422 12 415 6T400 0H267Q252 0 252 16V20L278 171H89Q72 171 72 186V189L86 264Q88 272 94 277T109 282H298L299 293L270 385H127Q110 385 110 401V404L123 478Q125 486 132 491T147 497H235L163 721Q162 723 162 727Q162 735 167 739T180 743H323Q331 743 334 738T339 726L410 456L578 726Q583 733 587 738T600 743H751Q764 743 764 732Z"  />
<glyph unicode="&#xA6;" horiz-adv-x="290" d="M292 363Q292 355 286 349T272 342H149Q141 342 135 348T128 363V708Q128 716 134 722T149 728H272Q280 728 286 722T292 708V363ZM292 -190Q292 -198 286 -204T272 -211H149Q141 -211 135 -205T128 -190V155Q128 163 134 169T149 175H272Q280 175 286 169T292 155V-190Z"  />
<glyph unicode="&#xA7;" horiz-adv-x="589" d="M653 711L635 609Q633 595 620 595H619Q566 598 512 600T402 603Q386 603 370 602T340 595T318 577T309 544Q309 528 323 515T370 482L486 413Q541 380 566 338T591 248Q591 211 577 173T537 98Q542 87 546 64T550 25Q550 -41 525 -87T457 -161T359 -203T244 -216Q184 -216 135 -210T48 -194Q41 -192 36 -188T31 -177V-174L49 -73Q51 -65 57 -60T72 -54H74Q121 -59 167 -63T261 -68H265Q285 -68 304 -65T339 -53T363 -29T372 11Q372 28 359 42T313 76L193 149Q138 183 115 228T92 324Q92 342 96 362T109 403T128 442T153 473Q142 492 140 510T137 550Q137 609 163 648T231 710T323 742T422 752Q449 752 481 750T543 745T598 738T637 730Q643 728 648 724T653 714V711ZM450 229Q450 241 448 250T440 267T423 284T392 305L303 359L254 390Q240 374 237 359T233 333Q233 307 255 290T303 256L367 219Q387 208 402 199T432 179Q440 190 445 205T450 229Z"  />
<glyph unicode="&#xA8;" horiz-adv-x="443" d="M531 751L515 658Q513 650 505 644T489 638H395Q378 638 378 655V658L394 751Q396 759 403 765T419 771H513Q521 771 526 767T531 754V751ZM314 751L298 658Q296 650 289 644T273 638H179Q171 638 166 642T161 655V658L177 751Q179 759 187 765T203 771H297Q314 771 314 754V751Z"  />
<glyph unicode="&#xA9;" horiz-adv-x="750" d="M780 374Q780 305 754 245T682 139T576 68T446 42Q377 42 317 68T211 139T140 244T114 374Q114 443 140 504T211 610T316 682T446 709Q515 709 576 683T682 611T753 504T780 374ZM728 374Q728 432 706 483T645 573T556 634T446 657Q388 657 337 635T248 574T187 484T165 374Q165 316 187 265T247 176T337 116T446 94Q504 94 555 116T645 176T705 265T728 374ZM549 183Q549 172 536 169Q523 165 503 163T454 160Q373 160 329 206T284 349V405Q284 503 328 548T454 594Q483 594 503 591T536 584Q543 582 546 580T549 572V509Q549 497 537 497H535Q518 499 501 500T454 502Q441 502 429 498T408 483T393 454T387 405V349Q387 319 392 300T407 270T429 255T454 251Q480 251 499 252T535 256H538Q549 256 549 245V183Z"  />
<glyph unicode="&#xAA;" horiz-adv-x="357" d="M432 648Q432 634 429 618L394 420Q392 407 383 404Q351 396 318 392T252 388Q185 388 153 414T120 482Q120 524 135 548T175 585T232 601T298 605H320L323 618Q326 630 326 638Q326 652 318 657T289 663Q263 663 238 662T186 658H185Q176 658 176 669V672L185 722Q186 728 191 731T202 737Q218 742 246 747T304 752Q360 752 396 727T432 648ZM310 546Q308 546 304 546T295 547Q264 547 243 537T221 490Q221 474 231 469T265 463Q275 463 282 464T296 466L310 546Z"  />
<glyph unicode="&#xAB;" horiz-adv-x="718" d="M779 500Q779 493 773 489L549 286L690 83Q692 81 692 76Q692 63 676 63H567Q547 63 539 75L412 260Q402 274 402 289Q402 298 406 305T416 319L602 497Q614 509 634 509H767Q779 509 779 500ZM468 500Q468 493 462 489L238 286L379 83Q381 81 381 76Q381 63 365 63H256Q236 63 228 75L101 260Q91 274 91 289Q91 298 95 305T105 319L291 497Q303 509 323 509H456Q468 509 468 500Z"  />
<glyph unicode="&#xAC;" horiz-adv-x="645" d="M620 198Q620 190 615 184T601 178H516Q508 178 503 184T498 198V459H181Q173 459 167 463T161 475V564Q161 572 167 576T181 580H601Q620 580 620 564V198H620Z"  />
<glyph unicode="&#xAD;" horiz-adv-x="302" d="M328 341L315 267Q313 259 307 254T292 249H98Q81 249 81 264V267L94 341Q96 349 102 354T117 360H311Q328 360 328 344V341Z"  />
<glyph unicode="&#xAE;" horiz-adv-x="598" d="M665 484Q665 426 643 376T583 287T494 227T385 205Q327 205 277 227T188 287T128 375T106 484Q106 542 128 592T188 681T276 741T385 763Q443 763 494 741T583 681T643 593T665 484ZM614 484Q614 531 596 573T547 646T474 695T385 713Q338 713 297 695T224 646T175 573T157 484Q157 437 175 395T224 322T296 273T385 255Q432 255 474 273T547 322T596 395T614 484ZM523 330Q523 320 513 320H446Q440 320 436 328L373 439Q371 439 369 442T365 445H339V331Q339 320 328 320H268Q257 320 257 331V625Q257 641 262 647T282 655Q288 656 298 656T322 658T348 659T371 660Q437 660 474 637T511 552V545Q511 510 495 490T452 458L521 337Q523 333 523 330ZM432 552Q432 572 420 581T378 591H337V506Q339 506 345 506T358 506T370 505T378 505Q407 505 419 515T432 545V552Z"  />
<glyph unicode="&#xAF;" horiz-adv-x="443" d="M535 744L522 672Q520 664 514 659T499 653H175Q158 653 158 669V672L171 744Q173 752 180 757T195 763H519Q535 763 535 748V744Z"  />
<glyph unicode="&#xB0;" horiz-adv-x="361" d="M436 598Q436 566 424 538T392 489T343 456T283 444Q251 444 223 456T174 489T141 538T129 598Q129 630 141 658T174 707T223 740T283 752Q315 752 343 740T391 707T424 658T436 598ZM355 598Q355 628 334 649T283 671Q254 671 233 650T211 598Q211 569 232 548T283 526Q313 526 334 547T355 598Z"  />
<glyph unicode="&#xB1;" horiz-adv-x="645" d="M614 346Q614 338 608 334T594 330H439V176Q439 168 435 162T423 156H333Q325 156 321 162T317 176V330H163Q155 330 149 334T143 346V436Q143 444 149 448T163 452H317V607Q317 615 321 621T333 627H423Q431 627 435 621T439 607V452H594Q602 452 608 448T614 436V346ZM614 -4Q614 -12 608 -16T594 -20H163Q155 -20 149 -16T143 -4V67Q143 75 149 79T163 83H594Q602 83 608 79T614 67V-4Z"  />
<glyph unicode="&#xB2;" horiz-adv-x="355" d="M265 587Q284 599 296 606T315 619T326 630T329 644Q329 658 319 663T282 668Q258 668 230 666T175 661Q165 659 162 664T161 678L168 720Q170 727 173 731T185 737Q210 744 242 749T305 754Q370 754 402 732T434 660Q434 624 415 594T348 535L298 504Q258 480 234 462T205 423H370Q387 423 384 408L375 352Q373 344 370 340T355 335H114Q105 335 102 340T100 352L109 407Q117 454 140 488T208 551L265 587Z"  />
<glyph unicode="&#xB3;" horiz-adv-x="355" d="M130 421Q158 419 189 418T237 416Q270 416 282 431T294 475Q294 489 289 497T263 506H168Q152 506 155 523L163 569Q165 577 168 581T182 585H275Q289 585 298 590T313 603T321 620T323 637Q323 653 314 660T281 668Q264 668 237 667T183 662Q157 658 160 677L167 720Q169 728 174 731T185 737Q208 743 238 748T304 754Q365 754 397 730T429 661Q429 620 413 591T368 546Q384 532 391 517T398 475Q398 330 226 330Q194 330 165 334T114 345Q109 347 105 350T102 362L110 405Q113 421 130 421Z"  />
<glyph unicode="&#xB4;" horiz-adv-x="443" d="M558 773Q558 768 552 764L408 642Q401 636 397 633T382 630H265Q257 630 257 636Q257 641 263 647L377 764Q385 772 390 775T406 779H547Q558 779 558 773Z"  />
<glyph unicode="&#xB5;" horiz-adv-x="612" d="M649 551L561 49Q559 38 551 31T524 18Q488 7 433 -1T308 -9Q258 -9 221 0L191 -171Q189 -179 182 -185T167 -191H45Q29 -191 29 -175V-171L157 551Q159 559 166 566T181 573H302Q310 573 314 568T319 554V551L261 219Q258 201 258 186Q258 153 276 139T332 124Q356 124 376 125T413 131L487 551Q489 559 496 566T511 573H632Q640 573 644 568T649 554V551Z"  />
<glyph unicode="&#xB6;" horiz-adv-x="659" d="M731 730Q731 728 731 727T730 724L571 -176Q569 -184 564 -189T551 -195H508Q494 -195 494 -179V-176L643 667H580L431 -176Q429 -184 424 -189T411 -195H368Q354 -195 354 -179V-176L428 242H332Q287 242 249 256T183 296T140 355T124 429Q124 447 127 465L137 520Q148 581 173 624T236 693T319 731T420 743H717Q731 743 731 730Z"  />
<glyph unicode="&#xB7;" horiz-adv-x="274" d="M294 445L272 319Q270 311 264 305T249 299H132Q124 299 119 303T114 316V319L136 445Q138 453 145 458T161 464H278Q294 464 294 449V445Z"  />
<glyph unicode="&#xB8;" horiz-adv-x="426" d="M317 -41Q317 -44 311 -50L167 -172Q160 -178 156 -181T141 -184H34Q26 -184 26 -178Q26 -173 32 -167L145 -50Q153 -42 158 -39T175 -35H307Q317 -35 317 -41Z"  />
<glyph unicode="&#xB9;" horiz-adv-x="241" d="M245 746Q251 749 260 749H309Q319 749 320 744T321 732L254 352Q250 335 236 335H165Q158 335 154 338T151 352L202 642L145 619Q122 611 127 631L138 693Q140 702 150 706L245 746Z"  />
<glyph unicode="&#xBA;" horiz-adv-x="380" d="M454 628Q454 606 450 586L444 553Q429 470 386 429T259 388Q199 388 164 422T128 517Q128 533 131 553L137 586Q146 633 162 665T201 716T255 744T323 752Q382 752 418 722T454 628ZM347 621Q347 645 337 653T307 662Q281 662 266 647T243 586L237 553Q234 535 234 521Q234 496 244 487T275 477Q301 477 315 494T337 553L343 586Q347 605 347 621Z"  />
<glyph unicode="&#xBB;" horiz-adv-x="718" d="M744 283Q744 267 730 253L544 75Q532 63 512 63H379Q367 63 367 72Q367 78 373 83L597 286L456 489Q454 491 454 496Q454 509 470 509H579Q599 509 607 497L734 312Q744 298 744 283ZM433 283Q433 267 419 253L233 75Q221 63 201 63H68Q56 63 56 72Q56 78 62 83L286 286L145 489Q143 491 143 496Q143 509 159 509H268Q288 509 296 497L423 312Q433 298 433 283Z"  />
<glyph unicode="&#xBC;" horiz-adv-x="774" d="M259 746Q265 749 274 749H323Q333 749 334 744T335 732L268 352Q264 335 250 335H179Q172 335 168 338T165 352L216 642L159 619Q136 611 141 631L152 693Q154 702 164 706L259 746ZM774 737Q774 730 768 723L229 21Q221 10 216 5T202 0H99Q90 0 90 8Q90 15 95 21L634 723Q643 734 649 738T663 743H766Q774 743 774 737ZM757 107Q756 100 753 95T738 90H708L696 17Q694 8 691 4T677 0H605Q596 0 594 5T592 17L604 90H453Q447 90 443 93T440 107L450 159Q451 164 453 169T460 180L671 404Q681 414 691 414H749Q760 414 762 409T763 397L723 173H753Q763 173 765 169T766 156L757 107ZM640 276L546 173H622L640 276Z"  />
<glyph unicode="&#xBD;" horiz-adv-x="844" d="M259 746Q265 749 274 749H323Q333 749 334 744T335 732L268 352Q264 335 250 335H179Q172 335 168 338T165 352L216 642L159 619Q136 611 141 631L152 693Q154 702 164 706L259 746ZM774 737Q774 730 768 723L229 21Q221 10 216 5T202 0H99Q90 0 90 8Q90 15 95 21L634 723Q643 734 649 738T663 743H766Q774 743 774 737ZM675 252Q694 264 706 271T725 284T736 295T739 309Q739 323 729 328T692 333Q668 333 640 331T585 326Q575 324 572 329T571 343L578 385Q580 392 583 396T595 402Q620 409 652 414T715 419Q780 419 812 397T844 325Q844 289 825 259T758 200L708 169Q668 145 644 127T615 88H780Q797 88 794 73L785 17Q783 9 780 5T765 0H524Q515 0 512 5T510 17L519 72Q527 119 550 153T618 216L675 252Z"  />
<glyph unicode="&#xBE;" horiz-adv-x="841" d="M841 737Q841 730 835 723L296 21Q288 10 283 5T269 0H166Q157 0 157 8Q157 15 162 21L701 723Q710 734 716 738T730 743H833Q841 743 841 737ZM824 107Q823 100 820 95T805 90H775L763 17Q761 8 758 4T744 0H672Q663 0 661 5T659 17L671 90H520Q514 90 510 93T507 107L517 159Q518 164 520 169T527 180L738 404Q748 414 758 414H816Q827 414 829 409T830 397L790 173H820Q830 173 832 169T833 156L824 107ZM707 276L613 173H689L707 276ZM119 421Q147 419 178 418T226 416Q259 416 271 431T283 475Q283 489 278 497T252 506H157Q141 506 144 523L152 569Q154 577 157 581T171 585H264Q278 585 287 590T302 603T310 620T312 637Q312 653 303 660T270 668Q253 668 226 667T172 662Q146 658 149 677L156 720Q158 728 163 731T174 737Q197 743 227 748T293 754Q354 754 386 730T418 661Q418 620 402 591T357 546Q373 532 380 517T387 475Q387 330 215 330Q183 330 154 334T103 345Q98 347 94 350T91 362L99 405Q102 421 119 421Z"  />
<glyph unicode="&#xBF;" horiz-adv-x="479" d="M473 554L450 428Q448 420 442 414T427 408H309Q292 408 292 425V428L315 554Q317 562 323 567T338 573H456Q473 573 473 557V554ZM436 -47Q436 -49 436 -50T435 -54L420 -143Q418 -154 414 -160T397 -169Q363 -179 319 -184T233 -190Q192 -190 157 -182T96 -157T56 -115T41 -55Q41 -22 49 6T73 59T107 106T149 152L205 210Q226 232 239 245T261 268T273 284T279 299L284 327Q286 336 294 341T311 346H411Q419 346 422 341T426 330V326L422 299Q419 279 415 263T405 232T387 200T358 165L299 102Q287 89 275 77T254 50T238 20T232 -15Q232 -29 240 -36T274 -44Q313 -44 347 -41T419 -33H422Q436 -33 436 -47Z"  />
<glyph unicode="&#xC0;" horiz-adv-x="669" d="M653 20Q653 11 647 6T633 0H496Q488 0 484 5T479 18L472 182H267L202 18Q199 10 193 5T179 0H36Q22 0 22 12Q22 15 24 21L282 641Q297 677 318 699T364 732T415 748T468 752Q494 752 519 748T564 733T597 699T613 641L653 21V20ZM456 595Q456 603 455 606T446 610Q435 610 429 595L319 319H468L456 595ZM571 803Q571 794 560 794H461Q451 794 448 797T439 806L339 928Q336 932 336 935Q336 943 348 943H472Q483 943 487 940T497 928L568 811Q571 806 571 803Z"  />
<glyph unicode="&#xC1;" horiz-adv-x="669" d="M653 20Q653 11 647 6T633 0H496Q488 0 484 5T479 18L472 182H267L202 18Q199 10 193 5T179 0H36Q22 0 22 12Q22 15 24 21L282 641Q297 677 318 699T364 732T415 748T468 752Q494 752 519 748T564 733T597 699T613 641L653 21V20ZM456 595Q456 603 455 606T446 610Q435 610 429 595L319 319H468L456 595ZM688 937Q688 932 682 928L538 806Q531 800 527 797T512 794H395Q387 794 387 800Q387 805 393 811L507 928Q515 936 520 939T536 943H677Q688 943 688 937Z"  />
<glyph unicode="&#xC2;" horiz-adv-x="669" d="M653 20Q653 11 647 6T633 0H496Q488 0 484 5T479 18L472 182H267L202 18Q199 10 193 5T179 0H36Q22 0 22 12Q22 15 24 21L282 641Q297 677 318 699T364 732T415 748T468 752Q494 752 519 748T564 733T597 699T613 641L653 21V20ZM456 595Q456 603 455 606T446 610Q435 610 429 595L319 319H468L456 595ZM673 804Q673 795 663 795H565Q555 795 552 797T543 807L493 877L416 807Q408 800 404 798T390 795H282Q274 795 274 801Q274 806 280 812L390 929Q398 937 403 940T419 944H579Q590 944 594 941T604 929L671 812Q673 809 673 804Z"  />
<glyph unicode="&#xC3;" horiz-adv-x="669" d="M653 20Q653 11 647 6T633 0H496Q488 0 484 5T479 18L472 182H267L202 18Q199 10 193 5T179 0H36Q22 0 22 12Q22 15 24 21L282 641Q297 677 318 699T364 732T415 748T468 752Q494 752 519 748T564 733T597 699T613 641L653 21V20ZM456 595Q456 603 455 606T446 610Q435 610 429 595L319 319H468L456 595ZM697 927L694 907Q684 839 651 812T557 785Q542 785 520 791T483 809L446 838Q423 856 409 856Q399 856 392 852T381 829L377 810Q374 793 359 793H288Q275 793 275 805Q275 806 275 807T276 810L280 829Q293 894 325 922T419 950Q434 950 455 944T490 927L528 899Q539 891 548 886T565 881Q576 881 583 885T593 908L596 927Q599 943 615 943H685Q697 943 697 932V927Z"  />
<glyph unicode="&#xC4;" horiz-adv-x="669" d="M653 20Q653 11 647 6T633 0H496Q488 0 484 5T479 18L472 182H267L202 18Q199 10 193 5T179 0H36Q22 0 22 12Q22 15 24 21L282 641Q297 677 318 699T364 732T415 748T468 752Q494 752 519 748T564 733T597 699T613 641L653 21V20ZM456 595Q456 603 455 606T446 610Q435 610 429 595L319 319H468L456 595ZM676 914L660 821Q658 813 650 807T634 801H540Q523 801 523 818V821L539 914Q541 922 548 928T564 934H658Q666 934 671 930T676 917V914ZM459 914L443 821Q441 813 434 807T418 801H324Q316 801 311 805T306 818V821L322 914Q324 922 332 928T348 934H442Q459 934 459 917V914Z"  />
<glyph unicode="&#xC5;" horiz-adv-x="669" d="M653 20Q653 11 647 6T633 0H496Q488 0 484 5T479 18L472 182H267L202 18Q199 10 193 5T179 0H36Q22 0 22 12Q22 15 24 21L282 641Q297 677 318 699T364 732T415 748T468 752Q494 752 519 748T564 733T597 699T613 641L653 21V20ZM456 595Q456 603 455 606T446 610Q435 610 429 595L319 319H468L456 595ZM604 895Q604 871 595 850T570 813T533 788T488 779Q464 779 443 788T406 813T381 850T371 895Q371 919 380 940T405 977T442 1002T488 1012Q512 1012 533 1003T570 978T595 941T604 895ZM533 896Q533 914 520 927T488 940Q470 940 458 928T445 896Q445 877 457 865T488 852Q506 852 519 865T533 896Z"  />
<glyph unicode="&#xC6;" horiz-adv-x="924" d="M995 729Q995 727 995 726T994 723L977 626Q975 618 969 612T954 606H712L684 447H918Q934 447 934 431V427L918 332Q916 324 909 318T894 312H660L641 206Q639 198 639 192T639 180Q639 156 651 147T693 138H871Q888 138 888 121V118L871 25Q868 7 848 4Q834 2 821 0T789 -4T743 -7T676 -9Q631 -9 593 -1T527 25T482 74T466 150Q466 158 466 166T468 182H269L204 18Q201 10 195 5T181 0H36Q22 0 22 13Q22 15 24 21L282 641Q297 677 318 697T363 728T413 740T466 743H978Q995 743 995 729ZM448 610Q437 610 431 595L321 319H491L543 610H448Z"  />
<glyph unicode="&#xC7;" horiz-adv-x="561" d="M646 713L629 616Q626 596 605 596H604H603Q575 598 537 601T457 604Q431 604 407 597T363 570T328 518T303 435L280 309Q274 274 274 248Q274 186 303 163T375 140Q417 140 456 143T524 148H527Q544 148 544 133Q544 132 544 131T543 128L525 31Q523 20 517 16T499 8Q482 3 441 -3T347 -9Q298 -9 253 6T174 51T120 127T100 235Q100 252 101 270T107 309L130 435Q148 534 182 595T263 692T366 739T482 752Q535 752 574 746T628 735Q637 732 641 729T646 718V715V713ZM423 -41Q423 -44 417 -50L273 -172Q265 -178 261 -181T247 -184H140Q132 -184 132 -178Q132 -173 138 -167L251 -50Q259 -42 264 -39T281 -35H413Q423 -35 423 -41Z"  />
<glyph unicode="&#xC8;" horiz-adv-x="581" d="M652 725Q652 723 652 722T651 719L634 626Q632 618 626 612T611 606H408Q393 606 381 604T359 595T343 575T332 539L316 447H575Q591 447 591 430V427L575 332Q573 324 566 318T551 312H292L273 206Q270 191 270 180Q270 156 283 147T325 138H528Q545 138 545 121V118L528 25Q525 7 505 4Q491 2 475 0T435 -4T382 -7T311 -9Q272 -9 234 -1T166 26T117 77T98 157Q98 178 103 206L162 538Q175 611 201 653T264 718T347 746T444 752Q484 752 514 751T566 747T605 743T634 739Q652 736 652 725ZM533 804Q533 795 522 795H423Q413 795 410 798T401 807L301 929Q298 933 298 936Q298 944 310 944H434Q445 944 449 941T459 929L530 812Q533 807 533 804Z"  />
<glyph unicode="&#xC9;" horiz-adv-x="581" d="M652 725Q652 723 652 722T651 719L634 626Q632 618 626 612T611 606H408Q393 606 381 604T359 595T343 575T332 539L316 447H575Q591 447 591 430V427L575 332Q573 324 566 318T551 312H292L273 206Q270 191 270 180Q270 156 283 147T325 138H528Q545 138 545 121V118L528 25Q525 7 505 4Q491 2 475 0T435 -4T382 -7T311 -9Q272 -9 234 -1T166 26T117 77T98 157Q98 178 103 206L162 538Q175 611 201 653T264 718T347 746T444 752Q484 752 514 751T566 747T605 743T634 739Q652 736 652 725ZM648 938Q648 933 642 929L498 807Q491 801 487 798T472 795H355Q347 795 347 801Q347 806 353 812L467 929Q475 937 480 940T496 944H637Q648 944 648 938Z"  />
<glyph unicode="&#xCA;" horiz-adv-x="581" d="M652 725Q652 723 652 722T651 719L634 626Q632 618 626 612T611 606H408Q393 606 381 604T359 595T343 575T332 539L316 447H575Q591 447 591 430V427L575 332Q573 324 566 318T551 312H292L273 206Q270 191 270 180Q270 156 283 147T325 138H528Q545 138 545 121V118L528 25Q525 7 505 4Q491 2 475 0T435 -4T382 -7T311 -9Q272 -9 234 -1T166 26T117 77T98 157Q98 178 103 206L162 538Q175 611 201 653T264 718T347 746T444 752Q484 752 514 751T566 747T605 743T634 739Q652 736 652 725ZM651 804Q651 795 641 795H543Q533 795 530 797T521 807L471 877L394 807Q386 800 382 798T368 795H260Q252 795 252 801Q252 806 258 812L368 929Q376 937 381 940T397 944H557Q568 944 572 941T582 929L649 812Q651 809 651 804Z"  />
<glyph unicode="&#xCB;" horiz-adv-x="581" d="M652 725Q652 723 652 722T651 719L634 626Q632 618 626 612T611 606H408Q393 606 381 604T359 595T343 575T332 539L316 447H575Q591 447 591 430V427L575 332Q573 324 566 318T551 312H292L273 206Q270 191 270 180Q270 156 283 147T325 138H528Q545 138 545 121V118L528 25Q525 7 505 4Q491 2 475 0T435 -4T382 -7T311 -9Q272 -9 234 -1T166 26T117 77T98 157Q98 178 103 206L162 538Q175 611 201 653T264 718T347 746T444 752Q484 752 514 751T566 747T605 743T634 739Q652 736 652 725ZM631 914L615 821Q613 813 605 807T589 801H495Q478 801 478 818V821L494 914Q496 922 503 928T519 934H613Q621 934 626 930T631 917V914ZM414 914L398 821Q396 813 389 807T373 801H279Q271 801 266 805T261 818V821L277 914Q279 922 287 928T303 934H397Q414 934 414 917V914Z"  />
<glyph unicode="&#xCC;" horiz-adv-x="311" d="M369 724L245 20Q243 12 237 6T222 0H88Q81 0 78 4T74 15V20L198 724Q201 743 219 743H353Q369 743 369 728V724ZM394 804Q394 795 383 795H284Q274 795 271 798T262 807L162 929Q159 933 159 936Q159 944 171 944H295Q306 944 310 941T320 929L391 812Q394 807 394 804Z"  />
<glyph unicode="&#xCD;" horiz-adv-x="311" d="M369 724L245 20Q243 12 237 6T222 0H88Q81 0 78 4T74 15V20L198 724Q201 743 219 743H353Q369 743 369 728V724ZM499 938Q499 933 493 929L349 807Q342 801 338 798T323 795H206Q198 795 198 801Q198 806 204 812L318 929Q326 937 331 940T347 944H488Q499 944 499 938Z"  />
<glyph unicode="&#xCE;" horiz-adv-x="311" d="M369 724L245 20Q243 12 237 6T222 0H88Q81 0 78 4T74 15V20L198 724Q201 743 219 743H353Q369 743 369 728V724ZM498 803Q498 794 488 794H390Q380 794 377 796T368 806L318 876L241 806Q233 799 229 797T215 794H107Q99 794 99 800Q99 805 105 811L215 928Q223 936 228 939T244 943H404Q415 943 419 940T429 928L496 811Q498 808 498 803Z"  />
<glyph unicode="&#xCF;" horiz-adv-x="311" d="M369 724L245 20Q243 12 237 6T222 0H88Q81 0 78 4T74 15V20L198 724Q201 743 219 743H353Q369 743 369 728V724ZM494 914L478 821Q476 813 468 807T452 801H358Q341 801 341 818V821L357 914Q359 922 366 928T382 934H476Q484 934 489 930T494 917V914ZM277 914L261 821Q259 813 252 807T236 801H142Q134 801 129 805T124 818V821L140 914Q142 922 150 928T166 934H260Q277 934 277 917V914Z"  />
<glyph unicode="&#xD0;" horiz-adv-x="682" d="M715 508Q715 471 708 436L685 307Q670 222 641 162T566 64T457 9T310 -9Q279 -9 248 -8T189 -4T138 0T100 6Q89 8 83 13T76 31Q76 37 77 41L125 312H69Q53 312 53 327V331L70 428Q72 436 78 441T93 447H149L194 702Q197 719 205 727T229 737Q245 740 269 742T321 747T382 750T445 752Q507 752 557 736T642 688T696 612T715 508ZM543 495Q543 528 534 549T509 583T470 601T419 607Q400 607 380 607T348 605L320 447H381Q396 447 396 432V428L379 331Q376 312 357 312H296L265 138Q276 137 296 137T336 136Q372 136 401 143T452 170T489 223T514 307L537 436Q543 469 543 495Z"  />
<glyph unicode="&#xD1;" horiz-adv-x="729" d="M787 724L666 38Q663 22 651 11T622 0H538Q522 0 507 5T483 31L317 425Q313 433 309 433Q304 433 303 425L232 20Q230 12 223 6T208 0H90Q74 0 74 17V20L194 705Q197 721 210 732T239 743H315Q330 743 345 737T369 712L541 300Q545 292 547 292Q549 292 551 294T554 301L629 724Q631 732 637 737T652 743H770Q787 743 787 727V724ZM722 927L719 907Q709 839 676 812T582 785Q567 785 545 791T508 809L471 838Q448 856 434 856Q424 856 417 852T406 829L402 810Q399 793 384 793H313Q300 793 300 805Q300 806 300 807T301 810L305 829Q318 894 350 922T444 950Q459 950 480 944T515 927L553 899Q564 891 573 886T590 881Q601 881 608 885T618 908L621 927Q624 943 640 943H710Q722 943 722 932V927Z"  />
<glyph unicode="&#xD2;" horiz-adv-x="698" d="M728 509Q728 491 727 472T721 431L700 312Q685 224 654 163T579 64T476 8T347 -9Q296 -9 251 6T173 52T120 128T101 236Q101 274 108 312L129 431Q145 524 179 586T259 684T362 736T482 752Q532 752 577 738T655 695T708 619T728 509ZM556 497Q556 554 531 578T455 602Q392 602 355 564T302 431L281 312Q274 274 274 242Q274 185 299 163T374 141Q437 141 474 181T528 312L549 431Q552 450 554 466T556 497ZM576 803Q576 794 565 794H466Q456 794 453 797T444 806L344 928Q341 932 341 935Q341 943 353 943H477Q488 943 492 940T502 928L573 811Q576 806 576 803Z"  />
<glyph unicode="&#xD3;" horiz-adv-x="698" d="M728 509Q728 491 727 472T721 431L700 312Q685 224 654 163T579 64T476 8T347 -9Q296 -9 251 6T173 52T120 128T101 236Q101 274 108 312L129 431Q145 524 179 586T259 684T362 736T482 752Q532 752 577 738T655 695T708 619T728 509ZM556 497Q556 554 531 578T455 602Q392 602 355 564T302 431L281 312Q274 274 274 242Q274 185 299 163T374 141Q437 141 474 181T528 312L549 431Q552 450 554 466T556 497ZM686 938Q686 933 680 929L536 807Q529 801 525 798T510 795H393Q385 795 385 801Q385 806 391 812L505 929Q513 937 518 940T534 944H675Q686 944 686 938Z"  />
<glyph unicode="&#xD4;" horiz-adv-x="698" d="M728 509Q728 491 727 472T721 431L700 312Q685 224 654 163T579 64T476 8T347 -9Q296 -9 251 6T173 52T120 128T101 236Q101 274 108 312L129 431Q145 524 179 586T259 684T362 736T482 752Q532 752 577 738T655 695T708 619T728 509ZM556 497Q556 554 531 578T455 602Q392 602 355 564T302 431L281 312Q274 274 274 242Q274 185 299 163T374 141Q437 141 474 181T528 312L549 431Q552 450 554 466T556 497ZM685 804Q685 795 675 795H577Q567 795 564 797T555 807L505 877L428 807Q420 800 416 798T402 795H294Q286 795 286 801Q286 806 292 812L402 929Q410 937 415 940T431 944H591Q602 944 606 941T616 929L683 812Q685 809 685 804Z"  />
<glyph unicode="&#xD5;" horiz-adv-x="698" d="M728 509Q728 491 727 472T721 431L700 312Q685 224 654 163T579 64T476 8T347 -9Q296 -9 251 6T173 52T120 128T101 236Q101 274 108 312L129 431Q145 524 179 586T259 684T362 736T482 752Q532 752 577 738T655 695T708 619T728 509ZM556 497Q556 554 531 578T455 602Q392 602 355 564T302 431L281 312Q274 274 274 242Q274 185 299 163T374 141Q437 141 474 181T528 312L549 431Q552 450 554 466T556 497ZM717 928L714 908Q704 840 671 813T577 786Q562 786 540 792T503 810L466 839Q443 857 429 857Q419 857 412 853T401 830L397 811Q394 794 379 794H308Q295 794 295 806Q295 807 295 808T296 811L300 830Q313 895 345 923T439 951Q454 951 475 945T510 928L548 900Q559 892 568 887T585 882Q596 882 603 886T613 909L616 928Q619 944 635 944H705Q717 944 717 933V928Z"  />
<glyph unicode="&#xD6;" horiz-adv-x="698" d="M728 509Q728 491 727 472T721 431L700 312Q685 224 654 163T579 64T476 8T347 -9Q296 -9 251 6T173 52T120 128T101 236Q101 274 108 312L129 431Q145 524 179 586T259 684T362 736T482 752Q532 752 577 738T655 695T708 619T728 509ZM556 497Q556 554 531 578T455 602Q392 602 355 564T302 431L281 312Q274 274 274 242Q274 185 299 163T374 141Q437 141 474 181T528 312L549 431Q552 450 554 466T556 497ZM680 914L664 821Q662 813 654 807T638 801H544Q527 801 527 818V821L543 914Q545 922 552 928T568 934H662Q670 934 675 930T680 917V914ZM463 914L447 821Q445 813 438 807T422 801H328Q320 801 315 805T310 818V821L326 914Q328 922 336 928T352 934H446Q463 934 463 917V914Z"  />
<glyph unicode="&#xD7;" horiz-adv-x="645" d="M600 255Q600 250 595 245L532 182Q527 177 522 177Q514 177 506 185L386 305L266 185Q258 177 251 177Q246 177 241 182L177 246Q172 251 172 256Q172 263 180 271L300 391L180 511Q172 519 172 526Q172 531 177 536L241 600Q246 605 251 605Q258 605 266 597L386 477L506 597Q514 605 522 605Q527 605 532 600L595 537Q600 532 600 527Q600 519 592 511L472 391L592 271Q600 263 600 255Z"  />
<glyph unicode="&#xD8;" horiz-adv-x="698" d="M807 741Q807 735 803 731L707 623Q728 575 728 509Q728 491 727 472T721 431L700 312Q685 224 654 163T579 64T476 8T347 -9Q300 -9 259 3T186 41L151 2Q141 -9 128 -9H31Q22 -9 22 -1Q22 5 27 10L124 119Q101 170 101 236Q101 274 108 312L129 431Q145 524 179 586T259 684T362 736T482 752Q530 752 572 740T647 701L682 741Q687 747 690 748T701 750H798Q807 750 807 741ZM533 575Q509 602 455 602Q392 602 355 564T302 431L281 312L278 290L533 575ZM297 165Q321 141 374 141Q437 141 474 181T528 312L549 431L552 451L297 165Z"  />
<glyph unicode="&#xD9;" horiz-adv-x="711" d="M772 724L693 279Q676 185 643 128T566 41T467 1T353 -9Q300 -9 256 3T179 42T129 110T110 208Q110 225 111 242T116 279L195 724Q197 732 203 737T218 743H349Q366 743 366 727V724L287 279Q281 246 281 220Q281 175 303 155T379 134Q413 134 437 142T477 168T504 213T522 279L601 724Q603 732 609 737T624 743H754Q762 743 767 739T772 727V724ZM598 803Q598 794 587 794H488Q478 794 475 797T466 806L366 928Q363 932 363 935Q363 943 375 943H499Q510 943 514 940T524 928L595 811Q598 806 598 803Z"  />
<glyph unicode="&#xDA;" horiz-adv-x="711" d="M772 724L693 279Q676 185 643 128T566 41T467 1T353 -9Q300 -9 256 3T179 42T129 110T110 208Q110 225 111 242T116 279L195 724Q197 732 203 737T218 743H349Q366 743 366 727V724L287 279Q281 246 281 220Q281 175 303 155T379 134Q413 134 437 142T477 168T504 213T522 279L601 724Q603 732 609 737T624 743H754Q762 743 767 739T772 727V724ZM705 937Q705 932 699 928L555 806Q548 800 544 797T529 794H412Q404 794 404 800Q404 805 410 811L524 928Q532 936 537 939T553 943H694Q705 943 705 937Z"  />
<glyph unicode="&#xDB;" horiz-adv-x="711" d="M772 724L693 279Q676 185 643 128T566 41T467 1T353 -9Q300 -9 256 3T179 42T129 110T110 208Q110 225 111 242T116 279L195 724Q197 732 203 737T218 743H349Q366 743 366 727V724L287 279Q281 246 281 220Q281 175 303 155T379 134Q413 134 437 142T477 168T504 213T522 279L601 724Q603 732 609 737T624 743H754Q762 743 767 739T772 727V724ZM699 804Q699 795 689 795H591Q581 795 578 797T569 807L519 877L442 807Q434 800 430 798T416 795H308Q300 795 300 801Q300 806 306 812L416 929Q424 937 429 940T445 944H605Q616 944 620 941T630 929L697 812Q699 809 699 804Z"  />
<glyph unicode="&#xDC;" horiz-adv-x="711" d="M772 724L693 279Q676 185 643 128T566 41T467 1T353 -9Q300 -9 256 3T179 42T129 110T110 208Q110 225 111 242T116 279L195 724Q197 732 203 737T218 743H349Q366 743 366 727V724L287 279Q281 246 281 220Q281 175 303 155T379 134Q413 134 437 142T477 168T504 213T522 279L601 724Q603 732 609 737T624 743H754Q762 743 767 739T772 727V724ZM691 914L675 821Q673 813 665 807T649 801H555Q538 801 538 818V821L554 914Q556 922 563 928T579 934H673Q681 934 686 930T691 917V914ZM474 914L458 821Q456 813 449 807T433 801H339Q331 801 326 805T321 818V821L337 914Q339 922 347 928T363 934H457Q474 934 474 917V914Z"  />
<glyph unicode="&#xDD;" horiz-adv-x="649" d="M755 731Q755 725 752 721L540 375Q519 340 501 323T462 298L413 20Q411 12 404 6T389 0H258Q242 0 242 17V20L291 298Q274 306 261 323T238 375L148 721Q148 722 148 723T147 725Q147 733 153 738T167 743H307Q315 743 318 738T324 726L382 444Q384 434 387 432T395 429Q400 429 403 431T412 444L570 726Q574 733 579 738T593 743H741Q755 743 755 731ZM681 937Q681 932 675 928L531 806Q524 800 520 797T505 794H388Q380 794 380 800Q380 805 386 811L500 928Q508 936 513 939T529 943H670Q681 943 681 937Z"  />
<glyph unicode="&#xDE;" horiz-adv-x="652" d="M697 473Q697 391 671 334T597 240T486 186T346 169Q326 169 308 169T268 171L242 20Q240 12 234 6T219 0H88Q73 0 73 16V19V20L197 724Q200 743 219 743H350Q366 743 366 728V725V724L355 665Q359 665 368 665T387 666T409 666T429 666Q479 666 527 656T613 623T674 564T697 473ZM523 448Q523 489 494 505T408 522Q403 522 392 522T368 522T345 522T330 521L293 314Q297 314 308 314T331 313T355 313T371 313Q440 313 481 344T523 448Z"  />
<glyph unicode="&#xDF;" horiz-adv-x="652" d="M690 589Q690 560 682 531T658 477T619 430T567 397Q589 384 603 368T626 334T638 298T642 265Q642 199 622 148T563 62T472 9T353 -9Q340 -9 324 -8T293 -3Q285 -1 280 3T277 16L294 112Q297 128 308 128H309Q318 127 327 127T345 127Q414 127 446 160T479 263Q479 295 459 314T387 334H356Q339 334 339 350V353L353 432Q355 440 362 445T377 451H408Q467 451 497 484T527 566Q527 602 507 618T441 635Q376 635 349 606T311 515L224 21Q222 13 216 7T201 0H77Q69 0 65 5T61 17V21L148 515Q161 590 185 639T247 719T335 761T452 774Q569 774 629 726T690 589Z"  />
<glyph unicode="&#xE0;" horiz-adv-x="581" d="M389 581Q440 581 493 575T596 556Q613 551 618 546T622 526L534 20Q532 12 528 6T511 0H409Q401 0 396 5T392 20L396 49Q355 17 318 4T241 -9Q196 -9 164 7T112 49T83 110T73 183Q73 197 74 211T78 239Q81 261 85 279Q88 295 90 310T94 333Q117 464 194 522T389 581ZM445 442Q431 444 410 446T368 448Q314 448 290 417T254 325L236 220Q233 203 233 187Q233 162 244 144T290 126Q316 126 343 136T396 161L445 442ZM497 639Q497 630 486 630H387Q377 630 374 633T365 642L265 764Q262 768 262 771Q262 779 274 779H398Q409 779 413 776T423 764L494 647Q497 642 497 639Z"  />
<glyph unicode="&#xE1;" horiz-adv-x="581" d="M389 581Q440 581 493 575T596 556Q613 551 618 546T622 526L534 20Q532 12 528 6T511 0H409Q401 0 396 5T392 20L396 49Q355 17 318 4T241 -9Q196 -9 164 7T112 49T83 110T73 183Q73 197 74 211T78 239Q81 261 85 279Q88 295 90 310T94 333Q117 464 194 522T389 581ZM445 442Q431 444 410 446T368 448Q314 448 290 417T254 325L236 220Q233 203 233 187Q233 162 244 144T290 126Q316 126 343 136T396 161L445 442ZM629 773Q629 768 623 764L479 642Q472 636 468 633T453 630H336Q328 630 328 636Q328 641 334 647L448 764Q456 772 461 775T477 779H618Q629 779 629 773Z"  />
<glyph unicode="&#xE2;" horiz-adv-x="581" d="M389 581Q440 581 493 575T596 556Q613 551 618 546T622 526L534 20Q532 12 528 6T511 0H409Q401 0 396 5T392 20L396 49Q355 17 318 4T241 -9Q196 -9 164 7T112 49T83 110T73 183Q73 197 74 211T78 239Q81 261 85 279Q88 295 90 310T94 333Q117 464 194 522T389 581ZM445 442Q431 444 410 446T368 448Q314 448 290 417T254 325L236 220Q233 203 233 187Q233 162 244 144T290 126Q316 126 343 136T396 161L445 442ZM608 639Q608 630 598 630H500Q490 630 487 632T478 642L428 712L351 642Q343 635 339 633T325 630H217Q209 630 209 636Q209 641 215 647L325 764Q333 772 338 775T354 779H514Q525 779 529 776T539 764L606 647Q608 644 608 639Z"  />
<glyph unicode="&#xE3;" horiz-adv-x="581" d="M389 581Q440 581 493 575T596 556Q613 551 618 546T622 526L534 20Q532 12 528 6T511 0H409Q401 0 396 5T392 20L396 49Q355 17 318 4T241 -9Q196 -9 164 7T112 49T83 110T73 183Q73 197 74 211T78 239Q81 261 85 279Q88 295 90 310T94 333Q117 464 194 522T389 581ZM445 442Q431 444 410 446T368 448Q314 448 290 417T254 325L236 220Q233 203 233 187Q233 162 244 144T290 126Q316 126 343 136T396 161L445 442ZM625 766L622 746Q612 678 579 651T485 624Q470 624 448 630T411 648L374 677Q351 695 337 695Q327 695 320 691T309 668L305 649Q302 632 287 632H216Q203 632 203 644Q203 645 203 646T204 649L208 668Q221 733 253 761T347 789Q362 789 383 783T418 766L456 738Q467 730 476 725T493 720Q504 720 511 724T521 747L524 766Q527 782 543 782H613Q625 782 625 771V766Z"  />
<glyph unicode="&#xE4;" horiz-adv-x="581" d="M389 581Q440 581 493 575T596 556Q613 551 618 546T622 526L534 20Q532 12 528 6T511 0H409Q401 0 396 5T392 20L396 49Q355 17 318 4T241 -9Q196 -9 164 7T112 49T83 110T73 183Q73 197 74 211T78 239Q81 261 85 279Q88 295 90 310T94 333Q117 464 194 522T389 581ZM445 442Q431 444 410 446T368 448Q314 448 290 417T254 325L236 220Q233 203 233 187Q233 162 244 144T290 126Q316 126 343 136T396 161L445 442ZM608 753L592 660Q590 652 582 646T566 640H472Q455 640 455 657V660L471 753Q473 761 480 767T496 773H590Q598 773 603 769T608 756V753ZM391 753L375 660Q373 652 366 646T350 640H256Q248 640 243 644T238 657V660L254 753Q256 761 264 767T280 773H374Q391 773 391 756V753Z"  />
<glyph unicode="&#xE5;" horiz-adv-x="581" d="M389 581Q440 581 493 575T596 556Q613 551 618 546T622 526L534 20Q532 12 528 6T511 0H409Q401 0 396 5T392 20L396 49Q355 17 318 4T241 -9Q196 -9 164 7T112 49T83 110T73 183Q73 197 74 211T78 239Q81 261 85 279Q88 295 90 310T94 333Q117 464 194 522T389 581ZM445 442Q431 444 410 446T368 448Q314 448 290 417T254 325L236 220Q233 203 233 187Q233 162 244 144T290 126Q316 126 343 136T396 161L445 442ZM538 741Q538 717 529 696T504 659T467 634T422 625Q398 625 377 634T340 659T315 696T305 741Q305 765 314 786T339 823T376 848T422 858Q446 858 467 849T504 824T529 787T538 741ZM467 742Q467 760 454 773T422 786Q404 786 392 774T379 742Q379 723 391 711T422 698Q440 698 453 711T467 742Z"  />
<glyph unicode="&#xE6;" horiz-adv-x="881" d="M898 384Q898 370 897 357T893 329L882 265Q880 257 873 251T857 244H547L540 203Q539 198 539 195T538 187Q538 154 565 140T642 126Q656 126 680 126T729 128T778 131T817 134H822Q835 134 835 123V118L822 46Q820 35 816 30T799 20Q754 6 699 -1T595 -9Q552 -9 516 2T456 37Q412 15 364 3T262 -9Q223 -9 188 0T127 28T85 75T69 140Q69 155 72 172L74 183Q83 231 106 261T165 310T251 334T361 341H403L405 350Q407 361 408 371T409 390Q409 422 394 434T344 446Q321 446 296 446T249 444T208 442T179 439H176Q163 439 163 452V457L177 536Q181 555 201 560Q214 563 233 567T275 574T320 579T367 581Q423 581 460 566T521 521Q554 553 598 567T695 581Q748 581 786 566T849 523T886 460T898 384ZM745 384Q745 418 728 437T672 456Q626 456 600 428T566 350L563 332H739L742 350Q745 368 745 384ZM346 253Q293 253 264 238T228 183L226 172Q225 168 225 165T225 158Q225 129 245 118T294 106Q314 106 333 109T369 119L393 253H346Z"  />
<glyph unicode="&#xE7;" horiz-adv-x="474" d="M529 550Q529 548 529 547T528 543L512 454Q510 446 504 442T490 437H488Q461 440 436 442T367 444Q349 444 333 439T304 421T281 386T265 328L250 244Q248 230 247 218T245 196Q245 155 262 142T312 128Q333 128 349 128T380 130T408 132T435 135H437Q453 135 453 121V118L437 29Q435 18 430 14T412 6Q390 1 357 -4T279 -9Q235 -9 199 4T137 41T97 102T82 185Q82 212 88 244L103 328Q115 398 139 446T199 525T280 568T380 581Q425 581 458 576T511 566Q529 561 529 550ZM338 -41Q338 -44 332 -50L188 -172Q180 -178 176 -181T162 -184H55Q47 -184 47 -178Q47 -173 53 -167L166 -50Q174 -42 179 -39T196 -35H328Q338 -35 338 -41Z"  />
<glyph unicode="&#xE8;" horiz-adv-x="590" d="M606 372Q606 359 605 346T601 318L591 260Q586 236 566 236H245Q243 225 242 215T241 195Q241 156 261 141T330 125Q354 125 381 126T435 128T485 131T524 134Q536 135 540 132T543 118L529 42Q527 30 523 24T504 15Q454 3 407 -3T294 -9Q253 -9 216 3T149 39T102 102T84 192Q84 205 85 219T89 248L101 318Q124 449 200 515T400 581Q451 581 489 565T554 521T593 454T606 372ZM455 380Q455 415 437 433T377 451Q326 451 300 420T262 336H450Q452 348 453 359T455 380ZM517 639Q517 630 506 630H407Q397 630 394 633T385 642L285 764Q282 768 282 771Q282 779 294 779H418Q429 779 433 776T443 764L514 647Q517 642 517 639Z"  />
<glyph unicode="&#xE9;" horiz-adv-x="590" d="M606 372Q606 359 605 346T601 318L591 260Q586 236 566 236H245Q243 225 242 215T241 195Q241 156 261 141T330 125Q354 125 381 126T435 128T485 131T524 134Q536 135 540 132T543 118L529 42Q527 30 523 24T504 15Q454 3 407 -3T294 -9Q253 -9 216 3T149 39T102 102T84 192Q84 205 85 219T89 248L101 318Q124 449 200 515T400 581Q451 581 489 565T554 521T593 454T606 372ZM455 380Q455 415 437 433T377 451Q326 451 300 420T262 336H450Q452 348 453 359T455 380ZM611 773Q611 768 605 764L461 642Q454 636 450 633T435 630H318Q310 630 310 636Q310 641 316 647L430 764Q438 772 443 775T459 779H600Q611 779 611 773Z"  />
<glyph unicode="&#xEA;" horiz-adv-x="590" d="M606 372Q606 359 605 346T601 318L591 260Q586 236 566 236H245Q243 225 242 215T241 195Q241 156 261 141T330 125Q354 125 381 126T435 128T485 131T524 134Q536 135 540 132T543 118L529 42Q527 30 523 24T504 15Q454 3 407 -3T294 -9Q253 -9 216 3T149 39T102 102T84 192Q84 205 85 219T89 248L101 318Q124 449 200 515T400 581Q451 581 489 565T554 521T593 454T606 372ZM455 380Q455 415 437 433T377 451Q326 451 300 420T262 336H450Q452 348 453 359T455 380ZM606 639Q606 630 596 630H498Q488 630 485 632T476 642L426 712L349 642Q341 635 337 633T323 630H215Q207 630 207 636Q207 641 213 647L323 764Q331 772 336 775T352 779H512Q523 779 527 776T537 764L604 647Q606 644 606 639Z"  />
<glyph unicode="&#xEB;" horiz-adv-x="590" d="M606 372Q606 359 605 346T601 318L591 260Q586 236 566 236H245Q243 225 242 215T241 195Q241 156 261 141T330 125Q354 125 381 126T435 128T485 131T524 134Q536 135 540 132T543 118L529 42Q527 30 523 24T504 15Q454 3 407 -3T294 -9Q253 -9 216 3T149 39T102 102T84 192Q84 205 85 219T89 248L101 318Q124 449 200 515T400 581Q451 581 489 565T554 521T593 454T606 372ZM455 380Q455 415 437 433T377 451Q326 451 300 420T262 336H450Q452 348 453 359T455 380ZM602 751L586 658Q584 650 576 644T560 638H466Q449 638 449 655V658L465 751Q467 759 474 765T490 771H584Q592 771 597 767T602 754V751ZM385 751L369 658Q367 650 360 644T344 638H250Q242 638 237 642T232 655V658L248 751Q250 759 258 765T274 771H368Q385 771 385 754V751Z"  />
<glyph unicode="&#xEC;" horiz-adv-x="290" d="M324 553L230 20Q228 12 221 6T206 0H84Q68 0 68 16V20L162 553Q164 561 170 567T185 573H307Q324 573 324 556V553ZM342 639Q342 630 331 630H232Q222 630 219 633T210 642L110 764Q107 768 107 771Q107 779 119 779H243Q254 779 258 776T268 764L339 647Q342 642 342 639Z"  />
<glyph unicode="&#xED;" horiz-adv-x="290" d="M324 553L230 20Q228 12 221 6T206 0H84Q68 0 68 16V20L162 553Q164 561 170 567T185 573H307Q324 573 324 556V553ZM472 773Q472 768 466 764L322 642Q315 636 311 633T296 630H179Q171 630 171 636Q171 641 177 647L291 764Q299 772 304 775T320 779H461Q472 779 472 773Z"  />
<glyph unicode="&#xEE;" horiz-adv-x="290" d="M324 553L230 20Q228 12 221 6T206 0H84Q68 0 68 16V20L162 553Q164 561 170 567T185 573H307Q324 573 324 556V553ZM458 639Q458 630 448 630H350Q340 630 337 632T328 642L278 712L201 642Q193 635 189 633T175 630H67Q59 630 59 636Q59 641 65 647L175 764Q183 772 188 775T204 779H364Q375 779 379 776T389 764L456 647Q458 644 458 639Z"  />
<glyph unicode="&#xEF;" horiz-adv-x="290" d="M324 553L230 20Q228 12 221 6T206 0H84Q68 0 68 16V20L162 553Q164 561 170 567T185 573H307Q324 573 324 556V553ZM455 751L439 658Q437 650 429 644T413 638H319Q302 638 302 655V658L318 751Q320 759 327 765T343 771H437Q445 771 450 767T455 754V751ZM238 751L222 658Q220 650 213 644T197 638H103Q95 638 90 642T85 655V658L101 751Q103 759 111 765T127 771H221Q238 771 238 754V751Z"  />
<glyph unicode="&#xF0;" horiz-adv-x="590" d="M604 404Q604 349 594 290L589 259Q566 119 494 55T292 -9Q241 -9 202 6T137 48T97 114T83 200Q83 214 84 228T88 259L93 290Q101 341 121 389T175 474T257 534T369 557Q387 557 405 554T444 546Q421 578 396 597T344 631L261 575Q256 572 253 570T246 568Q241 568 237 575L216 605Q213 609 213 613Q213 619 227 629L273 660Q262 664 250 668T227 675Q214 678 214 687Q214 692 216 695L253 763Q258 774 268 774Q273 774 276 773Q306 765 333 756T386 736L475 796Q480 800 489 800Q496 800 500 795L522 766Q524 764 524 760Q524 755 521 751T512 744L452 703Q530 656 567 584T604 404ZM437 346Q437 388 421 405T367 422Q320 422 294 393T255 290L250 259Q244 224 244 201Q244 160 261 144T316 127Q339 127 357 133T388 155T411 195T427 259L432 290Q435 307 436 320T437 346Z"  />
<glyph unicode="&#xF1;" horiz-adv-x="612" d="M620 415Q620 387 614 354L556 21Q554 13 547 7T531 0H410Q402 0 398 5T394 17V21L452 354Q457 382 457 398Q457 426 442 436T403 447Q374 447 343 436T295 415L226 21Q224 13 217 7T202 0H81Q73 0 69 5T64 18V21L158 553Q160 561 166 567T181 573H290Q307 573 307 556V553L303 529Q337 555 378 568T459 581Q491 581 520 572T572 542T607 491T620 415ZM638 766L635 746Q625 678 592 651T498 624Q483 624 461 630T424 648L387 677Q364 695 350 695Q340 695 333 691T322 668L318 649Q315 632 300 632H229Q216 632 216 644Q216 645 216 646T217 649L221 668Q234 733 266 761T360 789Q375 789 396 783T431 766L469 738Q480 730 489 725T506 720Q517 720 524 724T534 747L537 766Q540 782 556 782H626Q638 782 638 771V766Z"  />
<glyph unicode="&#xF2;" horiz-adv-x="590" d="M608 379Q608 365 606 348T602 321L589 251Q565 123 496 57T293 -9Q242 -9 203 6T137 49T97 113T83 195Q83 209 84 223T88 251L101 321Q126 457 199 519T397 581Q499 581 553 526T608 379ZM446 367Q446 443 373 443Q329 443 302 415T262 321L249 251Q247 237 246 226T244 203Q244 164 262 146T318 128Q367 128 392 159T428 251L441 321Q446 349 446 367ZM495 639Q495 630 484 630H385Q375 630 372 633T363 642L263 764Q260 768 260 771Q260 779 272 779H396Q407 779 411 776T421 764L492 647Q495 642 495 639Z"  />
<glyph unicode="&#xF3;" horiz-adv-x="590" d="M608 379Q608 365 606 348T602 321L589 251Q565 123 496 57T293 -9Q242 -9 203 6T137 49T97 113T83 195Q83 209 84 223T88 251L101 321Q126 457 199 519T397 581Q499 581 553 526T608 379ZM446 367Q446 443 373 443Q329 443 302 415T262 321L249 251Q247 237 246 226T244 203Q244 164 262 146T318 128Q367 128 392 159T428 251L441 321Q446 349 446 367ZM607 773Q607 768 601 764L457 642Q450 636 446 633T431 630H314Q306 630 306 636Q306 641 312 647L426 764Q434 772 439 775T455 779H596Q607 779 607 773Z"  />
<glyph unicode="&#xF4;" horiz-adv-x="590" d="M608 379Q608 365 606 348T602 321L589 251Q565 123 496 57T293 -9Q242 -9 203 6T137 49T97 113T83 195Q83 209 84 223T88 251L101 321Q126 457 199 519T397 581Q499 581 553 526T608 379ZM446 367Q446 443 373 443Q329 443 302 415T262 321L249 251Q247 237 246 226T244 203Q244 164 262 146T318 128Q367 128 392 159T428 251L441 321Q446 349 446 367ZM606 639Q606 630 596 630H498Q488 630 485 632T476 642L426 712L349 642Q341 635 337 633T323 630H215Q207 630 207 636Q207 641 213 647L323 764Q331 772 336 775T352 779H512Q523 779 527 776T537 764L604 647Q606 644 606 639Z"  />
<glyph unicode="&#xF5;" horiz-adv-x="590" d="M608 379Q608 365 606 348T602 321L589 251Q565 123 496 57T293 -9Q242 -9 203 6T137 49T97 113T83 195Q83 209 84 223T88 251L101 321Q126 457 199 519T397 581Q499 581 553 526T608 379ZM446 367Q446 443 373 443Q329 443 302 415T262 321L249 251Q247 237 246 226T244 203Q244 164 262 146T318 128Q367 128 392 159T428 251L441 321Q446 349 446 367ZM628 766L625 746Q615 678 582 651T488 624Q473 624 451 630T414 648L377 677Q354 695 340 695Q330 695 323 691T312 668L308 649Q305 632 290 632H219Q206 632 206 644Q206 645 206 646T207 649L211 668Q224 733 256 761T350 789Q365 789 386 783T421 766L459 738Q470 730 479 725T496 720Q507 720 514 724T524 747L527 766Q530 782 546 782H616Q628 782 628 771V766Z"  />
<glyph unicode="&#xF6;" horiz-adv-x="590" d="M608 379Q608 365 606 348T602 321L589 251Q565 123 496 57T293 -9Q242 -9 203 6T137 49T97 113T83 195Q83 209 84 223T88 251L101 321Q126 457 199 519T397 581Q499 581 553 526T608 379ZM446 367Q446 443 373 443Q329 443 302 415T262 321L249 251Q247 237 246 226T244 203Q244 164 262 146T318 128Q367 128 392 159T428 251L441 321Q446 349 446 367ZM602 751L586 658Q584 650 576 644T560 638H466Q449 638 449 655V658L465 751Q467 759 474 765T490 771H584Q592 771 597 767T602 754V751ZM385 751L369 658Q367 650 360 644T344 638H250Q242 638 237 642T232 655V658L248 751Q250 759 258 765T274 771H368Q385 771 385 754V751Z"  />
<glyph unicode="&#xF7;" horiz-adv-x="645" d="M469 552Q469 544 463 538T449 532H331Q323 532 317 538T311 552V664Q311 672 317 678T331 684H449Q457 684 463 678T469 664V552ZM620 346Q620 338 614 334T600 330H181Q173 330 167 334T161 346V436Q161 444 167 448T181 452H600Q608 452 614 448T620 436V346ZM469 104Q469 96 463 91T449 85H331Q323 85 317 90T311 104V216Q311 224 317 230T331 236H449Q457 236 463 230T469 216V104Z"  />
<glyph unicode="&#xF8;" horiz-adv-x="590" d="M673 600Q673 593 667 587L580 492Q608 446 608 379Q608 351 602 321L589 251Q565 123 496 57T293 -9Q251 -9 218 1T158 31L107 -25Q101 -32 98 -33T89 -35H23Q16 -35 16 -29Q16 -22 22 -16L112 82Q83 131 83 195Q83 209 84 223T88 251L101 321Q126 457 199 519T397 581Q481 581 533 543L582 596Q588 603 591 604T600 606H666Q673 606 673 600ZM426 426Q409 443 373 443Q329 443 302 415T262 321L249 251L246 228L426 426ZM263 145Q280 128 318 128Q367 128 392 159T428 251L441 321L445 344L263 145Z"  />
<glyph unicode="&#xF9;" horiz-adv-x="612" d="M649 552L555 20Q553 12 547 6T532 0H420Q403 0 403 16V20L408 44Q373 21 337 6T249 -9Q174 -9 134 35T93 158Q93 186 99 219L157 552Q159 560 166 566T182 573H303Q311 573 315 568T319 556V552L261 219Q256 191 256 173Q256 147 269 136T318 125Q325 125 337 127T364 134T392 145T418 158L487 552Q489 560 496 566T511 573H632Q640 573 644 568T649 555V552ZM506 639Q506 630 495 630H396Q386 630 383 633T374 642L274 764Q271 768 271 771Q271 779 283 779H407Q418 779 422 776T432 764L503 647Q506 642 506 639Z"  />
<glyph unicode="&#xFA;" horiz-adv-x="612" d="M649 552L555 20Q553 12 547 6T532 0H420Q403 0 403 16V20L408 44Q373 21 337 6T249 -9Q174 -9 134 35T93 158Q93 186 99 219L157 552Q159 560 166 566T182 573H303Q311 573 315 568T319 556V552L261 219Q256 191 256 173Q256 147 269 136T318 125Q325 125 337 127T364 134T392 145T418 158L487 552Q489 560 496 566T511 573H632Q640 573 644 568T649 555V552ZM631 773Q631 768 625 764L481 642Q474 636 470 633T455 630H338Q330 630 330 636Q330 641 336 647L450 764Q458 772 463 775T479 779H620Q631 779 631 773Z"  />
<glyph unicode="&#xFB;" horiz-adv-x="612" d="M649 552L555 20Q553 12 547 6T532 0H420Q403 0 403 16V20L408 44Q373 21 337 6T249 -9Q174 -9 134 35T93 158Q93 186 99 219L157 552Q159 560 166 566T182 573H303Q311 573 315 568T319 556V552L261 219Q256 191 256 173Q256 147 269 136T318 125Q325 125 337 127T364 134T392 145T418 158L487 552Q489 560 496 566T511 573H632Q640 573 644 568T649 555V552ZM617 639Q617 630 607 630H509Q499 630 496 632T487 642L437 712L360 642Q352 635 348 633T334 630H226Q218 630 218 636Q218 641 224 647L334 764Q342 772 347 775T363 779H523Q534 779 538 776T548 764L615 647Q617 644 617 639Z"  />
<glyph unicode="&#xFC;" horiz-adv-x="612" d="M649 552L555 20Q553 12 547 6T532 0H420Q403 0 403 16V20L408 44Q373 21 337 6T249 -9Q174 -9 134 35T93 158Q93 186 99 219L157 552Q159 560 166 566T182 573H303Q311 573 315 568T319 556V552L261 219Q256 191 256 173Q256 147 269 136T318 125Q325 125 337 127T364 134T392 145T418 158L487 552Q489 560 496 566T511 573H632Q640 573 644 568T649 555V552ZM615 751L599 658Q597 650 589 644T573 638H479Q462 638 462 655V658L478 751Q480 759 487 765T503 771H597Q605 771 610 767T615 754V751ZM398 751L382 658Q380 650 373 644T357 638H263Q255 638 250 642T245 655V658L261 751Q263 759 271 765T287 771H381Q398 771 398 754V751Z"  />
<glyph unicode="&#xFD;" horiz-adv-x="592" d="M668 558Q668 556 666 550L394 -39Q373 -83 353 -114T307 -164T243 -193T150 -202Q136 -202 119 -201T84 -197T52 -192T28 -186Q20 -184 15 -181T10 -171V-168L25 -87Q27 -79 33 -74T48 -68H50Q62 -69 78 -70T111 -72T145 -75T174 -76Q201 -76 218 -65T249 -24L263 7H258Q243 7 229 10T204 24T184 52T172 100L119 550V553Q119 573 142 573H273Q281 573 284 568T289 554L312 172Q313 163 315 161T322 159H330L493 554Q496 562 502 567T517 573H652Q659 573 663 569T668 558ZM631 773Q631 768 625 764L481 642Q474 636 470 633T455 630H338Q330 630 330 636Q330 641 336 647L450 764Q458 772 463 775T479 779H620Q631 779 631 773Z"  />
<glyph unicode="&#xFE;" horiz-adv-x="596" d="M617 378Q617 365 616 351T612 323L599 249Q576 121 508 56T316 -9Q269 -9 222 1L191 -175Q189 -183 183 -189T168 -195H46Q29 -195 29 -178V-175L192 747Q194 755 200 761T214 767H338Q354 767 354 751V747L324 576Q344 578 365 579T407 581Q504 581 560 527T617 378ZM455 375Q455 413 439 430T383 447Q358 447 339 446T300 442L245 130Q287 124 319 124Q346 124 365 129T398 149T421 188T437 249L450 323Q453 338 454 351T455 375Z"  />
<glyph unicode="&#xFF;" horiz-adv-x="592" d="M668 558Q668 556 666 550L394 -39Q373 -83 353 -114T307 -164T243 -193T150 -202Q136 -202 119 -201T84 -197T52 -192T28 -186Q20 -184 15 -181T10 -171V-168L25 -87Q27 -79 33 -74T48 -68H50Q62 -69 78 -70T111 -72T145 -75T174 -76Q201 -76 218 -65T249 -24L263 7H258Q243 7 229 10T204 24T184 52T172 100L119 550V553Q119 573 142 573H273Q281 573 284 568T289 554L312 172Q313 163 315 161T322 159H330L493 554Q496 562 502 567T517 573H652Q659 573 663 569T668 558ZM610 751L594 658Q592 650 584 644T568 638H474Q457 638 457 655V658L473 751Q475 759 482 765T498 771H592Q600 771 605 767T610 754V751ZM393 751L377 658Q375 650 368 644T352 638H258Q250 638 245 642T240 655V658L256 751Q258 759 266 765T282 771H376Q393 771 393 754V751Z"  />
<glyph unicode="&#x131;" horiz-adv-x="290" d="M324 553L230 20Q228 12 221 6T206 0H84Q68 0 68 16V20L162 553Q164 561 170 567T185 573H307Q324 573 324 556V553Z"  />
<glyph unicode="&#x152;" horiz-adv-x="989" d="M1059 724Q1059 722 1059 722T1058 719L1041 626Q1039 618 1033 612T1018 606H815Q800 606 788 604T766 595T750 575T739 539L725 455L724 447H982Q998 447 998 430V427L982 332Q980 324 973 318T958 312H700L693 276L680 206Q677 191 677 180Q677 156 690 147T732 138H935Q952 138 952 121V118L935 25Q932 7 912 4Q898 2 882 0T842 -4T789 -7T718 -9Q671 -9 626 2T550 43Q508 16 458 4T347 -9Q296 -9 251 6T173 52T120 128T101 236Q101 274 108 312L129 431Q145 524 179 586T259 684T362 736T482 752Q531 752 574 739T650 698Q688 733 739 742T851 752Q891 752 921 751T973 747T1012 743T1041 739Q1059 736 1059 724ZM556 497Q556 554 531 578T455 602Q392 602 355 564T302 431L281 312Q274 274 274 242Q274 185 299 163T374 141Q437 141 474 181T528 312L549 431Q552 450 554 466T556 497Z"  />
<glyph unicode="&#x153;" horiz-adv-x="933" d="M949 372Q949 359 948 346T944 318L934 260Q929 236 909 236H586Q584 225 583 215T582 195Q582 156 606 141T673 125Q697 125 724 126T778 128T828 130T867 134H870Q886 134 886 121V118L872 42Q870 30 866 24T847 15Q797 3 750 -3T637 -9Q592 -9 554 5T489 51Q418 -9 293 -9Q242 -9 203 6T137 49T97 113T83 195Q83 209 84 223T88 251L101 321Q126 457 199 519T397 581Q451 581 491 566T558 521Q627 581 743 581Q794 581 832 565T897 521T936 454T949 372ZM798 380Q798 415 780 433T720 451Q669 451 643 420T605 336H793Q795 348 796 359T798 380ZM446 367Q446 443 373 443Q329 443 302 415T262 321L249 251Q247 237 246 226T244 203Q244 164 262 146T318 128Q367 128 392 159T428 251L441 321Q446 349 446 367Z"  />
<glyph unicode="&#x160;" horiz-adv-x="588" d="M651 712L633 611Q630 594 613 594H611Q600 595 576 596T521 600T459 603T401 605Q383 605 367 603T339 594T319 575T312 541Q312 525 322 514T363 483L479 407Q536 370 561 331T586 247Q586 178 561 130T494 51T395 6T275 -9Q215 -9 169 -3T86 13Q70 17 70 30V33L87 131Q90 150 108 150H111Q126 148 152 146T205 143T258 140T299 138Q320 138 338 142T371 155T394 180T402 220Q402 237 391 253T350 290L227 371Q179 402 158 443T137 526Q137 592 161 635T227 705T321 741T431 752Q458 752 489 750T549 745T601 738T639 730Q651 727 651 716V712ZM648 938Q648 933 642 927L533 810Q525 802 520 799T503 795H343Q332 795 328 798T319 810L251 927Q248 931 248 935Q248 944 259 944H357Q367 944 370 942T379 932L430 862L506 932Q514 939 518 941T532 944H640Q648 944 648 938Z"  />
<glyph unicode="&#x161;" horiz-adv-x="503" d="M538 535L524 454Q521 435 504 435H501Q490 436 471 438T428 443T380 446T337 448H333Q313 448 296 443T278 413Q278 397 302 382L413 311Q460 281 476 249T492 187Q492 133 472 96T417 35T338 1T245 -9Q203 -9 154 -4T67 13Q52 17 52 31V36L67 117Q70 136 90 136H93Q113 133 135 131T180 126T223 123T261 122Q274 122 286 123T307 128T321 142T327 167Q327 177 321 186T297 207L180 282Q146 304 131 336T115 401Q115 453 134 488T187 543T262 572T349 581Q402 581 444 575T523 558Q538 553 538 540V535ZM587 773Q587 768 581 762L472 645Q464 637 459 634T442 630H282Q271 630 267 633T258 645L190 762Q187 766 187 770Q187 779 198 779H296Q306 779 309 777T318 767L369 697L445 767Q453 774 457 776T471 779H579Q587 779 587 773Z"  />
<glyph unicode="&#x178;" horiz-adv-x="649" d="M755 731Q755 725 752 721L540 375Q519 340 501 323T462 298L413 20Q411 12 404 6T389 0H258Q242 0 242 17V20L291 298Q274 306 261 323T238 375L148 721Q148 722 148 723T147 725Q147 733 153 738T167 743H307Q315 743 318 738T324 726L382 444Q384 434 387 432T395 429Q400 429 403 431T412 444L570 726Q574 733 579 738T593 743H741Q755 743 755 731ZM671 911L655 818Q653 810 645 804T629 798H535Q518 798 518 815V818L534 911Q536 919 543 925T559 931H653Q661 931 666 927T671 914V911ZM454 911L438 818Q436 810 429 804T413 798H319Q311 798 306 802T301 815V818L317 911Q319 919 327 925T343 931H437Q454 931 454 914V911Z"  />
<glyph unicode="&#x17D;" horiz-adv-x="615" d="M685 715Q682 695 678 671T669 624Q666 612 656 598L308 166Q301 157 301 153Q301 148 311 148H571Q588 148 588 133V130L569 20Q567 12 560 6T545 0H91Q75 0 65 5T54 25Q54 27 54 28T55 31L70 111Q72 122 76 131T92 155L435 577Q441 584 441 589Q441 595 431 595H193Q176 595 176 611V614L196 724Q198 732 204 737T219 743H650Q664 743 674 737T685 720V715ZM680 937Q680 932 674 926L565 809Q557 801 552 798T535 794H375Q364 794 360 797T351 809L283 926Q280 930 280 934Q280 943 291 943H389Q399 943 402 941T411 931L462 861L538 931Q546 938 550 940T564 943H672Q680 943 680 937Z"  />
<glyph unicode="&#x17E;" horiz-adv-x="515" d="M566 548Q566 542 565 539L552 465Q550 457 547 449T535 430L286 147Q282 143 282 140Q282 136 288 136H478Q493 136 493 123V120L476 20Q474 12 467 6T452 0H77Q65 0 57 5T48 24Q48 30 49 33L60 97Q62 111 67 117T81 135L342 431Q346 435 346 439Q346 443 340 443H147Q133 443 133 456V459L150 553Q152 561 158 567T173 573H538Q550 573 558 568T566 548ZM604 773Q604 768 598 762L489 645Q481 637 476 634T459 630H299Q288 630 284 633T275 645L207 762Q204 766 204 770Q204 779 215 779H313Q323 779 326 777T335 767L386 697L462 767Q470 774 474 776T488 779H596Q604 779 604 773Z"  />
<glyph unicode="&#x192;" horiz-adv-x="645" d="M679 760Q679 759 679 758T678 755L661 680Q658 662 636 662H571Q534 662 521 652T501 613L465 454H599Q616 454 616 440Q616 438 616 438T615 435L596 351Q594 343 587 337T571 330H437L362 5Q350 -45 328 -77T277 -129T212 -157T137 -165Q107 -165 80 -162T38 -156Q21 -152 21 -142Q21 -141 21 -140T22 -137L39 -62Q42 -44 64 -44H129Q147 -44 159 -42T179 -34T191 -19T199 5L273 330H147Q130 330 130 346Q130 348 130 348T131 351L150 435Q155 454 175 454H302L338 613Q349 663 371 695T423 747T489 775T564 783Q594 783 621 780T662 774Q679 770 679 760Z"  />
<glyph unicode="&#x2C6;" horiz-adv-x="443" d="M533 639Q533 630 523 630H425Q415 630 412 632T403 642L353 712L276 642Q268 635 264 633T250 630H142Q134 630 134 636Q134 641 140 647L250 764Q258 772 263 775T279 779H439Q450 779 454 776T464 764L531 647Q533 644 533 639Z"  />
<glyph unicode="&#x2DC;" horiz-adv-x="497" d="M579 766L576 746Q566 678 533 651T439 624Q424 624 402 630T365 648L328 677Q305 695 291 695Q281 695 274 691T263 668L259 649Q256 632 241 632H170Q157 632 157 644Q157 645 157 646T158 649L162 668Q175 733 207 761T301 789Q316 789 337 783T372 766L410 738Q421 730 430 725T447 720Q458 720 465 724T475 747L478 766Q481 782 497 782H567Q579 782 579 771V766Z"  />
<glyph unicode="&#x2013;" horiz-adv-x="309" d="M368 251Q366 243 359 238T344 232H44Q26 232 29 251L43 330Q45 338 51 344T65 350H365Q373 350 378 344T382 330L368 251H368Z"  />
<glyph unicode="&#x2014;" horiz-adv-x="599" d="M658 251Q656 243 649 238T634 232H44Q26 232 29 251L43 330Q45 338 51 344T65 350H655Q663 350 668 344T672 330L658 251H658Z"  />
<glyph unicode="&#x2018;" horiz-adv-x="253" d="M363 760Q363 755 360 748L267 529Q259 510 244 510H125Q115 510 115 518Q115 523 118 529L232 748Q237 758 241 762T254 767H355Q363 767 363 760Z"  />
<glyph unicode="&#x2019;" horiz-adv-x="253" d="M363 759Q363 754 360 748L246 529Q241 519 237 515T224 510H123Q115 510 115 517Q115 521 118 529L211 748Q219 767 234 767H353Q363 767 363 759Z"  />
<glyph unicode="&#x201A;" horiz-adv-x="253" d="M258 155Q258 150 255 146L119 -78Q114 -86 110 -92T97 -98H9Q-6 -98 -6 -85Q-6 -82 -4 -78L100 146Q109 165 123 165H245Q258 165 258 155Z"  />
<glyph unicode="&#x201C;" horiz-adv-x="473" d="M583 760Q583 755 580 748L487 529Q479 510 464 510H345Q335 510 335 518Q335 523 338 529L451 748Q456 758 460 762T473 767H575Q583 767 583 760ZM363 760Q363 755 360 748L267 529Q259 510 244 510H125Q115 510 115 518Q115 523 118 529L232 748Q237 758 241 762T254 767H355Q363 767 363 760Z"  />
<glyph unicode="&#x201D;" horiz-adv-x="473" d="M583 759Q583 754 580 748L466 529Q461 519 457 515T444 510H343Q335 510 335 517Q335 521 338 529L431 748Q439 767 454 767H573Q583 767 583 759ZM363 759Q363 754 360 748L247 529Q242 519 238 515T225 510H123Q115 510 115 517Q115 521 118 529L212 748Q220 767 235 767H353Q363 767 363 759Z"  />
<glyph unicode="&#x201E;" horiz-adv-x="473" d="M487 155Q487 150 484 146L348 -78Q343 -86 339 -92T326 -98H238Q223 -98 223 -85Q223 -82 225 -78L329 146Q338 165 352 165H474Q487 165 487 155ZM258 155Q258 150 255 146L119 -78Q114 -86 110 -92T97 -98H9Q-6 -98 -6 -85Q-6 -82 -4 -78L100 146Q109 165 123 165H245Q258 165 258 155Z"  />
<glyph unicode="&#x2020;" horiz-adv-x="440" d="M510 569L492 465Q489 449 470 449H378L301 14Q299 6 295 0T282 -6H150Q137 -6 137 9V14L214 449H128Q112 449 112 462V465L130 569Q133 584 152 584H238L267 748Q269 756 274 761T287 767H418Q425 767 428 763T431 752V748L402 584H494Q510 584 510 572V569Z"  />
<glyph unicode="&#x2021;" horiz-adv-x="440" d="M510 569L492 465Q489 449 470 449H378L363 361H455Q471 361 471 349V346L453 243Q450 227 431 227H339L301 14Q299 6 295 0T282 -6H150Q137 -6 137 9V14L175 227H89Q73 227 73 240V243L91 346Q94 361 113 361H199L214 449H128Q112 449 112 462V465L130 569Q133 584 152 584H238L267 748Q269 756 274 761T287 767H418Q425 767 428 763T431 752V748L402 584H494Q510 584 510 572V569Z"  />
<glyph unicode="&#x2022;" horiz-adv-x="418" d="M444 367Q444 332 431 302T395 249T342 213T277 200Q242 200 212 213T159 249T123 302T110 367Q110 401 123 431T159 485T212 521T277 534Q311 534 341 521T395 485T431 432T444 367Z"  />
<glyph unicode="&#x2026;" horiz-adv-x="767" d="M743 146L721 20Q719 12 712 6T697 0H579Q563 0 563 16V20L585 146Q587 154 593 159T608 165H726Q743 165 743 149V146ZM489 146L467 20Q465 12 458 6T443 0H325Q309 0 309 16V20L331 146Q333 154 339 159T354 165H472Q489 165 489 149V146ZM235 146L213 20Q211 12 204 6T189 0H71Q55 0 55 16V20L77 146Q79 154 85 159T100 165H218Q235 165 235 149V146Z"  />
<glyph unicode="&#x2030;" horiz-adv-x="1192" d="M1201 280Q1201 258 1197 238L1184 163Q1167 68 1122 30T1005 -9Q945 -9 915 27T884 121Q884 143 888 163L901 238Q910 287 925 320T963 372T1014 400T1079 409Q1137 409 1169 375T1201 280ZM848 280Q848 258 844 238L831 163Q814 68 769 30T652 -9Q592 -9 562 27T531 121Q531 143 535 163L548 238Q557 287 572 320T610 372T661 400T726 409Q784 409 816 375T848 280ZM827 737Q827 730 821 723L282 21Q274 10 269 5T255 0H152Q143 0 143 8Q143 15 148 21L687 723Q696 734 702 738T716 743H819Q827 743 827 737ZM440 623Q440 601 436 581L423 506Q406 411 361 373T244 334Q184 334 154 370T123 464Q123 486 127 506L140 581Q149 630 164 663T202 715T253 743T318 752Q376 752 408 718T440 623ZM1100 278Q1100 304 1091 313T1064 323Q1042 323 1026 306T1001 238L988 163Q986 151 985 141T984 123Q984 97 993 87T1020 77Q1042 77 1058 94T1083 163L1096 238Q1098 250 1099 260T1100 278ZM747 278Q747 304 738 313T711 323Q689 323 673 306T648 238L635 163Q633 151 632 141T631 123Q631 97 640 87T667 77Q689 77 705 94T730 163L743 238Q745 250 746 260T747 278ZM339 621Q339 647 330 656T303 666Q281 666 265 649T240 581L227 506Q225 494 224 484T223 466Q223 440 232 430T259 420Q281 420 297 437T322 506L335 581Q337 593 338 603T339 621Z"  />
<glyph unicode="&#x2039;" horiz-adv-x="413" d="M468 500Q468 493 462 489L238 286L379 83Q381 81 381 76Q381 63 365 63H256Q236 63 228 75L101 260Q91 274 91 289Q91 298 95 305T105 319L291 497Q303 509 323 509H456Q468 509 468 500Z"  />
<glyph unicode="&#x203A;" horiz-adv-x="413" d="M428 283Q428 267 414 253L228 75Q216 63 196 63H63Q51 63 51 72Q51 78 57 83L281 286L140 489Q138 491 138 496Q138 509 154 509H263Q283 509 291 497L418 312Q428 298 428 283Z"  />
<glyph unicode="&#x20AC;" horiz-adv-x="645" d="M710 712L692 615Q689 595 670 595H667Q638 597 605 600T530 603Q477 603 439 577T380 488H593Q608 488 608 476Q608 474 606 468L586 424Q577 404 562 404H361L350 342H533Q546 342 546 331Q546 328 545 327L519 267Q516 258 503 258H339V253V243Q339 211 347 191T371 160T406 145T449 140Q491 140 525 143T588 148H591Q608 148 608 133Q608 132 608 131T607 128L589 31Q587 20 581 16T563 8Q546 3 510 -3T421 -9Q372 -9 326 5T245 51T188 129T166 242V253V258H125Q109 258 109 274V278L117 322Q119 330 125 336T140 342H175L186 404H151Q135 404 135 420V424L143 468Q145 476 151 482T166 488H203Q221 566 257 617T340 698T441 740T549 752Q602 752 639 746T691 734Q699 731 704 728T710 717V712Z"  />
<glyph unicode="&#x2122;" horiz-adv-x="830" d="M889 349Q889 339 878 339H800Q789 339 789 349V591Q789 612 786 625T775 645T754 654T719 657V349Q719 339 708 339H629Q619 339 619 349V657Q599 657 582 656T549 653V349Q549 339 539 339H461Q450 339 450 349V704Q450 723 456 729T478 738Q532 743 579 745T668 747Q721 747 762 743T831 722T874 674T889 591V349ZM418 673Q418 660 405 660H323V352Q323 339 310 339H233Q220 339 220 352V660H136Q123 660 123 673V730Q123 743 136 743H405Q418 743 418 730V673Z"  />

</font>
</defs>
</svg>
